Subcategories

Claudio Scimone, Philharmonia Orchestra, Ambrosian Singers - Puccini: Messa di Gloria (1984)

Posted By: ArlegZ
Claudio Scimone, Philharmonia Orchestra, Ambrosian Singers - Puccini: Messa di Gloria (1984)

Claudio Scimone, Philharmonia Orchestra, Ambrosian Singers - Puccini: Messa di Gloria (1984)
EAC | FLAC | Image (Cue & Log) ~ 195 Mb | Total time: 47:50 | Scans included
Classical | Label: Erato | 2292-45197-2 | Recorded: 1983

Opera composer Puccini was a young man when he crafted this splendid work. Its text is the old-fashioned Roman Catholic Latin Mass. The title of the work derives from its longest component, the "Gloria." Youthful exuberance and optimism underlie the work.

Performer:
José Carreras, tenor
Hermann Prey, baritone
Ambrosian Singers
Philharmonia Orchestra
Claudio Scimone, conductor

Track List:
Messa di Gloria
01. I. Kyrie
02. II. Gloria
03. III. Credo
04. IV. Sanctus
05. V. Agnus Dei


Exact Audio Copy V1.2 from 12. August 2016

EAC extraction logfile from 9. October 2017, 23:20

Claudio Scimone, Philharmonia Orchestra / Messa di Gloria

Used drive : MATSHITADVD-RAM UJ8G6 Adapter: 1 ID: 0

Read mode : Secure
Utilize accurate stream : Yes
Defeat audio cache : Yes
Make use of C2 pointers : No

Read offset correction : 103
Overread into Lead-In and Lead-Out : No
Fill up missing offset samples with silence : Yes
Delete leading and trailing silent blocks : No
Null samples used in CRC calculations : Yes
Used interface : Native Win32 interface for Win NT & 2000

Used output format : User Defined Encoder
Selected bitrate : 768 kBit/s
Quality : High
Add ID3 tag : No
Command line compressor : C:\Program Files (x86)\Exact Audio Copy\Flac\flac.exe
Additional command line options : -6 -V -T "ARTIST=%artist%" -T "TITLE=%title%" -T "ALBUM=%albumtitle%" -T "DATE=%year%" -T "TRACKNUMBER=%tracknr%" -T "GENRE=%genre%" -T "COMMENT=%comment%" -T "BAND=%albuminterpret%" -T "ALBUMARTIST=%albuminterpret%" -T "COMPOSER=%composer%" %haslyrics%–tag-from-file=LYRICS="%lyricsfile%"%haslyrics% -T "DISCNUMBER=%cdnumber%" -T "TOTALDISCS=%totalcds%" -T "TOTALTRACKS=%numtracks%" %hascover%–picture="%coverfile%"%hascover% %source% -o %dest%


TOC of the extracted CD

Track | Start | Length | Start sector | End sector
––––––––––––––––––––––––––––-
1 | 0:00.00 | 5:09.40 | 0 | 23214
2 | 5:09.40 | 20:17.15 | 23215 | 114504
3 | 25:26.55 | 15:59.07 | 114505 | 186436
4 | 41:25.62 | 3:40.55 | 186437 | 202991
5 | 45:06.42 | 2:38.73 | 202992 | 214914


Range status and errors

Selected range

Filename C:\Users\Roy\Music\PUCCINI - Messa di Gloria (1984)\CD (FLAC + CUE)\Giacomo Puccini - Messa di Gloria.wav

Peak level 85.4 %
Extraction speed 3.9 X
Range quality 100.0 %
Test CRC 7309F1D9
Copy CRC 7309F1D9
Copy OK

No errors occurred


AccurateRip summary

Track 1 accurately ripped (confidence 7) [07A9A75F] (AR v2)
Track 2 accurately ripped (confidence 6) [9270B079] (AR v2)
Track 3 accurately ripped (confidence 6) [4AC0E59D] (AR v2)
Track 4 accurately ripped (confidence 6) [4AC049C2] (AR v2)
Track 5 accurately ripped (confidence 6) [41CB85DA] (AR v2)

All tracks accurately ripped

End of status report

–– CUETools DB Plugin V2.1.6

[CTDB TOCID: ctplS2oDoXBah1xfq7rSGk52pOg-] found
Submit result: already submitted
Track | CTDB Status
1 | (16/16) Accurately ripped
2 | (16/16) Accurately ripped
3 | (15/16) Accurately ripped
4 | (16/16) Accurately ripped
5 | (16/16) Accurately ripped


==== Log checksum 0236E42F66897EE83C7A413EB6A623D6075F290656B49D54AC9FA1CC32A16E29 ====

Claudio Scimone, Philharmonia Orchestra, Ambrosian Singers - Puccini: Messa di Gloria (1984)

Thanks to the original releaser