Tags
Language
Tags

Coil - Astral Disaster (1999) [Reissue 2000]

Posted By: gribovar
Coil - Astral Disaster (1999) [Reissue 2000]

Coil - Astral Disaster (1999) [Reissue 2000]
EAC Rip | FLAC (image+.cue+log) - 361 MB | MP3 CBR 320 kbps (LAME 3.93) - 170 MB | Covers - 5 MB
Genre: Electronic, Ambient, Experimental | RAR 3% Rec. | Label: Threshold House (LOCI CD14)

The initial 1999 version of Astral Disaster on Prescription was an ultra-limited release in a symbolic edition of 99 copies on vinyl only. The CD reissue of what must be one of Coil's more collectable cult items has been slightly remixed, and includes an extra track not on the original as a consolation to the fanatics who missed out on the Holy Grail LP version. Not comparable to the sublime brilliance the group achieved on Musick to Play in the Dark, Astral Disaster mines different territory altogether, and is a strong album that features a notable folk influence. With this approach transfigured through industrial and electronic means, the album bears striking similarities to Current 93 in its exploration of esoteric and mystical themes.

Tracklist:
01. The Avatars
02. The Mothership & The Fatherland
03. 2nd. Sun Syndrome
04. The Sea Priestess
05. I Don't Want To Be The One
06. MU-UR

Total time: 01:12:23

Exact Audio Copy V0.99 prebeta 4 from 23. January 2008

Отчёт EAC об извлечении, выполненном 14. марта 2010, 20:03

Coil / The Ape Of Naples

Дисковод: _NEC DVD_RW ND-4570A Adapter: 1 ID: 0

Режим чтения : Достоверность
Использование точного потока : Да
Отключение кэша аудио : Да
Использование указателей C2 : Нет

Коррекция смещения при чтении : 48
Способность читать области Lead-in и Lead-out : Нет
Заполнение пропущенных сэмплов тишиной : Да
Удаление блоков с тишиной в начале и конце : Нет
При вычислениях CRC использовались нулевые сэмплы : Да
Интерфейс : Встроенный Win32-интерфейс для Win NT/2000

Выходной формат : Пользовательский кодировщик
Выбранный битрейт : 128 kBit/s
Качество : Высокий
Добавление ID3-тэга : Нет
Утилита сжатия : C:\Program Files\Exact Audio Copy\FLAC\FLAC.EXE
Дополнительные параметры : -6 -V -T "ARTIST=%a" -T "TITLE=%t" -T "ALBUM=%g" -T "DATE=%y" -T "TRACKNUMBER=%n" -T "GENRE=%m" -T "COMMENT=%e" %s -o %d


TOC извлечённого CD

Трек | Старт | Длительность | Начальный сектор | Конечный сектор
––––––––––––––––––––––––––––––––––-
1 | 0:00.00 | 5:14.00 | 0 | 23549
2 | 5:14.00 | 10:11.20 | 23550 | 69394
3 | 15:25.20 | 6:33.65 | 69395 | 98934
4 | 21:59.10 | 3:46.40 | 98935 | 115924
5 | 25:45.50 | 4:51.31 | 115925 | 137780
6 | 30:37.06 | 5:35.18 | 137781 | 162923
7 | 36:12.24 | 4:21.65 | 162924 | 182563
8 | 40:34.14 | 4:08.55 | 182564 | 201218
9 | 44:42.69 | 7:11.35 | 201219 | 233578
10 | 51:54.29 | 5:12.37 | 233579 | 257015
11 | 57:06.66 | 8:28.07 | 257016 | 295122


Характеристики диапазона извлечения и сообщения об ошибках

Выбранный диапазон

Имя файла D:\Coil - The Ape Of Naples\Coil - The Ape Of Naples.wav

Пиковый уровень 100.0 %
Качество диапазона 99.9 %
CRC теста 268D1D34
CRC копии 268D1D34
Копирование… OK

Ошибок не произошло


AccurateRip: сводка

Трек 1 точное извлечение (доверие 18) [8A2212AD]
Трек 2 точное извлечение (доверие 19) [FB32593C]
Трек 3 точное извлечение (доверие 19) [2C6B99B3]
Трек 4 точное извлечение (доверие 19) [57216E88]
Трек 5 точное извлечение (доверие 19) [1AD11712]
Трек 6 точное извлечение (доверие 20) [2FB61968]
Трек 7 точное извлечение (доверие 18) [85789CF2]
Трек 8 точное извлечение (доверие 19) [BDAB08FE]
Трек 9 точное извлечение (доверие 17) [32EA3C57]
Трек 10 точное извлечение (доверие 19) [8B871C4F]
Трек 11 точное извлечение (доверие 19) [923B61FD]

Все треки извлечены точно

Конец отчёта

[CUETools log; Date: 24.07.2021 13:10:38; Version: 2.1.4]
[CTDB TOCID: RQW3cUed1XaBYlZ_GdGXoIzUOLk-] found.
Track | CTDB Status
1 | (78/78) Accurately ripped
2 | (77/78) Accurately ripped
3 | (78/78) Accurately ripped
4 | (78/78) Accurately ripped
5 | (78/78) Accurately ripped
6 | (78/78) Accurately ripped
7 | (78/78) Accurately ripped
8 | (78/78) Accurately ripped
9 | (78/78) Accurately ripped
10 | (78/78) Accurately ripped
11 | (76/78) Accurately ripped
[AccurateRip ID: 001b215b-00e78862-980f5e0b] found.
Track [ CRC | V2 ] Status
01 [8a2212ad|f879ea5f] (21+20/54) Accurately ripped
02 [fb32593c|ea2f9142] (22+20/55) Accurately ripped
03 [2c6b99b3|e420b3d0] (22+20/55) Accurately ripped
04 [57216e88|28649801] (22+20/55) Accurately ripped
05 [1ad11712|6cd55d52] (22+20/55) Accurately ripped
06 [2fb61968|8d312123] (23+20/56) Accurately ripped
07 [85789cf2|d8206c9f] (21+20/54) Accurately ripped
08 [bdab08fe|b956c62b] (22+20/55) Accurately ripped
09 [32ea3c57|392d50cb] (20+20/53) Accurately ripped
10 [8b871c4f|f38da4e8] (22+20/55) Accurately ripped
11 [923b61fd|4fc1655c] (22+17/52) Accurately ripped
Offsetted by -30:
01 [d3f07a71] (00/54) No match (V2 was not tested)
02 [ed52b79e] (00/55) No match (V2 was not tested)
03 [7db7798f] (00/55) No match (V2 was not tested)
04 [5d180886] (00/55) No match (V2 was not tested)
05 [0b7ed8fa] (00/55) No match (V2 was not tested)
06 [359282f0] (00/56) No match (V2 was not tested)
07 [f9d835be] (00/54) No match (V2 was not tested)
08 [d233758a] (00/55) No match (V2 was not tested)
09 [7a65cf31] (00/53) No match
10 [0e4e1ecc] (00/55) No match
11 [a6c9736e] (00/52) No match
Offsetted by 6:
01 [7893a8d0] (00/54) No match (V2 was not tested)
02 [64727999] (00/55) No match (V2 was not tested)
03 [e8f60687] (00/55) No match (V2 was not tested)
04 [1ff5f950] (00/55) No match (V2 was not tested)
05 [8b4d756d] (00/55) No match (V2 was not tested)
06 [9ee7b366] (00/56) No match (V2 was not tested)
07 [ff5da88f] (00/54) No match (V2 was not tested)
08 [73ec78c7] (00/55) No match (V2 was not tested)
09 [dcb5f8fd] (00/53) No match (V2 was not tested)
10 [c4b352d1] (00/55) No match (V2 was not tested)
11 [bdce06c3] (00/52) No match (V2 was not tested)

Track Peak [ CRC32 ] [W/O NULL] [ LOG ]
– 100,0 [268D1D34] [3DF13AFD] CRC32
01 100,0 [6ECD13A6] [C4528DF6]
02 94,4 [1FB1C92F] [994857EB]
03 99,9 [B9580234] [F422AF3D]
04 100,0 [163AD839] [F93094D1]
05 100,0 [1E16B4A8] [388152E7]
06 99,9 [FC7400B4] [25A769A0]
07 99,9 [0B158BDE] [952DA6AB]
08 99,9 [122ADFC9] [EA08AFCD]
09 99,9 [87F0BCF9] [59C98CB4]
10 100,0 [4E60BBFF] [FAD043FB]
11 100,0 [1B30A44B] [5D0B7D5A]

Thanks to unbalance

See also:
Coil - Musick to Play in the Dark Vol. 1-2 (1999-2000)
Coil - The Remote Viewer (2002) [2CD Reissue 2006]
Coil - Moon's Milk (In Four Phases) (2002)
Coil - ANS [3CD Box Set] (2004)
Coil - The Ape Of Naples (2005)
Coil - The New Backwards (2008)