Tags
Language
Tags

Coil - Unnatural History I-III (1990-1997)

Posted By: gribovar
Coil - Unnatural History I-III (1990-1997)

Coil - Unnatural History I-III (1990-1997)
EAC Rip | FLAC (image+.cue+log) - 1,05 GB | MP3 CBR 320 kbps (LAME 3.93) - 469 MB | Covers - 22 MB
Genre: Electronic, Experimental, Ambient | RAR 3% Rec. | Label: Threshold House

The Unnatural History series puts obscure, collectable, and out of print singles, compilation tracks, and soundtracks on CD, making those ultra-limited works available all in one place.
Unnatural History (1990). The tracks were recorded during the 1983-86 timeline and include not only the classic Balance / Christopherson mind bending electronic surreality as Coil but also include three tracks with Boyd Rice when they were known as Sickness of Snakes which released one EP titled "Nightmare Culture." For anyone who is familiar with the bizarre musical (or not so much so) adventures of Coil, then nothing on this compilation will be overly shocking however this collection provides a interesting historical glimpse into how Balance and Christopherson evolved from making phantasmagoric electronic mind trips that focused on non-melodic or even non-musical experiments with industrial, psychedelia and the avant-garde elements, to how they eventually added bleak and forbidding melodic components.

Unnatural History II (1995). On the stunning second edition of the series, three tracks are previously unreleased: "In Memory of the Truth," "Unquiet Rest," and "Wait, Then Return" are outstanding Coil rituals that were recorded during the same sessions as the Hellraiser soundtrack. "Vanishing Point" appears to be an unknown title, yet in fact it is a version of "Attack of the Sennapods" from Hellraiser Themes. To make things even more mysterious (in typically enigmatic Coil fashion), the last track, "The Hills Are Alive," is not listed on the cover, nor is it given a CD index. This track appears on the same index as "Theme From Blue II," following an extended silence. However, the highlights of the collection are the tracks "Another Brown World" and "Contains a Disclaimer," which are both recordings Coil made in Burma. Coil captured an extraordinary field recording of a monk singing chants, which they worked into the Coil miasma. Perhaps one of the single most influential voices in post-industrial music of the '80s and '90s, Coil seems to create sublime poetry in its music that is never short of brilliant, regardless of whatever diversions the group may take.

Unnatural History III (1997). The Unnatural History series attempts, much like Stereolab's Switched On series, to collect scattered EP and compilation tracks from throughout Coil's career. This one covers mostly early-'90s material, centering on songs recorded around Love's Secret Domain, but it also includes some rare tracks dating back to the mid-'80s. "First Dark Ride" and "Baby Food" are excellent long-form explorations into sound sculpture, not resembling "songs" per se, but atmospheres and textures. These are followed by the intriguing "Music for Commercials," 11 bits of incidental music used in adverts for products like natural gas, accident insurance, perfume, and analgesics. Peter Christopherson's background in commercial video production and album design probably played a hand in getting the work. Coil transcend any accusations of "selling out" by creating music that still has their imprimatur on it, but work in a commercial setting. Very unique and unlike anything else in the Coil catalog. Also included is "Feeder," collaboration with Chris & Cosey. One of the more creepy songs on the album, a solo piano and cello begin the piece but are buried under a wall of noisy dub effects and John Balance's unearthly vocals, only to re-appear playing a twisted slow waltz. In Coil's extensive discography, this is a standout, but probably not the best place for neophytes, who would be better served by Love's Secret Domain or Stolen and Contaminated Songs.

Coil - Unnatural History I-III (1990-1997)

Coil - Unnatural History (1990)
EAC Rip | FLAC (image+.cue+log) - 243 MB | MP3 CBR 320 kbps (LAME 3.93) - 135 MB | Covers - 5 MB
Genre: Electronic, Experimental, Ambient | RAR 3% Rec. | Label: Threshold House (LOCI CD2)

Tracklist:
01. Various Hands
02. The Swelling Of Leeches
03. The Pope Held Upside Down
04. His Body Was A Playground For The Nazi Elite
05. Homage To Sewage
06. Here To Here (Double Headed Secret)
07. S Is For Sleep
08. Dream Photography
09. Comfortable
10. Never
11. Penetralia II
12. Sicktone
13. How To Destroy Angels

Total time: 57:16

Exact Audio Copy V0.99 prebeta 4 from 23. January 2008

EAC extraction logfile from 9. June 2009, 22:17

Coil / Unnatural History

Used drive : _NEC DVD_RW ND-4570A Adapter: 1 ID: 0

Read mode : Secure
Utilize accurate stream : Yes
Defeat audio cache : Yes
Make use of C2 pointers : No

Read offset correction : 48
Overread into Lead-In and Lead-Out : No
Fill up missing offset samples with silence : Yes
Delete leading and trailing silent blocks : No
Null samples used in CRC calculations : Yes
Used interface : Native Win32 interface for Win NT & 2000

Used output format : User Defined Encoder
Selected bitrate : 1024 kBit/s
Quality : High
Add ID3 tag : No
Command line compressor : C:\Program Files\FLAC\flac.exe


TOC of the extracted CD

Track | Start | Length | Start sector | End sector
––––––––––––––––––––––––––––-
1 | 0:00.00 | 3:26.60 | 0 | 15509
2 | 3:26.60 | 3:04.32 | 15510 | 29341
3 | 6:31.17 | 3:41.20 | 29342 | 45936
4 | 10:12.37 | 3:28.45 | 45937 | 61581
5 | 13:41.07 | 2:22.68 | 61582 | 72299
6 | 16:04.00 | 4:51.45 | 72300 | 94169
7 | 20:55.45 | 3:26.20 | 94170 | 109639
8 | 24:21.65 | 3:22.55 | 109640 | 124844
9 | 27:44.45 | 1:40.32 | 124845 | 132376
10 | 29:25.02 | 4:36.73 | 132377 | 153149
11 | 34:02.00 | 3:10.72 | 153150 | 167471
12 | 37:12.72 | 3:22.30 | 167472 | 182651
13 | 40:35.27 | 16:41.03 | 182652 | 257729


Range status and errors

Selected range

Filename E:\раздача\Coil - Unnatural History\Coil - Unnatural History.wav

Peak level 99.3 %
Range quality 100.0 %
Test CRC 50B7A8B9
Copy CRC 50B7A8B9
Copy OK

No errors occurred


AccurateRip summary

Track 1 accurately ripped (confidence 1) [9D1DA8A1]
Track 2 accurately ripped (confidence 1) [3B465B30]
Track 3 accurately ripped (confidence 1) [95BE67CE]
Track 4 accurately ripped (confidence 1) [A9094DCE]
Track 5 accurately ripped (confidence 1) [C9DA7680]
Track 6 accurately ripped (confidence 1) [16510571]
Track 7 accurately ripped (confidence 1) [752BA8E4]
Track 8 accurately ripped (confidence 1) [1621D5EB]
Track 9 accurately ripped (confidence 1) [5C76A8A4]
Track 10 accurately ripped (confidence 1) [E73BA143]
Track 11 accurately ripped (confidence 1) [64F3B34F]
Track 12 accurately ripped (confidence 1) [FED69071]
Track 13 accurately ripped (confidence 1) [41728CF7]

All tracks accurately ripped

End of status report

[CUETools log; Date: 01.08.2021 0:33:19; Version: 2.1.4]
[CTDB TOCID: VW6naoBeWUPJ0Wr.4XCMQpC0vRY-] found.
Track | CTDB Status
1 | (20/20) Accurately ripped
2 | (20/20) Accurately ripped
3 | (20/20) Accurately ripped
4 | (20/20) Accurately ripped
5 | (20/20) Accurately ripped
6 | (20/20) Accurately ripped
7 | (20/20) Accurately ripped
8 | (20/20) Accurately ripped
9 | (20/20) Accurately ripped
10 | (19/20) Accurately ripped
11 | (20/20) Accurately ripped
12 | (20/20) Accurately ripped
13 | (20/20) Accurately ripped
[AccurateRip ID: 00161333-00e06230-b20d6c0d] found.
Track [ CRC | V2 ] Status
01 [9d1da8a1|111a22a7] (2+0/6) Accurately ripped
02 [3b465b30|5fddba6b] (2+0/6) Accurately ripped
03 [95be67ce|62e9a053] (2+0/6) Accurately ripped
04 [a9094dce|17801137] (2+0/6) Accurately ripped
05 [c9da7680|1520610c] (2+0/6) Accurately ripped
06 [16510571|84d4990f] (2+0/6) Accurately ripped
07 [752ba8e4|2556ca28] (2+0/6) Accurately ripped
08 [1621d5eb|76b52d9e] (2+0/6) Accurately ripped
09 [5c76a8a4|c00bc986] (2+0/6) Accurately ripped
10 [e73ba143|61a7c3f4] (2+0/6) Accurately ripped
11 [64f3b34f|f489f2a5] (2+0/6) Accurately ripped
12 [fed69071|b3542996] (2+0/6) Accurately ripped
13 [41728cf7|5e18ab23] (2+0/6) Accurately ripped

Track Peak [ CRC32 ] [W/O NULL] [ LOG ]
– 99,3 [50B7A8B9] [40B24FC5] CRC32
01 78,0 [1BFE84B6] [9CB3254B]
02 85,0 [D0398ADD] [2AA113F8]
03 99,3 [E8318066] [5C4C6938]
04 83,5 [8ABB375F] [994DB4BA]
05 64,3 [8E832044] [87888D18]
06 66,2 [9E965CD9] [D12D145B]
07 88,3 [64E52ED7] [8986EBBC]
08 68,0 [02492F98] [520B837A]
09 57,8 [E156CD27] [7D0554C0]
10 47,4 [CC302267] [C5287DBA]
11 71,4 [1E82E963] [0D7115C4]
12 86,3 [B12E21E2] [C220C457]
13 98,7 [8F7D0E88] [66A3E21C]

Coil - Unnatural History I-III (1990-1997)

Coil - Unnatural History II (1995)
EAC Rip | FLAC (image+.cue+log) - 378 MB | MP3 CBR 320 kbps (LAME 3.93) - 157 MB | Covers - 12 MB
Genre: Electronic, Experimental, Ambient | RAR 3% Rec. | Label: Threshold House (LOCI CD10)

Tracklist:
01. Red Weather
02. Theme From Blue I
03. Airborne Bells
04. Another Brown World
05. Contains A Disclaimer
06. The Hellraiser Theme
07. In Memory Of The Truth
08. Unquiet Rest
09. Wait, Then Return
10. The Hellbound Heart
11. The Box Theme
12. No New World
13. Vanishing Point
14. The Main Title
15.1 Theme From Blue II
15.2 Untitled
15.3 The Hills Are Alive

Total time: 01:06:51

Exact Audio Copy V0.99 prebeta 4 from 23. January 2008

Отчёт EAC об извлечении, выполненном 25. апреля 2008, 8:52

Coil / Unnatural History II

Дисковод: ASUS CB-5216A Adapter: 1 ID: 1

Режим чтения : Достоверность
Использование точного потока : Да
Отключение кэша аудио : Да
Использование указателей C2 : Нет

Коррекция смещения при чтении : 6
Способность читать области Lead-in и Lead-out : Нет
Заполнение пропущенных сэмплов тишиной : Да
Удаление блоков с тишиной в начале и конце : Нет
При вычислениях CRC использовались нулевые сэмплы : Да
Интерфейс : Встроенный Win32-интерфейс для Win NT/2000

Выходной формат : Пользовательский кодировщик
Выбранный битрейт : 1024 kBit/s
Качество : Высокий
Добавление ID3-тэга : Нет
Утилита сжатия : C:\Program Files\Exact Audio Copy\FLAC\FLAC.EXE
Дополнительные параметры : -6 -V -T "ARTIST=%a" -T "TITLE=%t" -T "ALBUM=%g" -T "DATE=%y" -T "TRACKNUMBER=%n" -T "GENRE=%m" -T "COMMENT=%e" %s -o %d


TOC извлечённого CD

Трек | Старт | Длительность | Начальный сектор | Конечный сектор
––––––––––––––––––––––––––––––––––-
1 | 0:00.32 | 4:12.10 | 32 | 18941
2 | 4:12.42 | 2:21.03 | 18942 | 29519
3 | 6:33.45 | 5:21.27 | 29520 | 53621
4 | 11:54.72 | 11:41.68 | 53622 | 106264
5 | 23:36.65 | 7:34.50 | 106265 | 140364
6 | 31:11.40 | 2:47.62 | 140365 | 152951
7 | 33:59.27 | 2:57.30 | 152952 | 166256
8 | 36:56.57 | 2:04.28 | 166257 | 175584
9 | 39:01.10 | 2:11.05 | 175585 | 185414
10 | 41:12.15 | 2:21.35 | 185415 | 196024
11 | 43:33.50 | 3:04.12 | 196025 | 209836
12 | 46:37.62 | 3:56.33 | 209837 | 227569
13 | 50:34.20 | 1:53.32 | 227570 | 236076
14 | 52:27.52 | 3:19.28 | 236077 | 251029
15 | 55:47.05 | 11:04.02 | 251030 | 300831


Характеристики диапазона извлечения и сообщения об ошибках

Выбранный диапазон

Имя файла E:\раздача\Coil\History 2\Coil - Unnatural History II.wav

Пиковый уровень 96.8 %
Качество диапазона 100.0 %
CRC копии A75A31D2
Копирование… OK

Ошибок не произошло


AccurateRip: сводка

Трек 1 точное извлечение (доверие 2) [4FF5DE16]
Трек 2 точное извлечение (доверие 2) [B2F5D290]
Трек 3 точное извлечение (доверие 2) [F0CE7737]
Трек 4 точное извлечение (доверие 2) [1090CAE2]
Трек 5 точное извлечение (доверие 2) [F0CDD84C]
Трек 6 точное извлечение (доверие 2) [BC11EE57]
Трек 7 точное извлечение (доверие 2) [8D100BDB]
Трек 8 точное извлечение (доверие 2) [5F7C0F0B]
Трек 9 точное извлечение (доверие 2) [7031CA5D]
Трек 10 точное извлечение (доверие 2) [82F7E562]
Трек 11 точное извлечение (доверие 2) [38B8AAB0]
Трек 12 точное извлечение (доверие 2) [09846C08]
Трек 13 точное извлечение (доверие 2) [14ECCEAC]
Трек 14 точное извлечение (доверие 2) [781AAE24]
Трек 15 точное извлечение (доверие 2) [95E741D6]

Все треки извлечены точно

Конец отчёта

[CUETools log; Date: 01.08.2021 0:34:05; Version: 2.1.4]
Pregap length 00:00:32.
[CTDB TOCID: IoxRKDqW7pymtUDGgSS.5SssiZ4-] found.
Track | CTDB Status
1 | (41/41) Accurately ripped
2 | (41/41) Accurately ripped
3 | (41/41) Accurately ripped
4 | (41/41) Accurately ripped
5 | (41/41) Accurately ripped
6 | (41/41) Accurately ripped
7 | (41/41) Accurately ripped
8 | (41/41) Accurately ripped
9 | (41/41) Accurately ripped
10 | (41/41) Accurately ripped
11 | (40/41) Accurately ripped
12 | (40/41) Accurately ripped
13 | (40/41) Accurately ripped
14 | (40/41) Accurately ripped
15 | (40/41) Accurately ripped
[AccurateRip ID: 00256396-019cff47-d70fab0f] found.
Track [ CRC | V2 ] Status
01 [4ff5de16|52641792] (18+28/49) Accurately ripped
02 [b2f5d290|444c7d0a] (18+29/50) Accurately ripped
03 [f0ce7737|1ff7bc55] (18+29/50) Accurately ripped
04 [1090cae2|dc605bed] (18+29/50) Accurately ripped
05 [f0cdd84c|49c79a1b] (18+29/50) Accurately ripped
06 [bc11ee57|5d3219c1] (18+29/50) Accurately ripped
07 [8d100bdb|4e0341fe] (18+29/50) Accurately ripped
08 [5f7c0f0b|959a6820] (18+29/50) Accurately ripped
09 [7031ca5d|8bbe7004] (18+29/50) Accurately ripped
10 [82f7e562|7794fb6f] (18+29/50) Accurately ripped
11 [38b8aab0|d066466a] (18+29/50) Accurately ripped
12 [09846c08|cf73a859] (18+29/50) Accurately ripped
13 [14ecceac|1c03049b] (17+29/49) Accurately ripped
14 [781aae24|87f0426d] (18+29/50) Accurately ripped
15 [95e741d6|9525d836] (18+29/50) Accurately ripped
Offsetted by -628:
01 [05862c82] (00/49) No match (V2 was not tested)
02 [463e7c70] (00/50) No match (V2 was not tested)
03 [fbfb022f] (00/50) No match (V2 was not tested)
04 [8e0645f2] (00/50) No match (V2 was not tested)
05 [d100b540] (00/50) No match (V2 was not tested)
06 [7175425f] (00/50) No match (V2 was not tested)
07 [3229dd7b] (00/50) No match (V2 was not tested)
08 [e8e1e1a3] (00/50) No match (V2 was not tested)
09 [bd8388e1] (00/50) No match (V2 was not tested)
10 [6fd93582] (00/50) No match (V2 was not tested)
11 [c5086bc4] (00/50) No match (V2 was not tested)
12 [34eed7e8] (00/50) No match (V2 was not tested)
13 [44897198] (00/49) No match (V2 was not tested)
14 [0b3cb394] (00/50) No match (V2 was not tested)
15 [7538cbae] (00/50) No match (V2 was not tested)

Track Peak [ CRC32 ] [W/O NULL] [ LOG ]
– 96,8 [A75A31D2] [2B6BB233] CRC32
01 96,8 [02ACA586] [5B91EAAF]
02 96,8 [9565E49E] [493BE434]
03 96,8 [D7F155E9] [C0C97376]
04 96,8 [901567C2] [5FD7264C]
05 96,8 [7A1EE497] [0ADCFA83]
06 96,8 [E6E7489F] [591BD9AF]
07 79,4 [F42976DB] [D6A76B59]
08 74,0 [A3A7C784] [FF27A583]
09 63,2 [64CDC1FC] [86B41093]
10 89,8 [8DE7C346] [6CB0D2CA]
11 96,8 [D54992FC] [1DD3D133]
12 96,8 [4080EB1F] [6CF5FE58]
13 96,8 [3B25FC6E] [288366E9]
14 96,8 [9A925348] [27C44518]
15 96,8 [0EDADB4A] [74B130C6]

Coil - Unnatural History I-III (1990-1997)

Coil - Unnatural History III (1997)
EAC Rip | FLAC (image+.cue+log) - 431 MB | MP3 CBR 320 kbps (LAME 3.93) - 177 MB | Covers - 5 MB
Genre: Electronic, Experimental, Ambient | RAR 3% Rec. | Label: Threshold House (LOCI CD12)

Tracklist:
01. First Dark Ride
02. Baby Food
03. Music For Commercials
04. Panic (12" Version)
05. Neither His Nor Yours
06. Feeder
07. Wrong Eye
08. Meaning What Exactly?
09. Scope
10. Lost Rivers Of London

Total time: 01:15:23

Exact Audio Copy V0.99 prebeta 4 from 23. January 2008

EAC extraction logfile from 7. February 2009, 21:04

Coil / Unnatural History III

Used drive : ASUS CB-5216A Adapter: 1 ID: 1

Read mode : Secure
Utilize accurate stream : Yes
Defeat audio cache : Yes
Make use of C2 pointers : No

Read offset correction : 6
Overread into Lead-In and Lead-Out : No
Fill up missing offset samples with silence : Yes
Delete leading and trailing silent blocks : No
Null samples used in CRC calculations : Yes
Used interface : Native Win32 interface for Win NT & 2000

Used output format : User Defined Encoder
Selected bitrate : 1024 kBit/s
Quality : High
Add ID3 tag : No
Command line compressor : C:\Program Files\Exact Audio Copy\FLAC\FLAC.EXE
Additional command line options : -6 -V -T "ARTIST=%a" -T "TITLE=%t" -T "ALBUM=%g" -T "DATE=%y" -T "TRACKNUMBER=%n" -T "GENRE=%m" -T "COMMENT=%e" %s -o %d


TOC of the extracted CD

Track | Start | Length | Start sector | End sector
––––––––––––––––––––––––––––-
1 | 0:00.00 | 10:53.45 | 0 | 49019
2 | 10:53.45 | 12:32.60 | 49020 | 105479
3 | 23:26.30 | 8:45.27 | 105480 | 144881
4 | 32:11.57 | 7:34.60 | 144882 | 178991
5 | 39:46.42 | 2:50.45 | 178992 | 191786
6 | 42:37.12 | 8:41.40 | 191787 | 230901
7 | 51:18.52 | 5:59.65 | 230902 | 257891
8 | 57:18.42 | 3:45.33 | 257892 | 274799
9 | 61:04.00 | 6:37.67 | 274800 | 304641
10 | 67:41.67 | 7:41.33 | 304642 | 339249


Range status and errors

Selected range

Filename E:\раздача\Coil - Unnatural History III\Coil - Unnatural History III.wav

Peak level 94.3 %
Range quality 100.0 %
Test CRC 4D2A9AED
Copy CRC 4D2A9AED
Copy OK

No errors occurred


AccurateRip summary

Track 1 accurately ripped (confidence 3) [3423C908]
Track 2 accurately ripped (confidence 3) [E11F1AFC]
Track 3 accurately ripped (confidence 3) [F2140C5B]
Track 4 accurately ripped (confidence 3) [724B7B5A]
Track 5 accurately ripped (confidence 3) [80FB5FC1]
Track 6 accurately ripped (confidence 3) [90D6A24A]
Track 7 accurately ripped (confidence 3) [D66F812F]
Track 8 accurately ripped (confidence 3) [F3829A89]
Track 9 accurately ripped (confidence 3) [E288F969]
Track 10 accurately ripped (confidence 3) [7C86EDA0]

All tracks accurately ripped

End of status report

[CUETools log; Date: 01.08.2021 0:34:46; Version: 2.1.4]
[CTDB TOCID: .DxEHLjm5_zkp8bUQ0cUGnXZFMk-] found.
Track | CTDB Status
1 | (48/48) Accurately ripped
2 | (48/48) Accurately ripped
3 | (48/48) Accurately ripped
4 | (48/48) Accurately ripped
5 | (48/48) Accurately ripped
6 | (48/48) Accurately ripped
7 | (48/48) Accurately ripped
8 | (48/48) Accurately ripped
9 | (48/48) Accurately ripped
10 | (48/48) Accurately ripped
[AccurateRip ID: 001fb3cf-00f3b0cf-9111ab0a] found.
Track [ CRC | V2 ] Status
01 [3423c908|525a61ce] (13+16/32) Accurately ripped
02 [e11f1afc|13cde568] (13+16/32) Accurately ripped
03 [f2140c5b|4f32ea33] (13+16/32) Accurately ripped
04 [724b7b5a|f4e43010] (13+16/32) Accurately ripped
05 [80fb5fc1|98699fb4] (13+16/32) Accurately ripped
06 [90d6a24a|c36d3ed4] (13+16/32) Accurately ripped
07 [d66f812f|be2db57d] (13+16/32) Accurately ripped
08 [f3829a89|423f05b4] (13+16/32) Accurately ripped
09 [e288f969|df39e9c6] (12+16/31) Accurately ripped
10 [7c86eda0|dc3acb01] (12+16/31) Accurately ripped
Offsetted by -664:
01 [8234c338] (00/32) No match (V2 was not tested)
02 [cbbeb994] (00/32) No match (V2 was not tested)
03 [7fb565f3] (00/32) No match (V2 was not tested)
04 [98b7a492] (00/32) No match (V2 was not tested)
05 [06021239] (00/32) No match (V2 was not tested)
06 [ded071da] (00/32) No match (V2 was not tested)
07 [f183681f] (00/32) No match (V2 was not tested)
08 [557dd701] (00/32) No match (V2 was not tested)
09 [33f06089] (00/31) No match (V2 was not tested)
10 [4f133448] (00/31) No match (V2 was not tested)

Track Peak [ CRC32 ] [W/O NULL] [ LOG ]
– 94,3 [4D2A9AED] [ECDBD73B] CRC32
01 94,3 [B5AF4BDA] [A8F06C1C]
02 70,3 [3838F6CA] [5B62C15F]
03 83,9 [5FC562FE] [058D54FD]
04 93,9 [69ED1820] [A2BFE0DB]
05 94,3 [D4524D40] [B86E5270]
06 93,7 [4330AE00] [5F607BA2]
07 92,9 [D6DCE656] [507E7C60]
08 94,3 [F269CEB6] [398A29E3]
09 94,3 [3B313648] [A37290FA]
10 94,0 [84073049] [17542648]

Thanks to unbalance

See also: