Tags
Language
Tags

Coil vs. ELpH - Born Again Pagans [EP] (1994)

Posted By: gribovar
Coil vs. ELpH - Born Again Pagans [EP] (1994)

Coil vs. ELpH - Born Again Pagans [EP] (1994)
EAC Rip | FLAC (image+.cue+log) - 117 MB | MP3 CBR 320 kbps (LAME 3.93) - 50 MB | Covers - 7 MB
Genre: Electronic, Ambient | RAR 3% Rec. | Label: Eskaton (Eskaton 002)

A 21 minute EP-length CD from Coil and one of their alter-egos, ELpH. In the CD booklet track one is attributed to Coil and tracks two, three and four are attributed to ELpH. The three ELpH tracks are more distinctively Coil-esque than the Coil track. The first of them is a slow, meditative ambient piece, which gives way to a very dark, intense (and all too brief) ambient piece. The final track is a reprise of the first ELpH track, which is now given time to develop further.
Tracklist:
01. Coil - Protection
02. ELpH - Glimpse
03. ELpH - Crawling Spirit
04. ELpH - pHILM #1

Total time: 21:36

Exact Audio Copy V0.99 prebeta 4 from 23. January 2008

EAC extraction logfile from 8. February 2010, 8:58

Coil vs. ELpH / Born Again Pagans

Used drive : _NEC DVD_RW ND-4570A Adapter: 1 ID: 0

Read mode : Secure
Utilize accurate stream : Yes
Defeat audio cache : Yes
Make use of C2 pointers : No

Read offset correction : 48
Overread into Lead-In and Lead-Out : No
Fill up missing offset samples with silence : Yes
Delete leading and trailing silent blocks : No
Null samples used in CRC calculations : Yes
Used interface : Native Win32 interface for Win NT & 2000

Used output format : User Defined Encoder
Selected bitrate : 128 kBit/s
Quality : High
Add ID3 tag : No
Command line compressor : C:\Program Files\Exact Audio Copy\FLAC\FLAC.EXE
Additional command line options : -6 -V -T "ARTIST=%a" -T "TITLE=%t" -T "ALBUM=%g" -T "DATE=%y" -T "TRACKNUMBER=%n" -T "GENRE=%m" -T "COMMENT=%e" %s -o %d


TOC of the extracted CD

Track | Start | Length | Start sector | End sector
––––––––––––––––––––––––––––-
1 | 0:00.32 | 6:55.40 | 32 | 31196
2 | 6:55.72 | 3:32.15 | 31197 | 47111
3 | 10:28.12 | 1:54.33 | 47112 | 55694
4 | 12:22.45 | 9:13.30 | 55695 | 97199


Range status and errors

Selected range

Filename D:\Coil\Coil vs. ELpH - Born Again Pagans\Coil vs. ELpH - Born Again Pagans.wav

Peak level 96.8 %
Range quality 100.0 %
Test CRC 12808F4A
Copy CRC 12808F4A
Copy OK

No errors occurred


AccurateRip summary

Track 1 accurately ripped (confidence 2) [16F9AA09]
Track 2 accurately ripped (confidence 2) [413B376A]
Track 3 accurately ripped (confidence 2) [7F76321C]
Track 4 accurately ripped (confidence 2) [53B10515]

All tracks accurately ripped

End of status report

[CUETools log; Date: 09.10.2021 2:08:18; Version: 2.1.4]
Pregap length 00:00:32.
[CTDB TOCID: gvGNN3QWMyztgKTtPp_A63ZMJvg-] found.
Track | CTDB Status
1 | (37/37) Accurately ripped
2 | (37/37) Accurately ripped
3 | (37/37) Accurately ripped
4 | (37/37) Accurately ripped
[AccurateRip ID: 00038744-000dec9e-26051004] found.
Track [ CRC | V2 ] Status
01 [16f9aa09|87df479f] (02+02/49) Accurately ripped
02 [413b376a|50ff8daf] (02+02/49) Accurately ripped
03 [7f76321c|6aa23ecd] (02+02/49) Accurately ripped
04 [53b10515|43e8e069] (02+02/49) Accurately ripped
Offsetted by -2216:
01 [4b1628f9] (08/49) Accurately ripped
02 [9480dfca] (08/49) Accurately ripped
03 [a182b114] (08/49) Accurately ripped
04 [a44084b5] (08/49) Accurately ripped
Offsetted by -219:
01 [19ee27cb] (08/49) Accurately ripped
02 [cd637c9e] (08/49) Accurately ripped
03 [1694c60d] (08/49) Accurately ripped
04 [1c3b0ae1] (08/49) Accurately ripped
Offsetted by -2013:
01 [2ea16997] (00/49) No match (V2 was not tested)
02 [7a9f5856] (00/49) No match (V2 was not tested)
03 [f3883f53] (00/49) No match (V2 was not tested)
04 [4ee4d129] (00/49) No match (V2 was not tested)

Track Peak [ CRC32 ] [W/O NULL] [ LOG ]
– 96,8 [12808F4A] [62B6372E] CRC32
01 96,8 [DB92AE23] [00B88F6A]
02 96,8 [14BA795E] [7019093B]
03 91,4 [3618DE04] [33FC8347]
04 92,7 [A23BFFC8] [FBF4C2D8]

Thanks to unbalance

See also: