Tags
Language
Tags

Conspiracy - The Unknown (2003)

Posted By: Andi_Deris
Conspiracy - The Unknown (2003)

Conspiracy (Yes family) - The Unknown (2003)
EAC Rip | FLAC: Image+Cue+Log | MP3 CBR 320 kbps | Scans
399 Mb | 126 Mb | Time: 53:37
InsideOut Music | IOMCD 128 IOMACD 2060
Progressive Rock, Crossover Prog

Yes bass pioneer Chris Squire has teamed up with the multi-talented Billy Sherwood to release their second album as Conspiracy, titled THE UNKNOWN. The album The Unknown was released in 2003. Haun guests again, as do Michael Sherwood (Billy's older brother) and Jordan Berliant (better known as Yes's then manager). The initial pressing of the album includes a bonus track entitled "I Could", an alternate form of the first half of a Yes track, "Finally", on The Ladder (1999). Many of the album lyrics refer to the events of the 9/11 terrorist attacks.

Conspiracy was a progressive rock band founded by Billy Sherwood (formerly of Yes) and Chris Squire (bassist in Yes). The band released two albums: Conspiracy (2000) and The Unknown (2003), and a live DVD (2006).



Conspiracy - The Unknown (2003)


Track Listing

01. Conspiracy (5:05)
02. Confess (4:37)
03. New World (7:22)
04. 1/2 A World Away (5:47)
05. There Is No End (5:15)
06. The Wheel (5:27)
07. Premonitions (4:10)
08. The Unknown (11:31)
09. I Could [bonus track] (4:22)

Produced by Billy Sherwood & Chris Squire

The Band

• Chris Squire :: bass, vocals
Billy Sherwood :: guitars, keys, vocals
• Jay Schellen :: drums, percussion

*****
• Jimi Haun & Jordan Berliant: additional guitar
• Michael Sherwood: additional keyboards

Conspiracy - The Unknown (2003)


Exact Audio Copy V0.99 prebeta 5 from 4. May 2009

Отчёт EAC об извлечении, выполненном 31. августа 2010, 21:57

Conspiracy / The Unknown

Дисковод: PLEXTOR DVDR PX-810SA Adapter: 3 ID: 1

Режим чтения : Достоверность
Использование точного потока : Да
Отключение кэша аудио : Да
Использование указателей C2 : Нет

Коррекция смещения при чтении : 48
Способность читать области Lead-in и Lead-out : Нет
Заполнение пропущенных сэмплов тишиной : Да
Удаление блоков с тишиной в начале и конце : Нет
При вычислениях CRC использовались нулевые сэмплы : Да
Интерфейс : Установленный внешний ASPI-интерфейс

Выходной формат : Внутренние WAV-операции
Формат сэмплов : 44.100 Гц; 16 бит; стерео


TOC извлечённого CD

Трек | Старт | Длительность | Начальный сектор | Конечный сектор
––––––––––––––––––––––––––––––––––-
1 | 0:00.00 | 5:04.70 | 0 | 22869
2 | 5:04.70 | 4:37.07 | 22870 | 43651
3 | 9:42.02 | 7:22.20 | 43652 | 76821
4 | 17:04.22 | 5:47.58 | 76822 | 102904
5 | 22:52.05 | 5:14.57 | 102905 | 126511
6 | 28:06.62 | 5:26.45 | 126512 | 151006
7 | 33:33.32 | 4:10.00 | 151007 | 169756
8 | 37:43.32 | 11:30.60 | 169757 | 221566
9 | 49:14.17 | 4:21.63 | 221567 | 241204


Характеристики диапазона извлечения и сообщения об ошибках

Выбранный диапазон

Имя файла E:\Conspiracy - The Unknown (2003)\Conspiracy - The Unknown.wav

Пиковый уровень 98.8 %
Качество диапазона 99.9 %
CRC копии 46FA82B9
Копирование… OK

Ошибок не произошло


AccurateRip: сводка

Трек 1 точное извлечение (доверие 8) [A4757A60]
Трек 2 точное извлечение (доверие 8) [A934028B]
Трек 3 точное извлечение (доверие 8) [07F65C0B]
Трек 4 точное извлечение (доверие 8) [A79322AA]
Трек 5 точное извлечение (доверие 8) [9BA92231]
Трек 6 точное извлечение (доверие 8) [880B327E]
Трек 7 точное извлечение (доверие 8) [0C8BF848]
Трек 8 точное извлечение (доверие 7) [CFF0A315]
Трек 9 точное извлечение (доверие 8) [C6BC4850]

Все треки извлечены точно

Конец отчёта


Many thanks to the original uploader: erro


Bill Bruford 1977 Feels Good To Me [Japan (mini LP) CD 2005]

Daniel Gauthier 2000 Above The Storm
Daniel Gauthier 2008 The Wish [Digipak]

Days Between Stations 2007 Days Between Stations
Days Between Stations 2013 In Extremis

GTR 1986 GTR

Jon Anderson 1985 3 Ships [Japan 1st Press, 1987]

Mainhorse 1971 Mainhorse [Remastered 2006]
David Kubinec's Mainhorse Airline 2007 The Geneva Tapes

Patrick Moraz 1976 The Story of I [Japanese Ed. 1990]
Patrick Moraz 1977 Out In The Sun [Remastered 2006]
Patrick Moraz 2009 Change Of Space

Rick Wakeman 1987 The Gospels [2CD]
Rick Wakeman 1996 Voyage: The Very Best Of Rick Wakeman [2CD]
Rick Wakeman 2009 The Six Wive... At Hampton Court Palace [DVD]

Steve Howe 1975 Beginnings [Remastered 1994]
Steve Howe 1975 Beginnings [Japan (mini LP) SHM-CD 2011]
Steve Howe 1979 The Steve Howe Album [Remastered 1994]
Steve Howe 1979 The Steve Howe Album [Japan (mini LP) SHM-CD 2011]
Steve Howe with Bodast 1990 The Early Years
Steve Howe 1991 Turbulence
Steve Howe 1993 The Grand Scheme Of Things
Steve Howe 1994 Mothballs [Reissue 2001]
Steve Howe 1994 Not Necessarily Acoustic
Steve Howe & Paul Sutin 1995 Voyagers
Steve Howe 1996~2013 The Compl...ection: Homebrew 1, 2, 3, 4, 5
Steve Howe 1998 Quantum Guitars
Steve Howe 1999 Portraits of Bob Dylan
Steve Howe 2001 Natural Timbre
Steve Howe 2002 Skyline
Steve Howe 2003 Light Walls [Compilation]
Steve Howe's Remedy 2003 Elements
Steve Howe 2005 Spectrum
Steve Howe 2008 Motif

Tony Levin / David Torn / Alan White 2011 Levin Torn White

World Trade 1989 World Trade
World Trade 1989 World Trade [Japan SHM-CD, 2013]
World Trade 1995 Euphoria
World Trade 1995 Euphoria [Roadrunner Records]

Yes 2004 The Ultimate Yes: 35th Anniversary Collection [3-CD Set]
Yes 2008 The New Director's Cut [2xDVD9]
Yes 2011 Fly From Here [Japan SHM-CD+DVD Combo - Digipak]
Yes 2014 Heaven & Earth [Japan SHM-CD]




Password: pass