Tags
Language
Tags

Constantine Orbelian, Kaunas City Symphony Orchestra, Dmitri Hvorostovsky - Giuseppi Verdi: Simon Boccanegra (2015)

Posted By: ArlegZ
Constantine Orbelian, Kaunas City Symphony Orchestra, Dmitri Hvorostovsky - Giuseppi Verdi: Simon Boccanegra (2015)

Constantine Orbelian, Kaunas City Symphony Orchestra, Dmitri Hvorostovsky - Giuseppi Verdi: Simon Boccanegra (2015)
EAC | FLAC | Image (Cue & Log) ~ 519 Mb | Total time: 65:50+64:05 | Scans included
Classical | Label: Delos | # DE 3457 | Recorded: 2013

Our first-ever full-length Italian opera recording, Delos’s star-studded current release of Giuseppi Verdi’s Simon Boccanegra promises to make quite a splash among today’s opera fans. As Verdi was entering his glorious “late period” (Otello and Falstaff) he wrote and re-worked much of Simon Boccanegra, a work that he had first tackled in 1857. The opera emerged in 1881 as a powerful masterpiece, although one that has been unfairly neglected, in comparison with Verdi’s other works on that level. So it’s high time for an authoritative new release of an opera that gives glamorous title star Dmitri Hvorostovsky – considered by many to be the world’s greatest Verdi baritone – the chance to record what he calls “…one of the most complex, deepest characters in the whole baritone repertoire.”
Hvorostovsky goes on to say, in a special introduction he wrote for this album, that among his favorite scenes in the opera is the Council Chamber scene: “Simon’s address to the people, ‘Plebe! Patrizi! Popolo!’ is the creed of a great statesman. As he cries for peace and love, the whole crowd is swept along by the same surge of passion!”

Performer:
Simon Boccanegra - Dmitri Hvorostovsky
Maria/Amelia - Barbara Frittoli
Fiesco - Ildar Abdrazakov
Gabriele Adorno - Stefano Secco
Pietro - Kostas Smoriginas
Paolo - Marco Caria
Ancilla - Eglė Šidlauskaitė
Capitano - Kęstutis Alčauskis
Kaunas State Choir
Kaunas City Symphony Orchestra
Conductor - Constantine Orbelian

Track List:
CD1:
01. Preludio - Prologue: Che dicesti? (Paolo, Pietro, Coro)
02. L'atra magion vedete? (Paolo, Pietro, Coro)
03. A te l'estremo addio (Fiesco, Coro)
04. Suona ogni labbro il mio nome (Simon, Fiesco)
05. Oh de' Fieschi implacata (Simon, Fiesco, Paolo, Pietro, Coro)
06. Atto I. Preludio
07. Come in quest'ora bruna (Amelia)
08. Cielo di stelle orbato (A Voice / Gabriele, Amelia)
09. Vieni a mirar la cerula marina tremolante (Amelia, Gabriele, Maid, Pietro)
10. Propizio ei giunge! (Gabriele, Andrea)
11. Signor (Paolo, Doge, Amelia)
12. Orfanella il tetto umile (Amelia, Doge)
13. Figlia! a tal nome io palpito (Doge / Simon, Amelia)
14. Che rispose? (Doge, Paolo, Pietro)
15. Messeri, il re di Tartaria vi porge (Doge, Paolo, Pietro, Gabriele, Coro)
16. Amelia! (Doge, Amelia, Coro)
CD2:
01. Amelia, di' come tu fosti rapita (Amelia, Doge, Gabriele, Coro)
02. Plebe! Patrizi! Popolo dalla storia feroce (Doge)
03. Piango su voi (Doge, Amelia, Pietro, Paolo, Fiesco, Gabriele, Coro)
04. Ecco la spada (Doge, Gabriele, Paolo)
05. Atto II. Quei due vedesti? (Pietro, Paolo)
06. Prigioniero in qual loco m'adduci? (Fiesco, Paolo)
07. Udisti? (Paolo, Garbiele)
08. Sento avvampar nell'anima (Gabriele)
09. Cielo pietoso, rendila (Gabriele)
10. Tu qui? (Gabriele, Amelia)
11. Figlia! (Doge, Amelia)
12. Oh! Amelia ami un nemico! (Gabriele, Amelia, Doge)
13. Perdon, Amelia (Gabriele, Amelia, Doge)
14. All'armi, all'armi, O Liguri (Amelia, Gabriele, Doge, Coro)
15. Atto III. Evviva il Doge! (Capitano, Fiesco, Paolo, Coro)
16. M'ardon le tempia (Doge, Fiesco)
17. Come fantasima (Doge, Fiesco)
18. Piango, perche mi parla (Fiesco, Doge)
19. Chi veggo! (Doge, Maria, Gabriele, Fiesco)
20. Gran Dio, li benedici (Doge, Maria, Gabriele, Fiesco, Coro)


Exact Audio Copy V1.6 from 23. October 2020

EAC extraction logfile from 21. October 2021, 15:55

Dmitri Hvorostovsky / Verdi: Simon Boccanegra (Disc 1)

Used drive : HL-DT-STDVDRAM GH24NSD5 Adapter: 1 ID: 0

Read mode : Secure
Utilize accurate stream : Yes
Defeat audio cache : Yes
Make use of C2 pointers : No

Read offset correction : 6
Overread into Lead-In and Lead-Out : No
Fill up missing offset samples with silence : Yes
Delete leading and trailing silent blocks : No
Null samples used in CRC calculations : Yes
Used interface : Native Win32 interface for Win NT & 2000

Used output format : User Defined Encoder
Selected bitrate : 1024 kBit/s
Quality : High
Add ID3 tag : No
Command line compressor : C:\Program Files (x86)\Exact Audio Copy\FLAC\FLAC.EXE
Additional command line options : -6 -V -T "ARTIST=%artist%" -T "TITLE=%title%" -T "ALBUM=%albumtitle%" -T "DATE=%year%" -T "TRACKNUMBER=%tracknr%" -T "GENRE=%genre%" -T "COMMENT=%comment%" -T "BAND=%albuminterpret%" -T "ALBUMARTIST=%albuminterpret%" -T "COMPOSER=%composer%" %haslyrics%–tag-from-file=LYRICS="%lyricsfile%"%haslyrics% -T "DISCNUMBER=%cdnumber%" -T "TOTALDISCS=%totalcds%" -T "TOTALTRACKS=%numtracks%" %hascover%–picture="%coverfile%"%hascover% %source% -o %dest% -T "RIPPER=Bodtje"


TOC of the extracted CD

Track | Start | Length | Start sector | End sector
––––––––––––––––––––––––––––-
1 | 0:00.00 | 6:59.51 | 0 | 31475
2 | 6:59.51 | 3:00.41 | 31476 | 45016
3 | 10:00.17 | 5:09.18 | 45017 | 68209
4 | 15:09.35 | 6:15.03 | 68210 | 96337
5 | 21:24.38 | 4:04.40 | 96338 | 114677
6 | 25:29.03 | 2:19.61 | 114678 | 125163
7 | 27:48.64 | 3:43.01 | 125164 | 141889
8 | 31:31.65 | 2:38.28 | 141890 | 153767
9 | 34:10.18 | 4:47.24 | 153768 | 175316
10 | 38:57.42 | 5:01.10 | 175317 | 197901
11 | 43:58.52 | 3:18.68 | 197902 | 212819
12 | 47:17.45 | 5:36.09 | 212820 | 238028
13 | 52:53.54 | 3:09.09 | 238029 | 252212
14 | 56:02.63 | 1:18.09 | 252213 | 258071
15 | 57:20.72 | 7:31.04 | 258072 | 291900
16 | 64:52.01 | 0:56.69 | 291901 | 296169


Range status and errors

Selected range

Filename I:\Rips\Verdi - Simon Boccanegra - Orbelian\CD1\Dmitri Hvorostovsky - Verdi- Simon Boccanegra (Disc 1).wav

Peak level 97.1 %
Extraction speed 7.3 X
Range quality 100.0 %
Test CRC EEBE5FC3
Copy CRC EEBE5FC3
Copy OK

No errors occurred


AccurateRip summary

Track 1 not present in database
Track 2 not present in database
Track 3 not present in database
Track 4 not present in database
Track 5 not present in database
Track 6 not present in database
Track 7 not present in database
Track 8 not present in database
Track 9 not present in database
Track 10 not present in database
Track 11 not present in database
Track 12 not present in database
Track 13 not present in database
Track 14 not present in database
Track 15 not present in database
Track 16 not present in database

None of the tracks are present in the AccurateRip database

End of status report

–– CUETools DB Plugin V2.1.6

[CTDB TOCID: 0xf_OrLH7TG.nFfrZHpKCe_QDrk-] found
Submit result: 0xf_OrLH7TG.nFfrZHpKCe_QDrk- has been confirmed
Track | CTDB Status
1 | (1/1) Accurately ripped
2 | (1/1) Accurately ripped
3 | (1/1) Accurately ripped
4 | (1/1) Accurately ripped
5 | (1/1) Accurately ripped
6 | (1/1) Accurately ripped
7 | (1/1) Accurately ripped
8 | (1/1) Accurately ripped
9 | (1/1) Accurately ripped
10 | (1/1) Accurately ripped
11 | (1/1) Accurately ripped
12 | (1/1) Accurately ripped
13 | (1/1) Accurately ripped
14 | (1/1) Accurately ripped
15 | (1/1) Accurately ripped
16 | (1/1) Accurately ripped


==== Log checksum 3B2998401D20E628EA002F7C38EB70791BB0A170FE6D387E71A8B4887C31D2E8 ====


Exact Audio Copy V1.6 from 23. October 2020

EAC extraction logfile from 21. October 2021, 16:22

Dmitri Hvorostovsky / Verdi: Simon Boccanegra (Disc 2)

Used drive : HL-DT-STDVDRAM GH24NSD5 Adapter: 1 ID: 0

Read mode : Secure
Utilize accurate stream : Yes
Defeat audio cache : Yes
Make use of C2 pointers : No

Read offset correction : 6
Overread into Lead-In and Lead-Out : No
Fill up missing offset samples with silence : Yes
Delete leading and trailing silent blocks : No
Null samples used in CRC calculations : Yes
Used interface : Native Win32 interface for Win NT & 2000

Used output format : User Defined Encoder
Selected bitrate : 1024 kBit/s
Quality : High
Add ID3 tag : No
Command line compressor : C:\Program Files (x86)\Exact Audio Copy\FLAC\FLAC.EXE
Additional command line options : -6 -V -T "ARTIST=%artist%" -T "TITLE=%title%" -T "ALBUM=%albumtitle%" -T "DATE=%year%" -T "TRACKNUMBER=%tracknr%" -T "GENRE=%genre%" -T "COMMENT=%comment%" -T "BAND=%albuminterpret%" -T "ALBUMARTIST=%albuminterpret%" -T "COMPOSER=%composer%" %haslyrics%–tag-from-file=LYRICS="%lyricsfile%"%haslyrics% -T "DISCNUMBER=%cdnumber%" -T "TOTALDISCS=%totalcds%" -T "TOTALTRACKS=%numtracks%" %hascover%–picture="%coverfile%"%hascover% %source% -o %dest% -T "RIPPER=Bodtje"


TOC of the extracted CD

Track | Start | Length | Start sector | End sector
––––––––––––––––––––––––––––-
1 | 0:00.00 | 2:46.51 | 0 | 12500
2 | 2:46.51 | 1:02.31 | 12501 | 17181
3 | 3:49.07 | 4:05.40 | 17182 | 35596
4 | 7:54.47 | 4:32.55 | 35597 | 56051
5 | 12:27.27 | 2:36.56 | 56052 | 67807
6 | 15:04.08 | 1:36.49 | 67808 | 75056
7 | 16:40.57 | 1:34.65 | 75057 | 82171
8 | 18:15.47 | 1:47.01 | 82172 | 90197
9 | 20:02.48 | 2:24.36 | 90198 | 101033
10 | 22:27.09 | 4:18.26 | 101034 | 120409
11 | 26:45.35 | 5:06.61 | 120410 | 143420
12 | 31:52.21 | 3:10.47 | 143421 | 157717
13 | 35:02.68 | 3:19.17 | 157718 | 172659
14 | 38:22.10 | 1:26.72 | 172660 | 179181
15 | 39:49.07 | 5:54.43 | 179182 | 205774
16 | 45:43.50 | 4:32.66 | 205775 | 226240
17 | 50:16.41 | 1:55.40 | 226241 | 234905
18 | 52:12.06 | 3:10.13 | 234906 | 249168
19 | 55:22.19 | 2:21.10 | 249169 | 259753
20 | 57:43.29 | 6:20.64 | 259754 | 288317


Range status and errors

Selected range

Filename I:\Rips\Verdi - Simon Boccanegra - Orbelian\CD2\Dmitri Hvorostovsky - Verdi- Simon Boccanegra (Disc 2).wav

Peak level 97.7 %
Extraction speed 4.6 X
Range quality 99.9 %
Test CRC 067F0ECF
Copy CRC 067F0ECF
Copy OK

No errors occurred


AccurateRip summary

Track 1 not present in database
Track 2 not present in database
Track 3 not present in database
Track 4 not present in database
Track 5 not present in database
Track 6 not present in database
Track 7 not present in database
Track 8 not present in database
Track 9 not present in database
Track 10 not present in database
Track 11 not present in database
Track 12 not present in database
Track 13 not present in database
Track 14 not present in database
Track 15 not present in database
Track 16 not present in database
Track 17 not present in database
Track 18 not present in database
Track 19 not present in database
Track 20 not present in database

None of the tracks are present in the AccurateRip database

End of status report

–– CUETools DB Plugin V2.1.6

[CTDB TOCID: u7wDwPiKSooh79BXEq37qhFKsbY-] found
Submit result: u7wDwPiKSooh79BXEq37qhFKsbY- has been confirmed
Track | CTDB Status
1 | (1/1) Accurately ripped
2 | (1/1) Accurately ripped
3 | (1/1) Accurately ripped
4 | (1/1) Accurately ripped
5 | (1/1) Accurately ripped
6 | (1/1) Accurately ripped
7 | (1/1) Accurately ripped
8 | (1/1) Accurately ripped
9 | (1/1) Accurately ripped
10 | (1/1) Accurately ripped
11 | (1/1) Accurately ripped
12 | (1/1) Accurately ripped
13 | (1/1) Accurately ripped
14 | (1/1) Accurately ripped
15 | (1/1) Accurately ripped
16 | (1/1) Accurately ripped
17 | (1/1) Accurately ripped
18 | (1/1) Accurately ripped
19 | (1/1) Accurately ripped
20 | (1/1) Accurately ripped


==== Log checksum 5DBB941ED82A4C1513EEBD5074305BACF7A7E6C9C40361D40D885161DC325C09 ====

Constantine Orbelian, Kaunas City Symphony Orchestra, Dmitri Hvorostovsky - Giuseppi Verdi: Simon Boccanegra (2015)

Thanks to the original releaser