Tags
Language
Tags

The Cryan' Shames - Sugar & Spice (1966) [Special Ed. 2002] Re-up

Posted By: Andi_Deris
The Cryan' Shames - Sugar & Spice (1966) [Special Ed. 2002] Re-up

The Cryan' Shames - Sugar & Spice (1966) [Special Ed. 2002]
EAC Rip | FLAC: Image+Cue+Log | 225 Mb | MP3 CBR 320 kbps | 116 Mb | Scans | Time: 41:14
Sundazed Music, Inc. | SC 6186
Rock, Garage Rock, Psychedelic Pop

Chicago’s local heroes, the Cryan’ Shames topped the Midwest charts on a regular basis from 1966-1969 with their harmony-fueled pop confections. Their straight-outta-the- garage debut, Sugar & Spice (which stars the indelible hit of the same name) contains some of the most memorable pop-rock of the ‘60s!

The Cryan' Shames - Sugar & Spice (1966) [Special Ed. 2002] Re-up




The Cryan' Shames - Sugar & Spice (1966) [Special Ed. 2002] Re-up


Track Listing

01. Sugar And Spice (2:30)
02. We Could Be Happy (2:37)
03. Heat Wave (2:10)
04. We'll Meet Again (2:09)
05. Ben Franklin's Almanac (2:01)
06. She Don't Care About Time (2:26)
07. Hey Joe (Where You Gonna Go) (2:43)
08. If I Needed Someone (2:21)
09. July (1:37)
10. I Wanna Meet You (2:08)
11. We Gotta Get Out Of This Place (3:43)

BONUS TRACKS
12. You're Gonna Loose That Girl (2:16)
13. Mr. Unreliable [single version] (2:26)
14. Georgia (2:19)
15. It Doesn't Matter To Me (previously unissued) (2:58)
16. Bits And Pieces [version one] (previously unissued) (2:32)
17. The Road (previously unissued) (2:18)

Produced by MG Production

The Band

• Tom Doody - Vocals
• Jim Pilster - Tambourine
• Dennis Conroy - Drums
• Gerry Stone - Guitar
• Jim Fairs - Guitar
• Dave Purple - Bass, Organ, Harpiscord

Notes

First-time CD releases of rare album by Midwestern hit-makers of “Sugar And Spice” fame!
Direct from original masters, w/ bonus tracks!
Liner notes by group historian Clark Besch feature interviews with group members and newly-discovered photos!

Exact Audio Copy V1.0 beta 3 from 29. August 2011

EAC extraction logfile from 23. June 2013, 22:04

The Cryan' Shames / Sugar & Spice (Special Edition)

Used drive : PLDS DVD-RW DH16AESH Adapter: 0 ID: 0

Read mode : Secure
Utilize accurate stream : Yes
Defeat audio cache : Yes
Make use of C2 pointers : No

Read offset correction : 6
Overread into Lead-In and Lead-Out : No
Fill up missing offset samples with silence : Yes
Delete leading and trailing silent blocks : No
Null samples used in CRC calculations : Yes
Used interface : Installed external ASPI interface

Used output format : User Defined Encoder
Selected bitrate : 768 kBit/s
Quality : High
Add ID3 tag : Yes
Command line compressor : C:\Program Files (x86)\Exact Audio Copy\Flac\flac.exe
Additional command line options : -V -8 -T "Date=%year%" -T "Genre=%genre%" %source%


TOC of the extracted CD

Track | Start | Length | Start sector | End sector
––––––––––––––––––––––––––––-
1 | 0:00.00 | 2:30.42 | 0 | 11291
2 | 2:30.42 | 2:37.05 | 11292 | 23071
3 | 5:07.47 | 2:10.17 | 23072 | 32838
4 | 7:17.64 | 2:09.29 | 32839 | 42542
5 | 9:27.18 | 2:01.16 | 42543 | 51633
6 | 11:28.34 | 2:26.57 | 51634 | 62640
7 | 13:55.16 | 2:43.29 | 62641 | 74894
8 | 16:38.45 | 2:21.07 | 74895 | 85476
9 | 18:59.52 | 1:37.05 | 85477 | 92756
10 | 20:36.57 | 2:08.14 | 92757 | 102370
11 | 22:44.71 | 3:43.29 | 102371 | 119124
12 | 26:28.25 | 2:16.47 | 119125 | 129371
13 | 28:44.72 | 2:26.01 | 129372 | 140322
14 | 31:10.73 | 2:19.11 | 140323 | 150758
15 | 33:30.09 | 2:57.72 | 150759 | 164105
16 | 36:28.06 | 2:32.32 | 164106 | 175537
17 | 39:00.38 | 2:18.16 | 175538 | 185903


Range status and errors

Selected range

Filename D:\Cryan' Shames - Sugar & Spice (2002, SE).wav

Peak level 98.8 %
Extraction speed 5.8 X
Range quality 99.9 %
Test CRC 1DC508B6
Copy CRC 1DC508B6
Copy OK

No errors occurred


AccurateRip summary

Track 1 not present in database
Track 2 not present in database
Track 3 not present in database
Track 4 not present in database
Track 5 not present in database
Track 6 not present in database
Track 7 not present in database
Track 8 not present in database
Track 9 not present in database
Track 10 not present in database
Track 11 not present in database
Track 12 not present in database
Track 13 not present in database
Track 14 not present in database
Track 15 not present in database
Track 16 not present in database
Track 17 not present in database

None of the tracks are present in the AccurateRip database

End of status report

==== Log checksum 0D7C756C3D219EA849C6FA696F106D0B9FAA49A802DE5154BFBD22F8285C527E ====


Many thanks to the original uploader: dmcHQ_70

SEE also:
The Cryan' Shames 1967 A Scratch In The Sky [Special Ed. 2002]
The Cryan' Shames 1968 Synthesis [Special Ed. 2002]
The Cryan' Shames 2003 The Ver...Shames: More Sugar & Spice