Tags
Language
Tags

The Cryan' Shames - The Very Best Of The Cryan' Shames: More Sugar & Spice (2003) Re-up

Posted By: Andi_Deris
The Cryan' Shames - The Very Best Of The Cryan' Shames: More Sugar & Spice (2003) Re-up

The Cryan' Shames - The Very Best Of The Cryan' Shames: More Sugar & Spice (2003)
EAC Rip | FLAC: Image+Cue+Log | 157 Mb | MP3 CBR 320 kbps | 63 Mb | Scans | Time: 25:24
Sony Music/Collectables | COL-CD-9404
Rock, Garage Rock, Psychedelic Pop

The Cryan' Shames were an unsung, late-'60s, folk-rock band out of Chicago, whose joyous harmonies and baroque pop sensibility made them sound like a cross between the Byrds and the Association. Although the Columbia best-of collection, called Sugar and Spice, is probably the place to start to get a comprehensive feel for the Shames, this short collection has a few tracks not found on that compilation, including the gorgeous "Sunshine Psalm" and "The Sailing Ship," the latter a wonderful, psychedelic gem. Also unique to this collection is an energetic version of the ubiquitous (for the 1960s) garage anthem, "Hey Joe (Where You Gonna Go)."

The Cryan' Shames - The Very Best Of The Cryan' Shames: More Sugar & Spice (2003) Re-up




The Cryan' Shames - The Very Best Of The Cryan' Shames: More Sugar & Spice (2003) Re-up


Track Listing

01. Sugar And Spice (02:30)
02. Ben Franklin's Almanac (02:00)
03. We Could Be Happy (02:36)
04. July (01:37)
05. Hey Joe (Where You Gonna Go) (02:42)
06. The Sailing Ship (03:34)
07. Mr. Unreliable (02:52)
08. Sunshine Psalm (02:17)
09. First Train To California (03:02)
10. It's All Right (02:10)

The Band

• Lenny Kerley - Bass, Guitar, Tamboura, Vocals
• Jim Fairs - Bagpipes, Bass, Flute, Guitar, Mandolin, Vocals
• Isaac Guillory - Accordion, Bass, Cello, Guitar, Keyboards, Vocals
• Jim Pilster «J.C. Hooke» - Tambourine, Cowbell, French Horn, Vocals
• Tom Doody «Toad» - Vocals, Autoharp, Bells
• Dennis Conroy - Drums, Other Percussion

Exact Audio Copy V0.99 prebeta 4 from 23. January 2008

Отчёт EAC об извлечении, выполненном 1. января 2009, 11:36

Cryan' Shames / The Very Best Of - More Sugar & Spice

Дисковод: MATSHITADVD-RAM UJ-850S Adapter: 1 ID: 0

Режим чтения : Достоверность
Использование точного потока : Да
Отключение кэша аудио : Да
Использование указателей C2 : Нет

Коррекция смещения при чтении : 102
Способность читать области Lead-in и Lead-out : Нет
Заполнение пропущенных сэмплов тишиной : Да
Удаление блоков с тишиной в начале и конце : Нет
При вычислениях CRC использовались нулевые сэмплы : Нет
Интерфейс : Встроенный Win32-интерфейс для Win NT/2000

Выходной формат : Пользовательский кодировщик
Выбранный битрейт : 1024 kBit/s
Качество : Высокий
Добавление ID3-тэга : Нет
Утилита сжатия : C:\Program Files\Exact Audio Copy\FLAC\FLAC.EXE
Дополнительные параметры : -6 -V -T "ARTIST=%a" -T "TITLE=%t" -T "ALBUM=%g" -T "DATE=%y" -T "TRACKNUMBER=%n" -T "GENRE=%m" -T "COMMENT=%e" %s -o %d


TOC извлечённого CD

Трек | Старт | Длительность | Начальный сектор | Конечный сектор
––––––––––––––––––––––––––––––––––-
1 | 0:00.00 | 2:30.08 | 0 | 11257
2 | 2:30.08 | 2:00.60 | 11258 | 20317
3 | 4:30.68 | 2:36.13 | 20318 | 32030
4 | 7:07.06 | 1:37.06 | 32031 | 39311
5 | 8:44.12 | 2:42.25 | 39312 | 51486
6 | 11:26.37 | 3:34.63 | 51487 | 67599
7 | 15:01.25 | 2:52.40 | 67600 | 80539
8 | 17:53.65 | 2:16.72 | 80540 | 90811
9 | 20:10.62 | 3:02.48 | 90812 | 104509
10 | 23:13.35 | 2:10.37 | 104510 | 114296


Характеристики диапазона извлечения и сообщения об ошибках

Выбранный диапазон

Имя файла K:\Music\The Cryan' Shames\Cryan' Shames - The Very Best Of - More Sugar & Spice.wav

Пиковый уровень 100.0 %
Качество диапазона 100.0 %
CRC копии 8ED3EC5A
Копирование… OK

Ошибок не произошло


AccurateRip: сводка

Трек 1 нет в базе данных
Трек 2 нет в базе данных
Трек 3 нет в базе данных
Трек 4 нет в базе данных
Трек 5 нет в базе данных
Трек 6 нет в базе данных
Трек 7 нет в базе данных
Трек 8 нет в базе данных
Трек 9 нет в базе данных
Трек 10 нет в базе данных

Ни одного трека нет в базе AccurateRip

Конец отчёта


Many thanks to the original uploader: alonzo

SEE also:
The Cryan' Shames 1966 Sugar & Spice [Special Ed. 2002]
The Cryan' Shames 1967 A Scratch In The Sky [Special Ed. 2002]
The Cryan' Shames 1968 Synthesis [Special Ed. 2002]