Tags
Language
Tags
June 2024
Su Mo Tu We Th Fr Sa
26 27 28 29 30 31 1
2 3 4 5 6 7 8
9 10 11 12 13 14 15
16 17 18 19 20 21 22
23 24 25 26 27 28 29
30 1 2 3 4 5 6

Curtis Mayfield - Curtis (1970) [MFSL, 2010]

Posted By: gribovar
Curtis Mayfield - Curtis (1970) [MFSL, 2010]

Curtis Mayfield - Curtis (1970) [MFSL, 2010]
EAC Rip | FLAC (image+.cue+log) - 257 MB | MP3 CBR 320 kbps (LAME 3.93) - 95 MB | Covers - 11 MB
Genre: R&B, Psychedelic Soul | RAR 3% Rec. | Label: Mobile Fidelity Sound Lab (UDCD 781)

The first solo album by the former leader of the Impressions, Curtis represented a musical apotheosis for Curtis Mayfield - indeed, it was practically the "Sgt. Pepper's" album of '70s soul, helping with its content and its success to open the whole genre to much bigger, richer musical canvases than artists had previously worked with. All of Mayfield's years of experience of life, music, and people were pulled together into a rich, powerful, topical musical statement that reflected not only the most up-to-date soul sounds of its period, finely produced by Mayfield himself, and the immediacy of the times and their political and social concerns, but also embraced the most elegant R&B sounds of the past. As a producer, Mayfield embraced the most progressive soul sounds of the era, stretching them out compellingly on numbers like "Move on Up," but he also drew on orchestral sounds (especially harps), to achieve some striking musical timbres (check out "Wild and Free"), and wove all of these influences, plus the topical nature of the songs, into a neat, amazingly lean whole. There was only one hit single off of this record, "(Don't Worry) If There's a Hell Down Below We're All Going to Go," which made number three, but the album as a whole was a single entity and really had to be heard that way.
Tracklist:
01. (Don't Worry) If There's Hell Below We're All Gonna Go
02. The Other Side of Town
03. The Making of You
04. We The People Who Are Darker Than Blue
05. Move on Up
06. Miss Black America
07. Wild and Free
08. Give It Up

Total time: 40:29

Exact Audio Copy V0.99 prebeta 4 from 23. January 2008

Отчёт EAC об извлечении, выполненном 25. сентября 2010, 12:23

Curtis Mayfield / Curtis

Дисковод: ATAPI iHES108 2 Adapter: 1 ID: 1

Режим чтения : Достоверность
Использование точного потока : Да
Отключение кэша аудио : Да
Использование указателей C2 : Нет

Коррекция смещения при чтении : 6
Способность читать области Lead-in и Lead-out : Нет
Заполнение пропущенных сэмплов тишиной : Да
Удаление блоков с тишиной в начале и конце : Нет
При вычислениях CRC использовались нулевые сэмплы : Да
Интерфейс : Встроенный Win32-интерфейс для Win NT/2000

Выходной формат : Пользовательский кодировщик
Выбранный битрейт : 1024 kBit/s
Качество : Высокий
Добавление ID3-тэга : Нет
Утилита сжатия : C:\Program Files\Exact Audio Copy\Flac\flac.exe
Дополнительные параметры : -V -8 -T "artist=%a" -T "title=%t" -T "album=%g" -T "date=%y" -T "tracknumber=%n" -T "genre=%m" %s


TOC извлечённого CD

Трек | Старт | Длительность | Начальный сектор | Конечный сектор
––––––––––––––––––––––––––––––––––-
1 | 0:00.00 | 7:50.57 | 0 | 35306
2 | 7:50.57 | 4:00.37 | 35307 | 53343
3 | 11:51.19 | 3:42.22 | 53344 | 70015
4 | 15:33.41 | 6:04.70 | 70016 | 97385
5 | 21:38.36 | 8:51.36 | 97386 | 137246
6 | 30:29.72 | 2:58.06 | 137247 | 150602
7 | 33:28.03 | 3:16.23 | 150603 | 165325
8 | 36:44.26 | 3:44.42 | 165326 | 182167


Характеристики диапазона извлечения и сообщения об ошибках

Выбранный диапазон

Имя файла D:\EAC-FOLDER\1970-Curtis Mayfield - Curtis_(MFSL)\1970-Curtis Mayfield - Curtis_(MFSL)\1970-Curtis Mayfield - Curtis_(MFSL).wav

Пиковый уровень 100.0 %
Качество диапазона 100.0 %
CRC теста 3765D896
CRC копии 3765D896
Копирование… OK

Ошибок не произошло


AccurateRip: сводка

Трек 1 точное извлечение (доверие 9) [E512F4E0]
Трек 2 точное извлечение (доверие 9) [4EBF6BFD]
Трек 3 точное извлечение (доверие 9) [67F70C36]
Трек 4 точное извлечение (доверие 9) [4DA56F75]
Трек 5 точное извлечение (доверие 9) [36788398]
Трек 6 точное извлечение (доверие 9) [45A6B3B7]
Трек 7 точное извлечение (доверие 9) [506CB1D8]
Трек 8 точное извлечение (доверие 9) [EB472148]

Все треки извлечены точно

Конец отчёта

[CUETools log; Date: 14.06.2023 15:49:42; Version: 2.1.4]
[CTDB TOCID: pH2_3FcIVzGw.1LcaMTtqYoxJXs-] found.
Track | CTDB Status
1 | (57/57) Accurately ripped
2 | (57/57) Accurately ripped
3 | (57/57) Accurately ripped
4 | (57/57) Accurately ripped
5 | (57/57) Accurately ripped
6 | (57/57) Accurately ripped
7 | (57/57) Accurately ripped
8 | (57/57) Accurately ripped
[AccurateRip ID: 000d9a05-00591298-49097c08] found.
Track [ CRC | V2 ] Status
01 [e512f4e0|823ae346] (12+37/49) Accurately ripped
02 [4ebf6bfd|276c3d7f] (12+37/49) Accurately ripped
03 [67f70c36|338bf50a] (12+37/49) Accurately ripped
04 [4da56f75|6060ecf5] (12+37/49) Accurately ripped
05 [36788398|33d05525] (12+37/49) Accurately ripped
06 [45a6b3b7|be3592a8] (12+37/49) Accurately ripped
07 [506cb1d8|65f7f029] (12+37/49) Accurately ripped
08 [eb472148|835215bb] (12+37/49) Accurately ripped

Track Peak [ CRC32 ] [W/O NULL] [ LOG ]
– 100,0 [3765D896] [D569BBE9] CRC32
01 99,3 [9F846EF0] [5EE071A8]
02 96,7 [2D5C9B45] [28496204]
03 99,5 [B57D58BC] [AD26F204]
04 97,4 [853FBA65] [39A2B2E4]
05 98,7 [8A884036] [286B8D92]
06 98,3 [5F364C8F] [019E97C8]
07 100,0 [44F2A4D5] [AA71F3C6]
08 100,0 [991BABE9] [DE10BF42]

Thanks to the original releaser