Tags
Language
Tags

Jean-Claude Petit - Cyrano de Bergerac: Original Motion Picture Soundtrack (1990)

Posted By:
Jean-Claude Petit - Cyrano de Bergerac: Original Motion Picture Soundtrack (1990)

Jean-Claude Petit - Cyrano de Bergerac: Original Motion Picture Soundtrack (1990)
EAC | FLAC (Image) + cue.+log ~ 242 Mb | Mp3, CBR320 kbps ~ 132 Mb | Scans included
Soundtrack, Score | Label: Trema | # 710323 | Time: 00:49:52

Cyrano de Bergerac is a 1990 French comedy-drama film directed by Jean-Paul Rappeneau and based on the 1897 play of the same name by Edmond Rostand, adapted by Jean-Claude Carrière and Rappeneau. It stars Gérard Depardieu, Anne Brochet and Vincent Pérez. In 2010, Cyrano de Bergerac was ranked number 43 in Empire magazine's "The 100 Best Films Of World Cinema". The French Academy of Film award winning score composed & conducted by Jean-Claude Petit.

If we undertook a zealous compilation around the most expressive soundtracks of the last four decades, and I was required for the top thirty top, this would be my list: Murder in the orient Express, Cyrano,, All the mornings of the world, The Godfather, Blade Runner, Jean de Florette , Manon of spring, Amelie, Cinema paradiso, Das Boot, Titanic, 1900 the legend, Amarcord, Chariots of fire, Le chat, Gladiator, The English patient, Bird, Brave heart, Chicago, Road to perdition, Life is beautiful, The piano, Amadeus, Once upon a time in America, Once upon a time in the West, The Thomas crown affair, Ulysses Gaze, Midnight cowboy, The sting and Butch Cassidy and the Sundance Kid .

But what it makes this soundtrack so engaging, resides in the admirable conjunction between sense and expression, poetry and lyricism. Such level of balance demands a total immersion in the script and I think this factor was fantastically resolved.

That's why I would like you to suggest to acquire this glamorous and potent musical statement.

Hiram Gòmez Pardo Venezuela, Amazon

A good soundtrack gets you into the movie and makes you feel as if you are around as the story develops. A great soundtrack is the one that in addition to the above can be listened to in absence of the icon and still get you there. Jean-Claude Petit's Cyrano is one of these cases. Great music with many music themes, variations kept to a minimum and the film atmosphere all over the place. One of my favourite soundtracks, soon to become an all-time classic.

Ytzan, Amazon

~ at Wiki

~ Film at IMDB
~ Film at Wiki

Tracklist:

01. Cyrano (1:32)
02. Les Lustres (2:47)
03. La Lanterne Magique (1:38)
04. Le Duel (3:28)
05. La Porte De Nesle (2:14)
06. Roxane (2:56)
07. Non Merci (2:02)
08. Les Lettres (1:49)
09. La Visite Du Comte (2:10)
10. Le Mariage (1:18)
11. Le Luth (1:37)
12. Les Precieuses (1:39)
13. La Declaration De Cyrano (2:48)
14. Le Dement (1:23)
15. Le Fifre (1:27)
16. L'arrivee De Roxane (3:33)
17. La Messe Des Espagnols (1:54)
18. La Mort De Christian (3:09)
19. Le Chant Des Nonnes (1:05)
20. L'aveu (2:42)
21. La Mort De Cyrano (2:42)
22. Generique De Fin (3:58)


Exact Audio Copy V1.0 beta 3 from 29. August 2011

EAC extraction logfile from 20. October 2012, 16:55

Jean-Claude Petit / Cyrano De Bergerac (TREMA 710323)

Used drive : HL-DT-STDVD+-RW GT60N Adapter: 0 ID: 1

Read mode : Secure
Utilize accurate stream : Yes
Defeat audio cache : Yes
Make use of C2 pointers : No

Read offset correction : 103
Overread into Lead-In and Lead-Out : No
Fill up missing offset samples with silence : Yes
Delete leading and trailing silent blocks : No
Null samples used in CRC calculations : Yes
Used interface : Native Win32 interface for Win NT & 2000

Used output format : User Defined Encoder
Selected bitrate : 128 kBit/s
Quality : High
Add ID3 tag : No
Command line compressor : C:\Program Files (x86)\Exact Audio Copy\Flac\flac.exe
Additional command line options : -V -8 -T "Genre=%genre%" -T "Artist=%artist%" -T "Title=%title%" -T "Album=%albumtitle%" -T "Date=%year%" -T "Tracknumber=%tracknr%" -T "Comment=%comment%" %source%


TOC of the extracted CD

Track | Start | Length | Start sector | End sector
––––––––––––––––––––––––––––-
1 | 0:00.33 | 1:32.27 | 33 | 6959
2 | 1:32.60 | 2:47.08 | 6960 | 19492
3 | 4:19.68 | 1:38.27 | 19493 | 26869
4 | 5:58.20 | 3:28.15 | 26870 | 42484
5 | 9:26.35 | 2:13.68 | 42485 | 52527
6 | 11:40.28 | 2:55.60 | 52528 | 65712
7 | 14:36.13 | 2:02.32 | 65713 | 74894
8 | 16:38.45 | 1:49.08 | 74895 | 83077
9 | 18:27.53 | 2:10.22 | 83078 | 92849
10 | 20:38.00 | 1:17.65 | 92850 | 98689
11 | 21:55.65 | 1:37.05 | 98690 | 105969
12 | 23:32.70 | 1:38.55 | 105970 | 113374
13 | 25:11.50 | 2:48.20 | 113375 | 125994
14 | 27:59.70 | 1:22.60 | 125995 | 132204
15 | 29:22.55 | 1:27.30 | 132205 | 138759
16 | 30:50.10 | 3:32.63 | 138760 | 154722
17 | 34:22.73 | 1:54.02 | 154723 | 163274
18 | 36:17.00 | 3:09.10 | 163275 | 177459
19 | 39:26.10 | 1:05.03 | 177460 | 182337
20 | 40:31.13 | 2:41.52 | 182338 | 194464
21 | 43:12.65 | 2:42.25 | 194465 | 206639
22 | 45:55.15 | 3:57.68 | 206640 | 224482


Range status and errors

Selected range

Filename C:\Jean-Claude Petit - Cyrano De Bergerac (TREMA 710323).wav

Peak level 99.0 %
Extraction speed 4.7 X
Range quality 100.0 %
Test CRC 76907105
Copy CRC 76907105
Copy OK

No errors occurred


AccurateRip summary

Track 1 cannot be verified as accurate (confidence 3) [70339B4E], AccurateRip returned [809B315B] (AR v2)
Track 2 cannot be verified as accurate (confidence 3) [F04E5C01], AccurateRip returned [DA04FE60] (AR v2)
Track 3 cannot be verified as accurate (confidence 3) [1ECB6E99], AccurateRip returned [F7E236C3] (AR v2)
Track 4 cannot be verified as accurate (confidence 3) [8AC2B7AD], AccurateRip returned [696BB5FE] (AR v2)
Track 5 cannot be verified as accurate (confidence 3) [705A48D9], AccurateRip returned [2F266B80] (AR v2)
Track 6 cannot be verified as accurate (confidence 3) [E911A574], AccurateRip returned [464EE5CD] (AR v2)
Track 7 cannot be verified as accurate (confidence 3) [CFDAE677], AccurateRip returned [B11F4301] (AR v2)
Track 8 cannot be verified as accurate (confidence 3) [2324FDF0], AccurateRip returned [4601FC30] (AR v2)
Track 9 cannot be verified as accurate (confidence 3) [EDDB066D], AccurateRip returned [174D7436] (AR v2)
Track 10 cannot be verified as accurate (confidence 3) [F61BB995], AccurateRip returned [0548481E] (AR v2)
Track 11 cannot be verified as accurate (confidence 3) [B7CD4EF9], AccurateRip returned [FE3DE842] (AR v2)
Track 12 cannot be verified as accurate (confidence 3) [5DED6E6A], AccurateRip returned [EF612E78] (AR v2)
Track 13 cannot be verified as accurate (confidence 3) [6A89F6B4], AccurateRip returned [A6CC1D8C] (AR v2)
Track 14 cannot be verified as accurate (confidence 3) [7633ED2A], AccurateRip returned [7E8D9789] (AR v2)
Track 15 cannot be verified as accurate (confidence 3) [ED38EE0F], AccurateRip returned [5F55BCE1] (AR v2)
Track 16 cannot be verified as accurate (confidence 3) [1D70BB85], AccurateRip returned [94135055] (AR v2)
Track 17 cannot be verified as accurate (confidence 3) [694ECB4F], AccurateRip returned [59255674] (AR v2)
Track 18 cannot be verified as accurate (confidence 3) [22F762E6], AccurateRip returned [54A1AAA0] (AR v2)
Track 19 cannot be verified as accurate (confidence 3) [0D67F787], AccurateRip returned [A773539D] (AR v2)
Track 20 cannot be verified as accurate (confidence 3) [585F47EF], AccurateRip returned [62FAC6E8] (AR v2)
Track 21 cannot be verified as accurate (confidence 3) [B1B177D9], AccurateRip returned [A82E3995] (AR v2)
Track 22 cannot be verified as accurate (confidence 3) [BB48F64B], AccurateRip returned [A39B03E3] (AR v2)

No tracks could be verified as accurate
You may have a different pressing from the one(s) in the database

End of status report

==== Log checksum AC2DDB8D4F3ACC64849593E4B91CB2807B2595DB63AAAC39C030FF10512A8E0E ====

foobar2000 1.1.13 / Dynamic Range Meter 1.1.0

log date: 2012-10-20 17:02:19



––––––––––––––––––––––––––––––––––––––––

Analyzed: Jean-Claude Petit / Cyrano De Bergerac (TREMA 710323)

––––––––––––––––––––––––––––––––––––––––



DR Peak RMS Duration Track

––––––––––––––––––––––––––––––––––––––––

DR12 -3.31 dB -19.77 dB 1:32 01-Cyrano

DR12 -2.76 dB -21.10 dB 2:47 02-Les Lustres

DR10 -12.97 dB -25.93 dB 1:38 03-La Lanterne Magique

DR14 -0.08 dB -18.64 dB 3:28 04-Le Duel

DR13 -2.90 dB -20.97 dB 2:14 05-La Porte De Nesle

DR11 -6.59 dB -23.82 dB 2:56 06-Roxane

DR12 -6.54 dB -23.91 dB 2:02 07-Non Merci

DR11 -7.91 dB -22.71 dB 1:49 08-Les Lettres

DR12 -4.62 dB -22.37 dB 2:10 09-La Visite Du Comte

DR12 -6.73 dB -23.76 dB 1:18 10-Le Mariage

DR13 -10.87 dB -27.65 dB 1:37 11-Le Luth

DR12 -4.82 dB -21.85 dB 1:39 12-Les Precieuses

DR11 -4.22 dB -20.88 dB 2:48 13-La Declaration De Cyrano

DR16 -2.76 dB -23.52 dB 1:23 14-Le Dement

DR10 -8.11 dB -24.37 dB 1:27 15-Le Fifre

DR15 -0.20 dB -21.74 dB 3:33 16-L'arrivee De Roxane

DR13 -6.52 dB -24.17 dB 1:54 17-La Messe Des Espagnols

DR14 -1.47 dB -20.43 dB 3:09 18-La Mort De Christian

DR11 -10.20 dB -27.08 dB 1:05 19-Le Chant Des Nonnes

DR11 -5.87 dB -23.16 dB 2:42 20-L'aveu

DR14 -1.13 dB -21.78 dB 2:42 21-La Mort De Cyrano

DR14 -2.09 dB -20.35 dB 3:58 22-Generique De Fin

––––––––––––––––––––––––––––––––––––––––



Number of tracks: 22

Official DR value: DR12



Samplerate: 44100 Hz

Channels: 2

Bits per sample: 16

Bitrate: 628 kbps

Codec: FLAC

================================================================================

Jean-Claude Petit - Cyrano de Bergerac: Original Motion Picture Soundtrack (1990)

Jean-Claude Petit - Cyrano de Bergerac: Original Motion Picture Soundtrack (1990)

All thanks to original uploader - Misantrop

More Movies & Soundtracks in Efgrapha Blog