Subcategories

Czech Philharmonic Chorus and Orchestra, Gerd Albrecht - Dvorak: Dimitrij (1991)

Posted By: tirexiss
Czech Philharmonic Chorus and Orchestra, Gerd Albrecht - Dvorak: Dimitrij (1991)

Czech Philharmonic Chorus and Orchestra, Gerd Albrecht - Dvorak: Dimitrij (1991)
EAC | FLAC (image+.cue, log) | Covers Included | 03:10:08 | 881 MB
Genre: Classical, Opera | Label: Supraphon | Catalog: 11 1259-2

'Dimitrij' was presented in several different versions during the composer's lifetime. It was premiered in 1882, with cuts and revisions occuring in the 1886 piano reduction. The work was further revised in 1894 (this version premiered in Prague in that year), however the final performances in Dvořák's lifetime (in Plzeň in 1904) consisted of the first version combined with the third act in the second version. An edition by Karel Kovarovič of the National Theatre was the preferred version for a long time; the present recording returns to the first version, including all music composed between 1882 and 1885, and includes sections cut by Kovarovič as well as music played in 1882 but never published. Such cuts as there are are detailed in the booklet's introduction.
All of which leaves us with an opera of over three hours of music. The story is a continuation of that of 'Boris Godunov', so some of the characters will already be familiar - Shuisky (now Dimitrij's chief antagonist), Marina and Xenia. The subject had previously been set by Victorin de Joncières in 1876, wherein Dimitrij was a much weaker character than that portrayed by Dvořák. Instead of using Pushkin as a model, Dvořák's librettist went to various other sources: 'Demitrius' by Schiller (1805) and 'Dmitri Ivanovič' by Ferdinand Mikovec (1856). Dvořák's sources see Dimitrij convinced of his claims to the throne with a gradual realisation of his use as a political pawn. There is scope for a multitude of operatic devices, which the composer seems to delight in: mass scenes with eight-voice double-choruses and heated ensembles vie with tender duets and impassioned soliloquies to combine in one coherent whole. The booklet notes tell us that ''Dimitrij' is Antonin Dvořák's most important stage composition equalled only by 'Rusalka', and with a performance as convincing as the present one, it is hard to disagree. Certainly, the listener is convinced that this really is music straight from the composer's heart.
The warmth of the Czech orchestral forces is matched here by a characteristically welcoming Supraphon recording. Under the confident direction of Gerd Albrecht, the Czech Philharmonic Orchestra carries the listener through the three hours of music with clear conviction.
A brief synopsis is as follows: After the death of Boris, the Russian people are split between the followers of the Godunov family (led by Shuisky) whilst others (led by General Basmanov) support Dmitrij, assumed son of Ivan the Terrible and husband to the Polish Marina of the Sandomir family. If Marfa (widow of Ivan the Terrible) publicly recognises Dimitrij as her son, he will triumph. Despite knowing that this is not the case, she does this to use him as a pawn for her revenge on her old enemies. In Act 2, Dimitrij is seen breaking up altercations between Poles and Russians and rescuing Xenia, with whom he forms a relationship. He also breaks up a conspiracy led by Shuisky, who is to be executed.
In Act 3, Xenia begs Dimitrij to have mercy on Shuisky. Marina realises the link between the two and reveals Dimitrij's humble origins, but he nevertheless intends to remain ruler. Finally, in Act 4 Xenia mourns her betrayed love. Marina, however, has Xenia killed and reveals Dimitrij's origins. Dimitrij is finally shot by Shuisky.
The major parts are well taken. Leo Vodička copes extremely well with the not inconsiderable demands of the title role. His blessing of the Kremlin in Act 1 Scene 5 ("Pride of our Fatherland") is particularly beautiful, the unaccompanied chorus emphasising the prayer-like atmosphere. Again, he is expressive and heart-felt in Act 2 Scene 1 towards Marina (the dramatic problems begin when he asks her to become a Russian). His use of a little vibrato in Act 3 Scene 1, as he remembers Xenia, works well as he sounds appropriately young and fervent (especially when he calls his beloved's name).
Lívia Ághová sounds young and fresh as Xenia and is pure joy to hear, despite occasional tensing. Her Act 4 monologue, 'I dreamt that pale Death touched me', is sad and dejected, inflected with a specifically Dvořákian longing; also, the duet in Act 3 (the Recognition Scene) brings out the best in her.
Magdaléna Hajóssyóvá is a powerful Marina with a clean attack, but is not quite believable (she does rather sound as if she is singing with her head in a score).
Ivan Kusnjer as Shuisky is more than adequate, but could possibly have brought greater drama and malignancy to the part: his description of Dimitrij as 'the Polish Satan' could have been more powerfully declaimed, for example. Ludek Vele's strong bass is impressive in the part of Iov (Patriarch of Moscow), although he sounds strained in the higher registers.
Of the remaining characters, Drahomíra Drobková's Marfa is clear-toned, but she also makes it difficult to believe that she is really torn apart by Dimitrij's pleas to accept him. Peter Míkulaš has a well-focused voice as Basmanov.
Once again, it is Albrecht's sure and confident direction which makes this set the triumph it is. I just wish the booklet had been better prepared. Mis-spellings abound in the English translation ('I don't want a trone (sic) by fraud'; Xenia is sometimes rendered as 'Xenie') and the libretto does not indicate when people and groups sing simultaneously. Some pages were missing in my copy, and one passage allocated to a chorus of Boyars is actually sung by the Patriarch. The final line of the opera sums this up: there are French and German translations, whereas the English merely reprints the original Czech. A shame, given the care which evidently went in to the preparation of the performing edition and, indeed, the performance itself.
Nevertheless, this remains an essential purchase for all lovers of the music of Antonín Dvořák . ~ Colin Clarke

Czech Philharmonic Chorus and Orchestra, Gerd Albrecht - Dvorak: Dimitrij (1991)

Track List:

CD 1:
1. Introduction - Czech PO/Gerd Albrecht
2. Act I, Scene 1: Terrible sorrow now has struck our native land - Czech Phil Chor/Lubomir Matl/Prague Radio Chor/Pavel Kuhn
3. Scene 2: Hear me, Moscow! - Peter Mikulas
4. Scene 3: The people rush blindly to destruction - Ivan Kusnjer
5. Scene 4: Help! Hear me! Have pity! - Livia Aghova
6. Scene 5: See a golden sun has risen above the whole land of Russia - Czech Phil Chor/Lubomir Matl/Prague Radio Chor/Pavel Kuhn
7. Scene 6: Mother, dearest Mother! - Leo Marian Vodicka

8. Act II, Overture - Czech PO/Gerd Albrecht
9. Scene 1: What great joy is my reward after a hard, cruel battle - Leo Marian Vodicka
10. Scene 2: Raise your glasses higher - Magdalena Hajossyova
11. Change of Scene - Ludek Vele/Ivan Kusnjer/Peter Mikulas/Livia Aghova/Leo Marian Vodicka/Drahomira Drobkova…

Exact Audio Copy V1.3 from 2. September 2016

EAC extraction logfile from 23. December 2017, 9:59

Gerd Albrecht / Dvorák: Dimitrij (Disc 1)

Used drive : ASUS BC-12B1ST b Adapter: 1 ID: 0

Read mode : Secure
Utilize accurate stream : Yes
Defeat audio cache : Yes
Make use of C2 pointers : No

Read offset correction : 6
Overread into Lead-In and Lead-Out : No
Fill up missing offset samples with silence : Yes
Delete leading and trailing silent blocks : No
Null samples used in CRC calculations : Yes
Used interface : Native Win32 interface for Win NT & 2000

Used output format : User Defined Encoder
Selected bitrate : 768 kBit/s
Quality : High
Add ID3 tag : No
Command line compressor : C:\Program Files (x86)\Exact Audio Copy\FLAC\FLAC.EXE
Additional command line options : -6 -V -T "ARTIST=%artist%" -T "TITLE=%title%" -T "ALBUM=%albumtitle%" -T "DATE=%year%" -T "TRACKNUMBER=%tracknr%" -T "GENRE=%genre%" -T "COMMENT=%comment%" -T "BAND=%albuminterpret%" -T "ALBUMARTIST=%albuminterpret%" -T "COMPOSER=%composer%" %haslyrics%–tag-from-file=LYRICS="%lyricsfile%"%haslyrics% -T "DISCNUMBER=%cdnumber%" -T "TOTALDISCS=%totalcds%" -T "TOTALTRACKS=%numtracks%" %hascover%–picture="%coverfile%"%hascover% %source% -o %dest%


TOC of the extracted CD

Track | Start | Length | Start sector | End sector
––––––––––––––––––––––––––––-
1 | 0:00.33 | 4:40.15 | 33 | 21047
2 | 4:40.48 | 7:14.57 | 21048 | 53654
3 | 11:55.30 | 1:46.20 | 53655 | 61624
4 | 13:41.50 | 2:35.58 | 61625 | 73307
5 | 16:17.33 | 1:49.17 | 73308 | 81499
6 | 18:06.50 | 8:17.00 | 81500 | 118774
7 | 26:23.50 | 12:11.08 | 118775 | 173607
8 | 38:34.58 | 3:50.10 | 173608 | 190867
9 | 42:24.68 | 7:17.10 | 190868 | 223652
10 | 49:42.03 | 9:34.72 | 223653 | 266774
11 | 59:17.00 | 2:25.08 | 266775 | 277657


Range status and errors

Selected range

Filename R:\Dvorak DIMITRIJ - New rips\CD1\Gerd Albrecht - Dvorák- Dimitrij (Disc 1).wav

Peak level 85.1 %
Extraction speed 8.0 X
Range quality 99.9 %
Test CRC BFCF8B14
Copy CRC BFCF8B14
Copy OK

No errors occurred


AccurateRip summary

Track 1 cannot be verified as accurate (confidence 2) [941562DB], AccurateRip returned [D0BFA0D5] (AR v2)
Track 2 cannot be verified as accurate (confidence 2) [A8A5F2DA], AccurateRip returned [1C3DD750] (AR v2)
Track 3 cannot be verified as accurate (confidence 2) [63C2FEBF], AccurateRip returned [55F6B4A6] (AR v2)
Track 4 cannot be verified as accurate (confidence 2) [0502A724], AccurateRip returned [4E472BB8] (AR v2)
Track 5 cannot be verified as accurate (confidence 2) [F741DDC3], AccurateRip returned [A6B68FE6] (AR v2)
Track 6 cannot be verified as accurate (confidence 2) [2DCBF7CE], AccurateRip returned [28C32B0C] (AR v2)
Track 7 cannot be verified as accurate (confidence 2) [9C2CEDCA], AccurateRip returned [57C0CAC8] (AR v2)
Track 8 cannot be verified as accurate (confidence 2) [2DD0A2BB], AccurateRip returned [E9D73A5A] (AR v2)
Track 9 cannot be verified as accurate (confidence 2) [2CB12287], AccurateRip returned [0877C8F5] (AR v2)
Track 10 cannot be verified as accurate (confidence 2) [FB881672], AccurateRip returned [68A772CF] (AR v2)
Track 11 cannot be verified as accurate (confidence 2) [B867DAF1], AccurateRip returned [63DE62B8] (AR v2)

No tracks could be verified as accurate
You may have a different pressing from the one(s) in the database

End of status report

–– CUETools DB Plugin V2.1.6

[CTDB TOCID: MwueRFSor083_reOuzHIukWt2Q4-] found
Submit result: MwueRFSor083_reOuzHIukWt2Q4- has been confirmed
Track | CTDB Status
1 | (5/5) Accurately ripped
2 | (5/5) Accurately ripped
3 | (5/5) Accurately ripped
4 | (5/5) Accurately ripped
5 | (5/5) Accurately ripped
6 | (5/5) Accurately ripped
7 | (5/5) Accurately ripped
8 | (5/5) Accurately ripped
9 | (5/5) Accurately ripped
10 | (5/5) Accurately ripped
11 | (5/5) Accurately ripped


==== Log checksum EFF0F9280F11BE1FB73AC7C1DC5214E86AFCBFF5FB26601B2071308B27C11AEE ====

[CUETools log; Date: 24.12.2017 18:09:18; Version: 2.1.5]
Pregap length 00:00:33.
[CTDB TOCID: MwueRFSor083_reOuzHIukWt2Q4-] found.
Track | CTDB Status
1 | (6/6) Accurately ripped
2 | (6/6) Accurately ripped
3 | (6/6) Accurately ripped
4 | (6/6) Accurately ripped
5 | (6/6) Accurately ripped
6 | (6/6) Accurately ripped
7 | (6/6) Accurately ripped
8 | (6/6) Accurately ripped
9 | (6/6) Accurately ripped
10 | (6/6) Accurately ripped
11 | (6/6) Accurately ripped
[AccurateRip ID: 0017896a-00d1c00a-b10e760b] found.
Track [ CRC | V2 ] Status
01 [8f9dc3ad|941562db] (0+0/4) No match
02 [3d190737|a8a5f2da] (0+0/4) No match
03 [7c83e3af|63c2febf] (0+0/4) No match
04 [852801b4|0502a724] (0+0/4) No match
05 [149766b2|f741ddc3] (0+0/4) No match
06 [5e704204|2dcbf7ce] (0+0/4) No match
07 [0c9480b0|9c2cedca] (0+0/4) No match
08 [74f48ba4|2dd0a2bb] (0+0/4) No match
09 [2d5d814b|2cb12287] (0+0/4) No match
10 [82ba6c50|fb881672] (0+0/4) No match
11 [1a7fecc1|b867daf1] (0+0/4) No match
Offsetted by 158:
01 [d0bfa0d5] (2/4) Accurately ripped
02 [1c3dd750] (2/4) Accurately ripped
03 [55f6b4a6] (2/4) Accurately ripped
04 [4e472bb8] (2/4) Accurately ripped
05 [a6b68fe6] (2/4) Accurately ripped
06 [28c32b0c] (2/4) Accurately ripped
07 [57c0cac8] (2/4) Accurately ripped
08 [e9d73a5a] (2/4) Accurately ripped
09 [0877c8f5] (2/4) Accurately ripped
10 [68a772cf] (2/4) Accurately ripped
11 [63de62b8] (2/4) Accurately ripped

Track Peak [ CRC32 ] [W/O NULL] [ LOG ]
– 85,1 [BFCF8B14] [EC3E9D82] CRC32
01 63,7 [424226E9] [0A0856AE]
02 71,1 [88B7F0EE] [D3590E50]
03 74,2 [3B485378] [991F98FF]
04 44,6 [96F9EE6C] [C382A80D]
05 28,0 [56DB92F3] [73F074DF]
06 52,5 [62EFE867] [141335AE]
07 85,1 [28A51175] [E0E80BCB]
08 71,3 [3B36560F] [57D33277]
09 54,3 [B9ED42B3] [B7634FD3]
10 85,1 [36D1D541] [9D97341F]
11 31,9 [B7442483] [065F6D43]

CD 2:
1. Act II, Change of Scene, Scene 1: From the wild storm of life my soul hastened here longingly - Leo Marian Vodica
2. Change of Scene, Scene 2: I have escaped! But am I safe? - Livia Aghova
3. Scene 3: Hello, the girl is flirting with the dead - Zdenek Harvanek
4. Scene 4: O my protector! - Livia Aghova
5. Scene 5: Softly, follow me - Ivan Kusnjer

6. Act III, Scene 1: I have seen her, I have beheld Xenia - Leo Marian Vodicka
7. Scene 2: Greetings, tsar - Czech Phil Chor/Lubomir Matl/Prague Radio Chor/Pavel Kuhn
8. Scene 3: Let me go! For God's sake let me see the tsarina - Livia Aghova
9. Scene 4 (beginning): Why did you pardon Shuisky? - Madgalena Hajossyova

Exact Audio Copy V1.3 from 2. September 2016

EAC extraction logfile from 23. December 2017, 10:50

Antonin Dvorak / Dimitrij CD2

Used drive : ASUS BC-12B1ST b Adapter: 1 ID: 0

Read mode : Secure
Utilize accurate stream : Yes
Defeat audio cache : Yes
Make use of C2 pointers : No

Read offset correction : 6
Overread into Lead-In and Lead-Out : No
Fill up missing offset samples with silence : Yes
Delete leading and trailing silent blocks : No
Null samples used in CRC calculations : Yes
Used interface : Native Win32 interface for Win NT & 2000

Used output format : User Defined Encoder
Selected bitrate : 768 kBit/s
Quality : High
Add ID3 tag : No
Command line compressor : C:\Program Files (x86)\Exact Audio Copy\FLAC\FLAC.EXE
Additional command line options : -6 -V -T "ARTIST=%artist%" -T "TITLE=%title%" -T "ALBUM=%albumtitle%" -T "DATE=%year%" -T "TRACKNUMBER=%tracknr%" -T "GENRE=%genre%" -T "COMMENT=%comment%" -T "BAND=%albuminterpret%" -T "ALBUMARTIST=%albuminterpret%" -T "COMPOSER=%composer%" %haslyrics%–tag-from-file=LYRICS="%lyricsfile%"%haslyrics% -T "DISCNUMBER=%cdnumber%" -T "TOTALDISCS=%totalcds%" -T "TOTALTRACKS=%numtracks%" %hascover%–picture="%coverfile%"%hascover% %source% -o %dest%


TOC of the extracted CD

Track | Start | Length | Start sector | End sector
––––––––––––––––––––––––––––-
1 | 0:00.33 | 3:16.05 | 33 | 14737
2 | 3:16.38 | 6:28.17 | 14738 | 43854
3 | 9:44.55 | 2:45.68 | 43855 | 56297
4 | 12:30.48 | 13:53.35 | 56298 | 118807
5 | 26:24.08 | 5:20.50 | 118808 | 142857
6 | 31:44.58 | 8:40.57 | 142858 | 181914
7 | 40:25.40 | 4:34.65 | 181915 | 202529
8 | 45:00.30 | 9:41.50 | 202530 | 246154
9 | 54:42.05 | 12:49.23 | 246155 | 303852


Range status and errors

Selected range

Filename R:\Dvorak DIMITRIJ - New rips\CD2\Antonin Dvorak - Dimitrij CD2.wav

Peak level 83.1 %
Extraction speed 2.1 X
Range quality 99.9 %
Test CRC E527F82B
Copy CRC E527F82B
Copy OK

No errors occurred


AccurateRip summary

Track 1 cannot be verified as accurate (confidence 1) [33241075], AccurateRip returned [528BB47D] (AR v2)
Track 2 cannot be verified as accurate (confidence 1) [8ABAF936], AccurateRip returned [11BFC250] (AR v2)
Track 3 cannot be verified as accurate (confidence 1) [6B581577], AccurateRip returned [954DE833] (AR v2)
Track 4 cannot be verified as accurate (confidence 1) [100AA950], AccurateRip returned [9FBC0823] (AR v2)
Track 5 cannot be verified as accurate (confidence 1) [93A642E6], AccurateRip returned [36FEABC7] (AR v2)
Track 6 cannot be verified as accurate (confidence 1) [F162C1B7], AccurateRip returned [724A4C34] (AR v2)
Track 7 cannot be verified as accurate (confidence 1) [858C60C1], AccurateRip returned [A60B0318] (AR v2)
Track 8 cannot be verified as accurate (confidence 1) [FD75A6FE], AccurateRip returned [079D6BEF] (AR v2)
Track 9 cannot be verified as accurate (confidence 1) [67781DF3], AccurateRip returned [F115827B] (AR v2)

No tracks could be verified as accurate
You may have a different pressing from the one(s) in the database

End of status report

–– CUETools DB Plugin V2.1.6

[CTDB TOCID: ElEsxFWcbWb12ueTsONykI7nVyc-] found
Submit result: ElEsxFWcbWb12ueTsONykI7nVyc- has been confirmed
Track | CTDB Status
1 | (3/3) Accurately ripped
2 | (3/3) Accurately ripped
3 | (3/3) Accurately ripped
4 | (3/3) Accurately ripped
5 | (3/3) Accurately ripped
6 | (3/3) Accurately ripped
7 | (3/3) Accurately ripped
8 | (3/3) Accurately ripped
9 | (3/3) Accurately ripped


==== Log checksum 7F9CCDF1A69E8BC136FE80AE5D9BC3BA2F504B5230030DC08846883E2532538B ====

[CUETools log; Date: 24.12.2017 18:09:39; Version: 2.1.5]
Pregap length 00:00:33.
[CTDB TOCID: ElEsxFWcbWb12ueTsONykI7nVyc-] found.
Track | CTDB Status
1 | (4/4) Accurately ripped
2 | (4/4) Accurately ripped
3 | (4/4) Accurately ripped
4 | (4/4) Accurately ripped
5 | (4/4) Accurately ripped
6 | (4/4) Accurately ripped
7 | (4/4) Accurately ripped
8 | (4/4) Accurately ripped
9 | (4/4) Accurately ripped
[AccurateRip ID: 00140143-00985c00-840fd309] found.
Track [ CRC | V2 ] Status
01 [be9cbfe1|33241075] (0+0/2) No match
02 [233dfe3c|8abaf936] (0+0/2) No match
03 [25f9fe1a|6b581577] (0+0/2) No match
04 [8f4ee7c7|100aa950] (0+0/2) No match
05 [a53de558|93a642e6] (0+0/2) No match
06 [085e23ec|f162c1b7] (0+0/2) No match
07 [74b40c95|858c60c1] (0+0/2) No match
08 [67f1ada4|fd75a6fe] (0+0/2) No match
09 [6704dcb7|67781df3] (0+0/2) No match
Offsetted by 44:
01 [528bb47d] (1/2) Accurately ripped
02 [11bfc250] (1/2) Accurately ripped
03 [954de833] (1/2) Accurately ripped
04 [9fbc0823] (1/2) Accurately ripped
05 [36feabc7] (1/2) Accurately ripped
06 [724a4c34] (1/2) Accurately ripped
07 [a60b0318] (1/2) Accurately ripped
08 [079d6bef] (1/2) Accurately ripped
09 [f115827b] (1/2) Accurately ripped

Track Peak [ CRC32 ] [W/O NULL] [ LOG ]
– 83,1 [E527F82B] [F5D0D4E6] CRC32
01 39,1 [29A3DE2D] [859BA0DA]
02 36,9 [CFDF51B5] [3ED63EDE]
03 62,3 [C33F8E15] [537E3B9E]
04 50,8 [698B34AC] [0068DE6F]
05 73,0 [37A161C4] [50709E93]
06 80,3 [393B0EF1] [8FC5E79E]
07 62,0 [4199E2B9] [4BC46762]
08 83,1 [842C9641] [BBCD0BBE]
09 62,2 [69780A80] [2113C931]

CD 3:
1. Act III, Scene 4 (end): For God's sake, what are you saying? - Madgalena Hajossyova

2. Act IV, Scene 1: I dreamt that pale Death touched me with her right hand - Magdalena Hajossyova
3. Scene 2: Xenia! - Livia Aghova
4. Scene 3: He has left! Now the sacrifice is complete - Leo Marian Vodicka
5. Scene 4: I will revoke it, I will revoke everything! - Magdalena Hajossyova
6. Scene 5: Help me, Dimitri, where are you? - Livia Aghova
7. Scene 6: Tremble, you murderess! - Ivan Kusnjer
8. Scene 7: Marfa! Marfa! - Czech Phil Chor/Lubomir Matl/Prague Radio Chor/Pavel Kuhn

Exact Audio Copy V1.3 from 2. September 2016

EAC extraction logfile from 23. December 2017, 11:43

Antonin Dvorak / Dimitrij CD3

Used drive : ASUS BC-12B1ST b Adapter: 1 ID: 0

Read mode : Secure
Utilize accurate stream : Yes
Defeat audio cache : Yes
Make use of C2 pointers : No

Read offset correction : 6
Overread into Lead-In and Lead-Out : No
Fill up missing offset samples with silence : Yes
Delete leading and trailing silent blocks : No
Null samples used in CRC calculations : Yes
Used interface : Native Win32 interface for Win NT & 2000

Used output format : User Defined Encoder
Selected bitrate : 768 kBit/s
Quality : High
Add ID3 tag : No
Command line compressor : C:\Program Files (x86)\Exact Audio Copy\FLAC\FLAC.EXE
Additional command line options : -6 -V -T "ARTIST=%artist%" -T "TITLE=%title%" -T "ALBUM=%albumtitle%" -T "DATE=%year%" -T "TRACKNUMBER=%tracknr%" -T "GENRE=%genre%" -T "COMMENT=%comment%" -T "BAND=%albuminterpret%" -T "ALBUMARTIST=%albuminterpret%" -T "COMPOSER=%composer%" %haslyrics%–tag-from-file=LYRICS="%lyricsfile%"%haslyrics% -T "DISCNUMBER=%cdnumber%" -T "TOTALDISCS=%totalcds%" -T "TOTALTRACKS=%numtracks%" %hascover%–picture="%coverfile%"%hascover% %source% -o %dest%


TOC of the extracted CD

Track | Start | Length | Start sector | End sector
––––––––––––––––––––––––––––-
1 | 0:00.33 | 8:21.25 | 33 | 37632
2 | 8:21.58 | 5:45.70 | 37633 | 63577
3 | 14:07.53 | 15:27.10 | 63578 | 133112
4 | 29:34.63 | 3:29.12 | 133113 | 148799
5 | 33:04.00 | 1:11.18 | 148800 | 154142
6 | 34:15.18 | 7:34.10 | 154143 | 188202
7 | 41:49.28 | 7:19.55 | 188203 | 221182
8 | 49:09.08 | 11:45.62 | 221183 | 274119


Range status and errors

Selected range

Filename R:\Dvorak DIMITRIJ - New rips\CD3\Antonin Dvorak - Dimitrij CD3.wav

Peak level 83.1 %
Extraction speed 1.9 X
Range quality 100.0 %
Test CRC 164C74ED
Copy CRC 164C74ED
Copy OK

No errors occurred


AccurateRip summary

Track 1 cannot be verified as accurate (confidence 2) [8361D464], AccurateRip returned [0B72CFF0] (AR v2)
Track 2 cannot be verified as accurate (confidence 2) [DE408DE9], AccurateRip returned [9F19E565] (AR v2)
Track 3 cannot be verified as accurate (confidence 2) [D6B6F657], AccurateRip returned [7D6E60B7] (AR v2)
Track 4 cannot be verified as accurate (confidence 2) [2F66C7B4], AccurateRip returned [555913B9] (AR v2)
Track 5 cannot be verified as accurate (confidence 2) [9002F23E], AccurateRip returned [2207C46A] (AR v2)
Track 6 cannot be verified as accurate (confidence 2) [3D0E365B], AccurateRip returned [CA0A8047] (AR v2)
Track 7 cannot be verified as accurate (confidence 2) [828103E8], AccurateRip returned [3FFD96E6] (AR v2)
Track 8 cannot be verified as accurate (confidence 2) [015B7A33], AccurateRip returned [EC941FE1] (AR v2)

No tracks could be verified as accurate
You may have a different pressing from the one(s) in the database

End of status report

–– CUETools DB Plugin V2.1.6

[CTDB TOCID: YHP7u1liIUDYadTNhOHwSiPCwC8-] found
Submit result: YHP7u1liIUDYadTNhOHwSiPCwC8- has been confirmed
Track | CTDB Status
1 | (6/6) Accurately ripped
2 | (6/6) Accurately ripped
3 | (4/6) Accurately ripped
4 | (6/6) Accurately ripped
5 | (6/6) Accurately ripped
6 | (6/6) Accurately ripped
7 | (6/6) Accurately ripped
8 | (6/6) Accurately ripped


==== Log checksum 2CBB29AE508083AAF14E726733EB0FF1A7AE2EE949DD862C18BD75B8DD4A3BC5 ====

[CUETools log; Date: 24.12.2017 18:10:02; Version: 2.1.5]
Pregap length 00:00:33.
[CTDB TOCID: YHP7u1liIUDYadTNhOHwSiPCwC8-] found.
Track | CTDB Status
1 | (7/7) Accurately ripped
2 | (7/7) Accurately ripped
3 | (5/7) Accurately ripped
4 | (7/7) Accurately ripped
5 | (7/7) Accurately ripped
6 | (7/7) Accurately ripped
7 | (7/7) Accurately ripped
8 | (7/7) Accurately ripped
[AccurateRip ID: 0012a0c6-007a653c-740e4608] found.
Track [ CRC | V2 ] Status
01 [2c8c7d24|8361d464] (0+0/4) No match
02 [86bcaf9a|de408de9] (0+0/4) No match
03 [1d9cf6a6|d6b6f657] (0+0/4) No match
04 [3e8c26a8|2f66c7b4] (0+0/4) No match
05 [d172218c|9002f23e] (0+0/4) No match
06 [2058ba9f|3d0e365b] (0+0/4) No match
07 [06e9ea16|828103e8] (0+0/4) No match
08 [48ce221d|015b7a33] (0+0/4) No match
Offsetted by -118:
01 [0b72cff0] (2/4) Accurately ripped
02 [9f19e565] (2/4) Accurately ripped
03 [7d6e60b7] (2/4) Accurately ripped
04 [555913b9] (2/4) Accurately ripped
05 [2207c46a] (2/4) Accurately ripped
06 [ca0a8047] (2/4) Accurately ripped
07 [3ffd96e6] (2/4) Accurately ripped
08 [ec941fe1] (2/4) Accurately ripped

Track Peak [ CRC32 ] [W/O NULL] [ LOG ]
– 83,1 [164C74ED] [A2F2C8E6] CRC32
01 81,2 [644CCA5D] [DD879B14]
02 83,1 [98BA5393] [4418471D]
03 58,4 [E295DD0A] [A51EB1F5]
04 33,6 [C72F0FA1] [F9FAEF64]
05 25,5 [EF119522] [D8CDC5AA]
06 83,1 [060512BD] [23A2E657]
07 69,6 [DFF82A91] [9B52F7CC]
08 83,1 [62C62D7F] [72196343]

Performers:
Leo Marian Vodička (tenor) Dmitrij Ivanovich
Drahomíra Drobková (soprano) Marfa Ivanovna
Magdaléna Hajóssyóvá (soprano) Marina Mnishkova
Lívia Ághová (soprano) Xenia Borisovna
Peter Míkulaš (bass) Pyotr Fyodorovich Basmanov
Ivan Kusjner (baritone) Shuisky
Ludĕk Vele (bass) Iov, the patriarch of Moscow
Zdenĕk Harvánek, Neborsky, member of the Polish company
Pavel Haderer, Buchinsky, member of the Polish company

Prague Radio Chorus
Czech Philharmonic Chorus and Orchestra
dir: Gerd Albrecht

Thanks to the Original ripper (unknown)!

Download: