Tags
Language
Tags

VA - Deep Six (1986) {1994 C/Z//A&M}

Posted By: TestTickles
VA - Deep Six (1986) {1994 C/Z//A&M}

VA - Deep Six (1986) {1994 C/Z//A&M}
EAC Rip | FLAC with Audiochecker and log | scans | 288 mb
MP3 CBR 320kbps | RAR | 104 mb
Genre: indie rock, grunge, garage rock

Deep Six is a Seattle compilation album originally released in 1986 by C/Z Records which focused on the Seattle rock music scene, specifically grunge, punk and garage rock bands. It features material by Soundgarden, Green River, Skin Yard, Melvins, Malfunkshun and The U-Men. This was reissued in 1994 by A&M Records when Soundgarden became massively popular.

VA - Deep Six (1986) {1994 C/Z//A&M}

01. Green River - 10,000 Things (3:38)
02. Melvins - Scared (2:19)
03. Melvins - Blessing The Operation (0:44)
04. Malfunkshun - With Yo' Heart (Not Yo' Hands) (3:54)
05. Skin Yard - Throb (5:30)
06. Soundgarden - Heretic (3:23)
07. Soundgarden - Tears To Forget (2:07)
08. Malfunkshun - Stars-N-You (1:46)
09. Melvins - Grinding Process (2:09)
10. Melvins - She Waits (0:40)
11. Skin Yard - The Birds (3:56)
12. Soundgarden - All Your Lies (3:53)
13. Green River - Your Own Best Friend (6:22)
14. U-Men - They (3:32)

Exact Audio Copy V0.99 prebeta 4 from 23. January 2008

EAC extraction logfile from 10. July 2009, 11:28

VA / Deep Six

Used drive : SONY DVD RW DRU-840A Adapter: 1 ID: 0

Read mode : Secure
Utilize accurate stream : Yes
Defeat audio cache : Yes
Make use of C2 pointers : No

Read offset correction : 6
Overread into Lead-In and Lead-Out : No
Fill up missing offset samples with silence : Yes
Delete leading and trailing silent blocks : No
Null samples used in CRC calculations : Yes
Used interface : Installed external ASPI interface
Gap handling : Appended to previous track

Used output format : User Defined Encoder
Selected bitrate : 320 kBit/s
Quality : High
Add ID3 tag : No
Command line compressor : C:\Program Files (x86)\Exact Audio Copy\Flac\flac.exe
Additional command line options : -V -8 -T "artist=%a" -T "title=%t" -T "album=%g" -T "date=%y" -T "tracknumber=%n" -T "genre=%m" %s

TOC of the extracted CD

Track | Start | Length | Start sector | End sector
––––––––––––––––––––––––––––-
1 | 0:00.00 | 3:37.52 | 0 | 16326
2 | 3:37.52 | 2:19.08 | 16327 | 26759
3 | 5:56.60 | 0:44.27 | 26760 | 30086
4 | 6:41.12 | 3:54.18 | 30087 | 47654
5 | 10:35.30 | 5:29.45 | 47655 | 72374
6 | 16:05.00 | 3:22.67 | 72375 | 87591
7 | 19:27.67 | 2:06.60 | 87592 | 97101
8 | 21:34.52 | 1:46.10 | 97102 | 105061
9 | 23:20.62 | 2:09.08 | 105062 | 114744
10 | 25:29.70 | 0:40.30 | 114745 | 117774
11 | 26:10.25 | 3:56.30 | 117775 | 135504
12 | 30:06.55 | 3:53.02 | 135505 | 152981
13 | 33:59.57 | 6:21.43 | 152982 | 181599
14 | 40:21.25 | 3:32.25 | 181600 | 197524

Track 1

Filename C:\cuntfist\FLAC\VA - Deep Six (1986) [FLAC] {1994 CZ. A&M}\01 - Green River - 10,000 Things.wav

Pre-gap length 0:00:02.00

Peak level 95.3 %
Track quality 100.0 %
Test CRC 5DA57793
Copy CRC 5DA57793
Track not present in AccurateRip database
Copy OK

Track 2

Filename C:\cuntfist\FLAC\VA - Deep Six (1986) [FLAC] {1994 CZ. A&M}\02 - Melvins - Scared.wav

Pre-gap length 0:00:02.86

Peak level 95.3 %
Track quality 100.0 %
Test CRC 2751FED7
Copy CRC 2751FED7
Track not present in AccurateRip database
Copy OK

Track 3

Filename C:\cuntfist\FLAC\VA - Deep Six (1986) [FLAC] {1994 CZ. A&M}\03 - Melvins - Blessing The Operation.wav

Pre-gap length 0:00:02.37

Peak level 95.3 %
Track quality 100.0 %
Test CRC 8EDE0132
Copy CRC 8EDE0132
Track not present in AccurateRip database
Copy OK

Track 4

Filename C:\cuntfist\FLAC\VA - Deep Six (1986) [FLAC] {1994 CZ. A&M}\04 - Malfunkshun - With Yo' Heart (Not Yo' Hands).wav

Pre-gap length 0:00:02.76

Peak level 95.3 %
Track quality 100.0 %
Test CRC 99C4545C
Copy CRC 99C4545C
Track not present in AccurateRip database
Copy OK

Track 5

Filename C:\cuntfist\FLAC\VA - Deep Six (1986) [FLAC] {1994 CZ. A&M}\05 - Skin Yard - Throb.wav

Pre-gap length 0:00:02.44

Peak level 95.3 %
Track quality 100.0 %
Test CRC 8F6F06F9
Copy CRC 8F6F06F9
Track not present in AccurateRip database
Copy OK

Track 6

Filename C:\cuntfist\FLAC\VA - Deep Six (1986) [FLAC] {1994 CZ. A&M}\06 - Soundgarden - Heretic.wav

Pre-gap length 0:00:02.57

Peak level 95.3 %
Track quality 99.9 %
Test CRC A4E1B7A1
Copy CRC A4E1B7A1
Track not present in AccurateRip database
Copy OK

Track 7

Filename C:\cuntfist\FLAC\VA - Deep Six (1986) [FLAC] {1994 CZ. A&M}\07 - Soundgarden - Tears To Forget.wav

Pre-gap length 0:00:00.93

Peak level 95.3 %
Track quality 100.0 %
Test CRC CF5B4B1A
Copy CRC CF5B4B1A
Track not present in AccurateRip database
Copy OK

Track 8

Filename C:\cuntfist\FLAC\VA - Deep Six (1986) [FLAC] {1994 CZ. A&M}\08 - Malfunkshun - Stars-N-You.wav

Pre-gap length 0:00:00.36

Peak level 95.3 %
Track quality 100.0 %
Test CRC E1EC3EB2
Copy CRC E1EC3EB2
Track not present in AccurateRip database
Copy OK

Track 9

Filename C:\cuntfist\FLAC\VA - Deep Six (1986) [FLAC] {1994 CZ. A&M}\09 - Melvins - Grinding Process.wav

Pre-gap length 0:00:01.66

Peak level 95.3 %
Track quality 100.0 %
Test CRC C13E04D3
Copy CRC C13E04D3
Track not present in AccurateRip database
Copy OK

Track 10

Filename C:\cuntfist\FLAC\VA - Deep Six (1986) [FLAC] {1994 CZ. A&M}\10 - Melvins - She Waits.wav

Pre-gap length 0:00:01.50

Peak level 95.3 %
Track quality 100.0 %
Test CRC D0D12D08
Copy CRC D0D12D08
Track not present in AccurateRip database
Copy OK

Track 11

Filename C:\cuntfist\FLAC\VA - Deep Six (1986) [FLAC] {1994 CZ. A&M}\11 - Skin Yard - The Birds.wav

Pre-gap length 0:00:00.46

Peak level 95.3 %
Track quality 100.0 %
Test CRC 7DD0DFD2
Copy CRC 7DD0DFD2
Track not present in AccurateRip database
Copy OK

Track 12

Filename C:\cuntfist\FLAC\VA - Deep Six (1986) [FLAC] {1994 CZ. A&M}\12 - Soundgarden - All Your Lies.wav

Pre-gap length 0:00:02.66

Peak level 95.3 %
Track quality 100.0 %
Test CRC 3EC646B1
Copy CRC 3EC646B1
Track not present in AccurateRip database
Copy OK

Track 13

Filename C:\cuntfist\FLAC\VA - Deep Six (1986) [FLAC] {1994 CZ. A&M}\13 - Green River - Your Own Best Friend.wav

Pre-gap length 0:00:01.81

Peak level 95.3 %
Track quality 100.0 %
Test CRC 03F9326B
Copy CRC 03F9326B
Track not present in AccurateRip database
Copy OK

Track 14

Filename C:\cuntfist\FLAC\VA - Deep Six (1986) [FLAC] {1994 CZ. A&M}\14 - U-Men - They.wav

Pre-gap length 0:00:01.26

Peak level 95.3 %
Track quality 100.0 %
Test CRC 99C6326E
Copy CRC 99C6326E
Track not present in AccurateRip database
Copy OK

None of the tracks are present in the AccurateRip database

No errors occurred

End of status report


VA - Deep Six (1986) {1994 C/Z//A&M}


Thank you to the original uploader.