Subcategories
Tags
Language
Tags

Dallas Symphony Orchestra - Prokofiev: Scythian Suite; Stravinsky: Le Sacre Du Printemps (1991) {Dorian Recordings} **[RE-UP]**

Posted By: TestTickles
Dallas Symphony Orchestra - Prokofiev: Scythian Suite; Stravinsky: Le Sacre Du Printemps (1991) {Dorian Recordings} **[RE-UP]**

Dallas Symphony Orchestra - Prokofiev: Scythian Suite; Stravinsky: Le Sacre Du Printemps (The Rite Of Spring) (1991) {Dorian Recordings}
EAC Rip | FLAC with CUE and log | scans | 297 mb
MP3 CBR 320kbps | RAR | 194 mb
Genre: classical

Prokofiev: Scythian Suite; Stravinsky: Le Sacre Du Printemps (The Rite Of Spring) is a 1991 album by the Dallas Symphony Orchestra, conducted by Eduarto Mata. This was released by Dorian Recordings.

Dallas Symphony Orchestra - Prokofiev: Scythian Suite; Stravinsky: Le Sacre Du Printemps (1991) {Dorian Recordings} **[RE-UP]**

Sergei Prokofiev: Scythian Suite Op. 20
1 The Adoration Of Veles And Ala 6:50
2 Chuzhbog And The Dance Of The Evil Spirits 3:25
3 Night 6:34
4 The Glorius Departure Of Lolli And The Procession Of The Sun 5:58
Le Sacre Du Printemps (The Rite Of Spring), Part One: The Adoration Of The Earth

Igor Stravinsky: La Sacre Du Printemps (The Rite Of Spring) Part One: The Adoration Of The Earth
5 Introduction 3:36
6 The Aguars Of Spring - Dances Of The Young Girls 3:54
7 Ritual Of Abduction 1:22
8 Spring Rounds 3:33
9 Games Of The Rival Tribes 1:52
10 Procession Of The Sage 0:43
11 The Adoration Of The Earth 0:23
12 Dance Of The Earth 1:18
Le Sacre Du Printemps (The Rite Of Spring), Part Two: The Sacrifice

Igor Stravinsky: La Sacre Du Printemps (The Rite Of Spring) Part Two: The Sacrifice
13 Introduction 4:22
14 Mystic Circles Of The Young Girls 3:37
15 Glorification Of The Chosen One 1:48
16 Evocation Of The Ancestors 0:42
17 Ritual Of The Ancestors 3:58
18 Sacrificial Dance - The Chosen One 5:08


Produced by Douglas Brown
Engineered by Craig D. Dory, Douglas Brown & Brian C. Peters
Recorded in the Eugene McDermott Hall at the Morton H. Meyerson Symphony Center in Dallas Texas in February 1991

EAC extraction logfile from 4. March 2017, 12:27 for CD
Dallas Symphony Orchestra, Eduardo Mata / Prokofiev: Scythian Suite/Stravinsky: La Sacre Du Printemps

Used drive : TSSTcorpDVD+-RW TS-H653B Adapter: 2 ID: 0
Read mode : Secure with NO C2, accurate stream, disable cache
Read offset correction : 6
Overread into Lead-In and Lead-Out : No

Used output format : Internal WAV Routines
44.100 Hz; 16 Bit; Stereo

Other options :
Fill up missing offset samples with silence : Yes
Delete leading and trailing silent blocks : No
Native Win32 interface for Win NT & 2000


Track 1
Filename C:\Documents and Settings\Desktop\Dallas Symphony Orchestra - Prokofiev, Scythian Suite… (1991) [FLAC]\01 - Scythian Suite, Op. 20- The Adoration of Veles and Ala.wav

Pre-gap length 0:00:02.49

Peak level 91.7 %
Track quality 100.0 %
Test CRC 594C52DE
Copy CRC 594C52DE
Copy OK

Track 2
Filename C:\Documents and Settings\Desktop\Dallas Symphony Orchestra - Prokofiev, Scythian Suite… (1991) [FLAC]\02 - Scythian Suite, Op. 20- Chuzhbog and the Dance of the Evil Spirits.wav

Pre-gap length 0:00:08.26

Peak level 77.1 %
Track quality 100.0 %
Test CRC 21DD1BDF
Copy CRC 21DD1BDF
Copy OK

Track 3
Filename C:\Documents and Settings\Desktop\Dallas Symphony Orchestra - Prokofiev, Scythian Suite… (1991) [FLAC]\03 - Scythian Suite, Op. 20- Night.wav

Pre-gap length 0:00:03.20

Peak level 53.2 %
Track quality 100.0 %
Test CRC 19E47ABA
Copy CRC 19E47ABA
Copy OK

Track 4
Filename C:\Documents and Settings\Desktop\Dallas Symphony Orchestra - Prokofiev, Scythian Suite… (1991) [FLAC]\04 - Scythian Suite, Op. 20- The Glorious Departure of Lollo and the Procession of the Sun.wav

Pre-gap length 0:00:05.73

Peak level 72.9 %
Track quality 100.0 %
Test CRC B988387C
Copy CRC B988387C
Copy OK

Track 5
Filename C:\Documents and Settings\Desktop\Dallas Symphony Orchestra - Prokofiev, Scythian Suite… (1991) [FLAC]\05 - La Sacre Du Printemps (The Rite Of Spring), Part One- The Adoration Of The Earth- Introduction.wav

Pre-gap length 0:00:14.80

Peak level 14.2 %
Track quality 100.0 %
Test CRC 07264A8D
Copy CRC 07264A8D
Copy OK

Track 6
Filename C:\Documents and Settings\Desktop\Dallas Symphony Orchestra - Prokofiev, Scythian Suite… (1991) [FLAC]\06 - La Sacre Du Printemps (The Rite Of Spring), Part One- The Adoration Of The Earth- Les augures printaniers - Danses des adol

Peak level 75.2 %
Track quality 99.9 %
Test CRC 6A817F4A
Copy CRC 6A817F4A
Copy OK

Track 7
Filename C:\Documents and Settings\Desktop\Dallas Symphony Orchestra - Prokofiev, Scythian Suite… (1991) [FLAC]\07 - La Sacre Du Printemps (The Rite Of Spring), Part One- The Adoration Of The Earth- Jeu du rapt.wav

Peak level 94.3 %
Track quality 100.0 %
Test CRC BEC9F0CD
Copy CRC BEC9F0CD
Copy OK

Track 8
Filename C:\Documents and Settings\Desktop\Dallas Symphony Orchestra - Prokofiev, Scythian Suite… (1991) [FLAC]\08 - La Sacre Du Printemps (The Rite Of Spring), Part One- The Adoration Of The Earth- Rondes printanieres.wav

Peak level 95.6 %
Track quality 100.0 %
Test CRC C5D48E20
Copy CRC C5D48E20
Copy OK

Track 9
Filename C:\Documents and Settings\Desktop\Dallas Symphony Orchestra - Prokofiev, Scythian Suite… (1991) [FLAC]\09 - La Sacre Du Printemps (The Rite Of Spring), Part One- The Adoration Of The Earth- Jeux des cites rivales.wav

Peak level 66.1 %
Track quality 100.0 %
Test CRC C6F75212
Copy CRC C6F75212
Copy OK

Track 10
Filename C:\Documents and Settings\Desktop\Dallas Symphony Orchestra - Prokofiev, Scythian Suite… (1991) [FLAC]\10 - La Sacre Du Printemps (The Rite Of Spring), Part One- The Adoration Of The Earth- Cortege du sage.wav

Peak level 62.4 %
Track quality 100.0 %
Test CRC 1A677048
Copy CRC 1A677048
Copy OK

Track 11
Filename C:\Documents and Settings\Desktop\Dallas Symphony Orchestra - Prokofiev, Scythian Suite… (1991) [FLAC]\11 - La Sacre Du Printemps (The Rite Of Spring), Part One- The Adoration Of The Earth- L'adoraation de la terre - Le sage.wav

Peak level 2.0 %
Track quality 100.0 %
Test CRC 8FF349B8
Copy CRC 8FF349B8
Copy OK

Track 12
Filename C:\Documents and Settings\Desktop\Dallas Symphony Orchestra - Prokofiev, Scythian Suite… (1991) [FLAC]\12 - La Sacre Du Printemps (The Rite Of Spring), Part One- The Adoration Of The Earth- Danse de la terre.wav

Peak level 96.3 %
Track quality 100.0 %
Test CRC FFA1878B
Copy CRC FFA1878B
Copy OK

Track 13
Filename C:\Documents and Settings\Desktop\Dallas Symphony Orchestra - Prokofiev, Scythian Suite… (1991) [FLAC]\13 - La Sacre Du Printemps (The Rite Of Spring), Part Two- The Sacrifice- Introduction.wav

Pre-gap length 0:00:05.16

Peak level 20.6 %
Track quality 100.0 %
Test CRC 412FE6EE
Copy CRC 412FE6EE
Copy OK

Track 14
Filename C:\Documents and Settings\Desktop\Dallas Symphony Orchestra - Prokofiev, Scythian Suite… (1991) [FLAC]\14 - La Sacre Du Printemps (The Rite Of Spring), Part Two- The Sacrifice- Cercles mysterieux des adolescentes.wav

Peak level 39.2 %
Track quality 100.0 %
Test CRC 8D13BB93
Copy CRC 8D13BB93
Copy OK

Track 15
Filename C:\Documents and Settings\Desktop\Dallas Symphony Orchestra - Prokofiev, Scythian Suite… (1991) [FLAC]\15 - La Sacre Du Printemps (The Rite Of Spring), Part Two- The Sacrifice- Glorification de l'elue.wav

Peak level 94.7 %
Track quality 100.0 %
Test CRC 5E22989B
Copy CRC 5E22989B
Copy OK

Track 16
Filename C:\Documents and Settings\Desktop\Dallas Symphony Orchestra - Prokofiev, Scythian Suite… (1991) [FLAC]\16 - La Sacre Du Printemps (The Rite Of Spring), Part Two- The Sacrifice- Evocation des ancetres.wav

Peak level 75.0 %
Track quality 100.0 %
Test CRC 5D7F4914
Copy CRC 5D7F4914
Copy OK

Track 17
Filename C:\Documents and Settings\Desktop\Dallas Symphony Orchestra - Prokofiev, Scythian Suite… (1991) [FLAC]\17 - La Sacre Du Printemps (The Rite Of Spring), Part Two- The Sacrifice- Action rituelle des ancetres.wav

Peak level 47.1 %
Track quality 100.0 %
Test CRC FDC654F7
Copy CRC FDC654F7
Copy OK

Track 18
Filename C:\Documents and Settings\Desktop\Dallas Symphony Orchestra - Prokofiev, Scythian Suite… (1991) [FLAC]\18 - La Sacre Du Printemps (The Rite Of Spring), Part Two- The Sacrifice- Danse sacrale - L'elue.wav

Peak level 95.9 %
Track quality 99.9 %
Test CRC 3598CA21
Copy CRC 3598CA21
Copy OK

No errors occured


End of status report


Dallas Symphony Orchestra - Prokofiev: Scythian Suite; Stravinsky: Le Sacre Du Printemps (1991) {Dorian Recordings} **[RE-UP]**