Subcategories

David Murray Octet - New Life (1987) {Black Saint}

Posted By: TestTickles
David Murray Octet - New Life (1987) {Black Saint}

David Murray Octet - New Life (1987) {Black Saint}
EAC Rip | FLAC with CUE and log | scans | 289 mb
MP3 CBR 320kbps | RAR | 115 mb
Genre: jazz

New Life is the 1987 album by David Murray and his octet. Black Saint is the label that released this.

David Murray Octet - New Life (1987) {Black Saint}

1. Train Whistle (11:49)
2. Morning Song (10:09)
3. New Life (6:35)
4. Blues In The Pocket (11:14)

David Murray-tenor saxophone, bass clarinet
Baikida Carroll-trumpet
Hugh Ragin-trumpet
Craig Harris-trombone
John Purcell-alto saxophone
Adegoke Steve Colson-piano
Wilber Morris-bass
Ralph Peterson-drums

Recorded in New York on 8 October, 1985 at Sorcerer Sound Studio
Engineered by David Avidor
Mixed 7 March, 1986 at The Ranch Track Recording Studio
Engineered by David Baker
Assisted by Robbie Norris
Mastered by Gennaro Carone

Exact Audio Copy V1.1 from 23. June 2015

EAC extraction logfile from 18. March 2017, 12:40

David Murray Octet / New Life

Used drive : TEAC DVD-ROM DV-28SW Adapter: 1 ID: 0

Read mode : Secure
Utilize accurate stream : Yes
Defeat audio cache : Yes
Make use of C2 pointers : No

Read offset correction : 6
Overread into Lead-In and Lead-Out : No
Fill up missing offset samples with silence : Yes
Delete leading and trailing silent blocks : No
Null samples used in CRC calculations : Yes
Used interface : Native Win32 interface for Win NT & 2000
Gap handling : Appended to previous track

Used output format : Internal WAV Routines
Sample format : 44.100 Hz; 16 Bit; Stereo


TOC of the extracted CD

Track | Start | Length | Start sector | End sector
––––––––––––––––––––––––––––-
1 | 0:00.33 | 11:53.25 | 33 | 53532
2 | 11:53.58 | 10:06.30 | 53533 | 99012
3 | 22:00.13 | 6:36.52 | 99013 | 128764
4 | 28:36.65 | 11:14.05 | 128765 | 179319


Track 1

Filename C:\My Documents\My FLAC\David Murray Octet - New Life (1987) [FLAC] {Black Saint}\01 - Train Whistle.wav

Pre-gap length 0:00:02.33

Peak level 92.0 %
Extraction speed 3.4 X
Track quality 100.0 %
Test CRC 412F4CED
Copy CRC 412F4CED
Accurately ripped (confidence 3) [88DE9A4C] (AR v2)
Copy OK

Track 2

Filename C:\My Documents\My FLAC\David Murray Octet - New Life (1987) [FLAC] {Black Saint}\02 - Morning Song.wav

Pre-gap length 0:00:01.33

Peak level 95.6 %
Extraction speed 4.0 X
Track quality 100.0 %
Test CRC 8801D7B4
Copy CRC 8801D7B4
Accurately ripped (confidence 3) [FBC1A19D] (AR v2)
Copy OK

Track 3

Filename C:\My Documents\My FLAC\David Murray Octet - New Life (1987) [FLAC] {Black Saint}\03 - New Life.wav

Pre-gap length 0:00:02.20

Peak level 74.0 %
Extraction speed 4.4 X
Track quality 100.0 %
Test CRC B46037D6
Copy CRC B46037D6
Accurately ripped (confidence 3) [3BD8EB8B] (AR v2)
Copy OK

Track 4

Filename C:\My Documents\My FLAC\David Murray Octet - New Life (1987) [FLAC] {Black Saint}\04 - Blues In The Pocket.wav

Pre-gap length 0:00:03.10

Peak level 88.9 %
Extraction speed 4.8 X
Track quality 100.0 %
Test CRC D56CBF8C
Copy CRC D56CBF8C
Accurately ripped (confidence 3) [05377387] (AR v2)
Copy OK


All tracks accurately ripped

No errors occurred

End of status report

–– CUETools DB Plugin V2.1.6

[CTDB TOCID: LaqocCATwTTHyaKEIy8AZj9XaRk-] found
Submit result: LaqocCATwTTHyaKEIy8AZj9XaRk- has been confirmed
Track | CTDB Status
1 | (2/2) Accurately ripped
2 | (2/2) Accurately ripped
3 | (2/2) Accurately ripped
4 | (2/2) Accurately ripped


==== Log checksum D3EAFD1E53EF0499A1CBAC479A5D1A58D4FC500B97274A37CC6A03C25BF3AED4 ====


David Murray Octet - New Life (1987) {Black Saint}