Subcategories

VA - DJ Super Hits (1995)

Posted By: TestTickles
VA - DJ Super Hits (1995)

VA - DJ Super Hits (1995)
EAC Rip | FLAC with CUE and LOG | scans | 488 mb
MP3 CBR 320 kbps | RAR | 162 mb
Genre: modern pop, dance, club, reggae, synth pop, house, soul, R&B

DJ Super Hits is a 1995 compilation CD of popular and little known artists and songs of the early 1990's. This one does not list a label or country of origin but all are the original songs by the original artists. Just listen…

VA - DJ Super Hits (1995)

01. Tatjana - Santa Maria (3:20)
02. Cappella - Tell Me The Way (3:52)
03. Nightcrawlers featuring John Reid - Don't Let The Feeling Go! (3:50)
04. The Original - I Luv You Baby (3:32)
05. N-Trance featuring Ricardo Da Force - Stayin' Alive (4:05)
06. Shaggy - Boombastic (3:54)
07. Ace Of Base - Lucky Love (2:53)
08. Dr. Alban - This Time I'm Free (6:59)
09. Clock - Everybody (3:38)
10. Berri - The Sunshine After The Rain (3:29)
11. Joe Samba Jr. African Vibes - I Like Summer (3:48)
12. Mariah Carey - Fantasy (4:04)
13. Velvet Lipps featuring Rose Zone - French Kiss (3:44)
14. Tokyo Ghetto Pussy - Everybody On The Floor (Pump It) (3:37)
15. Mr. President - 4 On The Floor (3:17)
16. Michelle Gayle - Happy Just To Be With You (3:54)
17. Coolio featuring L.V. - Gangsta's Paradise (4:02)
18. Janet Jackson - Runaway (3:35)

Exact Audio Copy V1.0 beta 3 from 29. August 2011

Отчет на EAC за извличане, извършено на 11. Август 2014, 8:06

Various Artists / DJ Super Hits

Използвано устройство : HL-DT-STDVDRAM GH24NS95 Adapter: 0 ID: 1

Режим на четене : Надежден
Използване на точен поток : Да
Изключено аудио кеширане : Да
Използване на C2 показалци : Не

Офсет корекция при четене : 6
Препрочитане на секторите Lead-In и Lead-Out : Не
Запълване на липсващи офсет семпли с тишина : Да
Изтриване на блокове тишина в началото и края : Не
Използване на нулеви семпли при CRC изчисления : Да
Използван интерфейс : Вграден Win32 интерфейс за Win NT & 2000

Използван изходен формат : Енкодер Дефиниран от Потребителя
Избран битрейт : 896 kBit/s
Качество : Високо
Добави ID3 таг : Не
Конзолен компресор : C:\Program Files\Exact Audio Copy 1.0beta3\FLAC\FLAC.EXE
Допълнителни конзолни опции : -6 -V -T "ARTIST=%artist%" -T "TITLE=%title%" -T "ALBUM=%albumtitle%" -T "DATE=%year%" -T "TRACKNUMBER=%tracknr%" -T "GENRE=%genre%" -T "COMMENT=%comment%" -T "BAND=%albuminterpret%" -T "ALBUMARTIST=%albuminterpret%" -T "COMPOSER=%composer%" %haslyrics%–tag-from-file=LYRICS="%lyricsfile%"%haslyrics% -T "DISCNUMBER=%cdnumber%" -T "TOTALDISCS=%totalcds%" -T "TOTALTRACKS=%numtracks%" %hascover%–picture="%coverfile%"%hascover% %source% -o %dest%


TOC на извлечения CD

Трак | Начало | Дължина | Начален сектор | Краен сектор
––––––––––––––––––––––––––––––
1 | 0:00.00 | 3:21.70 | 0 | 15144
2 | 3:21.70 | 3:53.60 | 15145 | 32679
3 | 7:15.55 | 3:53.70 | 32680 | 50224
4 | 11:09.50 | 3:37.50 | 50225 | 66549
5 | 14:47.25 | 4:06.70 | 66550 | 85069
6 | 18:54.20 | 3:56.67 | 85070 | 102836
7 | 22:51.12 | 2:55.45 | 102837 | 116006
8 | 25:46.57 | 7:01.68 | 116007 | 147649
9 | 32:48.50 | 3:39.52 | 147650 | 164126
10 | 36:28.27 | 3:31.53 | 164127 | 180004
11 | 40:00.05 | 3:50.25 | 180005 | 197279
12 | 43:50.30 | 4:06.57 | 197280 | 215786
13 | 47:57.12 | 3:46.38 | 215787 | 232774
14 | 51:43.50 | 3:40.00 | 232775 | 249274
15 | 55:23.50 | 3:20.12 | 249275 | 264286
16 | 58:43.62 | 3:56.43 | 264287 | 282029
17 | 62:40.30 | 4:05.35 | 282030 | 300439
18 | 66:45.65 | 3:35.10 | 300440 | 316574


Състояние и грешки на диапазон

Избран диапазон

Име на файл C:\cuntfist\FLAC\VA - DJ Super Hits (1995) [FLAC]\VA - DJ Super Hits.wav

Пиково ниво 97.7 %
Скорост на извличане 3.2 X
Качество на диапазона 100.0 %
Копиран CRC 1BCBAB9F
Копиране OK

Няма грешки


AccurateRip резюме

Трак 1 не е в базата данни
Трак 2 не е в базата данни
Трак 3 не е в базата данни
Трак 4 не е в базата данни
Трак 5 не е в базата данни
Трак 6 не е в базата данни
Трак 7 не е в базата данни
Трак 8 не е в базата данни
Трак 9 не е в базата данни
Трак 10 не е в базата данни
Трак 11 не е в базата данни
Трак 12 не е в базата данни
Трак 13 не е в базата данни
Трак 14 не е в базата данни
Трак 15 не е в базата данни
Трак 16 не е в базата данни
Трак 17 не е в базата данни
Трак 18 не е в базата данни

Никой от траковете не е в базата данни на AccurateRip

Край на отчета

–– CUETools DB Plugin V2.1.3

[CTDB TOCID: QEIrhnOdq.cUEwGhkkbrGDRyjgU-] found, Submit result: already submitted
[ffb9e5e0] (1/1) Accurately ripped


==== Контролна сума от отчет 019D0BF30EB4000A7C26460C51FB6DCA03D7B64995577EC2DE9E6D1F76BEC864 ====


VA - DJ Super Hits (1995)


Thank you to the original uploader.