Tags
Language
Tags

VA - Dr. Dolittle: The Album (1998) {Atlantic}

Posted By: TestTickles
VA - Dr. Dolittle: The Album (1998) {Atlantic}

VA - Dr. Dolittle: The Album (1998) {Atlantic}
EAC Rip | FLAC with CUE and log | 427 mb
MP3 CBR 320kbps | RAR | 154 mb
Genre: soundtrack, R&B, soul, hip-hop, rap

Dr. Dolittle: The Album is the 1998 soundtrack album to the film Dr. Dolittle starring Eddie Murphy. The soundtrack is known for the Aaliyah song "Are You That Somebody?", which became a massive hit. This was released on the Atlantic label.

VA - Dr. Dolittle: The Album (1998) {Atlantic}

01. Ray J. - That's Why I Lie
02. Montell Jordan featuring Shaunta - Let's Ride (Remix)
03. Aaliyah - Are You That Somebody?
04. Ginuwine - Same Ol' G
05. All Saints - Lady Marmalade (Timbaland Remix)
06. Timbaland - Da Funk
07. Changing Faces featuring Ivan Matias - Do Little Things
08. Playa - Your Dress
09. 69 Boyz - Woof Woof
10. Dawn Robinson - Rock Steady
11. Twista & The Speed Knot Mobsters - In Your World
12. Jody Watley - Lovin' You So
13. Robin S. featuring Mary Mary - Dance
14. Eddie Kane & DeVille featuring DJ Toomp - Push 'Em Up
15. Sugarhill Gang - Ain't Nothin' But A Party

Exact Audio Copy V0.99 prebeta 4 from 23. January 2008

EAC extraction logfile from 18u. November 2009, 20:06

VA / Dr. Dolittle: The Album

Used drive : HP CD-Writer cd16f Adapter: 1 ID: 0

Read mode : Secure
Utilize accurate stream : Yes
Defeat audio cache : Yes
Make use of C2 pointers : No

Read offset correction : 733
Overread into Lead-In and Lead-Out : No
Fill up missing offset samples with silence : Yes
Delete leading and trailing silent blocks : No
Null samples used in CRC calculations : Yes
Used interface : Native Win32 interface for Win NT & 2000
Gap handling : Appended to previous track

Used output format : User Defined Encoder
Selected bitrate : 128 kBit/s
Quality : High
Add ID3 tag : No
Command line compressor : C:\Program Files\Exact Audio Copy\Flac\flac.exe
Additional command line options : -V -5 -T "artist=%a" -T "title=%t" -T "album=%g" -T "date=%y" -T "tracknumber=%n" -T "genre=%m" %s

TOC of the extracted CD

Track | Start | Length | Start sector | End sector
––––––––––––––––––––––––––––-
1 | 0:00.32 | 4:51.45 | 32 | 21901
2 | 4:52.02 | 4:53.13 | 21902 | 43889
3 | 9:45.15 | 4:27.62 | 43890 | 63976
4 | 14:13.02 | 4:21.13 | 63977 | 83564
5 | 18:34.15 | 4:03.67 | 83565 | 101856
6 | 22:38.07 | 4:29.63 | 101857 | 122094
7 | 27:07.70 | 5:09.40 | 122095 | 145309
8 | 32:17.35 | 3:59.00 | 145310 | 163234
9 | 36:16.35 | 4:11.10 | 163235 | 182069
10 | 40:27.45 | 3:05.65 | 182070 | 196009
11 | 43:33.35 | 4:50.10 | 196010 | 217769
12 | 48:23.45 | 3:35.70 | 217770 | 233964
13 | 51:59.40 | 3:38.27 | 233965 | 250341
14 | 55:37.67 | 3:46.15 | 250342 | 267306
15 | 59:24.07 | 3:57.03 | 267307 | 285084

Track 1

Filename C:\cuntfist\FLAC\VA - Dr. Dolittle, The Album (1998) [FLAC] {Atlantic}\01 - That's Why I Lie.wav

Pre-gap length 0:00:02.32

Peak level 100.0 %
Track quality 100.0 %
Test CRC 23B24984
Copy CRC 23B24984
Accurately ripped (confidence 13) [47F943C7]
Copy OK

Track 2

Filename C:\cuntfist\FLAC\VA - Dr. Dolittle, The Album (1998) [FLAC] {Atlantic}\02 - Let's Ride (Remix).wav

Pre-gap length 0:00:01.10

Peak level 100.0 %
Track quality 100.0 %
Test CRC 328AE2C5
Copy CRC 328AE2C5
Accurately ripped (confidence 13) [8ACCDDC2]
Copy OK

Track 3

Filename C:\cuntfist\FLAC\VA - Dr. Dolittle, The Album (1998) [FLAC] {Atlantic}\03 - Are You That Somebody .wav

Pre-gap length 0:00:00.58

Peak level 100.0 %
Track quality 100.0 %
Test CRC 9CAA76D9
Copy CRC 9CAA76D9
Accurately ripped (confidence 13) [3D8E0766]
Copy OK

Track 4

Filename C:\cuntfist\FLAC\VA - Dr. Dolittle, The Album (1998) [FLAC] {Atlantic}\04 - Same Ol' G.wav

Pre-gap length 0:00:01.13

Peak level 100.0 %
Track quality 100.0 %
Test CRC EDD617EE
Copy CRC EDD617EE
Accurately ripped (confidence 13) [003629E8]
Copy OK

Track 5

Filename C:\cuntfist\FLAC\VA - Dr. Dolittle, The Album (1998) [FLAC] {Atlantic}\05 - Lady Marmalade (Timbaland Remix).wav

Pre-gap length 0:00:01.21

Peak level 100.0 %
Track quality 100.0 %
Test CRC D5992D5A
Copy CRC D5992D5A
Accurately ripped (confidence 13) [853AD798]
Copy OK

Track 6

Filename C:\cuntfist\FLAC\VA - Dr. Dolittle, The Album (1998) [FLAC] {Atlantic}\06 - Da Funk.wav

Pre-gap length 0:00:00.13

Peak level 100.0 %
Track quality 100.0 %
Test CRC 49F6A1E3
Copy CRC 49F6A1E3
Accurately ripped (confidence 13) [469C7D42]
Copy OK

Track 7

Filename C:\cuntfist\FLAC\VA - Dr. Dolittle, The Album (1998) [FLAC] {Atlantic}\07 - Do Little Things.wav

Pre-gap length 0:00:00.61

Peak level 100.0 %
Track quality 100.0 %
Test CRC 883F2345
Copy CRC 883F2345
Accurately ripped (confidence 13) [30761297]
Copy OK

Track 8

Filename C:\cuntfist\FLAC\VA - Dr. Dolittle, The Album (1998) [FLAC] {Atlantic}\08 - Your Dress.wav

Pre-gap length 0:00:00.61

Peak level 100.0 %
Track quality 100.0 %
Test CRC 691BCE0A
Copy CRC 691BCE0A
Accurately ripped (confidence 14) [278F421F]
Copy OK

Track 9

Filename C:\cuntfist\FLAC\VA - Dr. Dolittle, The Album (1998) [FLAC] {Atlantic}\09 - Woof Woof.wav

Pre-gap length 0:00:00.63

Peak level 100.0 %
Track quality 100.0 %
Test CRC A3FCE369
Copy CRC A3FCE369
Accurately ripped (confidence 13) [B10374A3]
Copy OK

Track 10

Filename C:\cuntfist\FLAC\VA - Dr. Dolittle, The Album (1998) [FLAC] {Atlantic}\10 - Rock Steady.wav

Pre-gap length 0:00:01.06

Peak level 95.8 %
Track quality 100.0 %
Test CRC E46CA5DA
Copy CRC E46CA5DA
Accurately ripped (confidence 13) [3CE99584]
Copy OK

Track 11

Filename C:\cuntfist\FLAC\VA - Dr. Dolittle, The Album (1998) [FLAC] {Atlantic}\11 - In Your World.wav

Pre-gap length 0:00:00.71

Peak level 100.0 %
Track quality 100.0 %
Test CRC D64C2C3C
Copy CRC D64C2C3C
Accurately ripped (confidence 13) [539F0BD7]
Copy OK

Track 12

Filename C:\cuntfist\FLAC\VA - Dr. Dolittle, The Album (1998) [FLAC] {Atlantic}\12 - Lovin' You So.wav

Pre-gap length 0:00:00.01

Peak level 100.0 %
Track quality 100.0 %
Test CRC BAF8B10B
Copy CRC BAF8B10B
Accurately ripped (confidence 13) [5E07713D]
Copy OK

Track 13

Filename C:\cuntfist\FLAC\VA - Dr. Dolittle, The Album (1998) [FLAC] {Atlantic}\13 - Dance.wav

Pre-gap length 0:00:00.01

Peak level 100.0 %
Track quality 100.0 %
Test CRC 9FDCCDFE
Copy CRC 9FDCCDFE
Accurately ripped (confidence 13) [0886C2B9]
Copy OK

Track 14

Filename C:\cuntfist\FLAC\VA - Dr. Dolittle, The Album (1998) [FLAC] {Atlantic}\14 - Push 'Em Up.wav

Pre-gap length 0:00:00.63

Peak level 96.6 %
Track quality 100.0 %
Test CRC 76FA7483
Copy CRC 76FA7483
Accurately ripped (confidence 13) [FE4300B4]
Copy OK

Track 15

Filename C:\cuntfist\FLAC\VA - Dr. Dolittle, The Album (1998) [FLAC] {Atlantic}\15 - Ain't Nothin' But A Party.wav

Pre-gap length 0:00:00.65

Peak level 100.0 %
Track quality 100.0 %
Test CRC 63932C4E
Copy CRC 63932C4E
Accurately ripped (confidence 13) [048FC589]
Copy OK

All tracks accurately ripped

No errors occurred

End of status report


VA - Dr. Dolittle: The Album (1998) {Atlantic}


Thank you to the original uploader.