Tags
Language
Tags
February 2024
Su Mo Tu We Th Fr Sa
28 29 30 31 1 2 3
4 5 6 7 8 9 10
11 12 13 14 15 16 17
18 19 20 21 22 23 24
25 26 27 28 29 1 2
Attention❗ To save your time, in order to download anything on this site, you must be registered 👉 HERE. If you do not have a registration yet, it is better to do it right away. ✌

( • )( • ) ( ͡⚆ ͜ʖ ͡⚆ ) (‿ˠ‿)
SpicyMags.xyz

Damn Yankees - Don't Tread (1992) [Japan 1st Press]

Posted By: Andi_Deris
Damn Yankees - Don't Tread (1992) [Japan 1st Press]

Damn Yankees - Don't Tread (1992) [Japan 1st Press]
EAC Rip | FLAC: Image+Cue+Log | 416 Mb | MP3 CBR 320 kbps | 158 Mb | Scans | 53:04
Warner-Pioneer Corp. | WPCP-4958
Hard Rock, Arena Rock, Hair Metal

"Don't Tread" is the second and last studio album released by the American hard rock supergroup Damn Yankees. It features their second highest charting single, the power ballad "Where You Goin' Now" which peaked at number 20. The album itself reached number 22 in the Billboard 200 album chart.

Damn Yankees - Don't Tread (1992) [Japan 1st Press]




Damn Yankees - Don't Tread (1992) [Japan 1st Press]


Track Listing

01. Don't Tread On Me (5:08)
02. Fifteen Minutes Of Fame (4:50)
03. Where You Goin' Now (4:40)
04. Dirty Dog (4:53)
05. Mister Please (4:20)
06. Silence Is Broken (5:03)
07. Firefly (4:57)
08. Someone To Believe (4:57)
09. This Side Of Hell (4:01)
10. Double Coyote (4:43)
11. Uprising (5:32)

Produced by Ron Nevison

The Band

Tommy Shaw (Styx, Damn Yankees, Shaw Blades, MSFunk, The Smoke Ring) - guitars and vocals
Ted Nugent (The Amboy Dukes, Hear 'n Aid, Damn Yankees, Damnocracy) - guitars and vocals
Jack Blades (Rubicon, Night Ranger, Damn Yankees, Shaw/Blades, Tak Matsumoto Group (TMG), Ted Nugent) - bass guitar and vocals
Michael Cartellone (Lynyrd Skynyrd, Damn Yankees) - drums

*****
Robbie Buchanan - keyboards
Tower of Power - horn section
Paul Buckmaster - string arrangements

Exact Audio Copy V0.99 prebeta 5 from 4. May 2009

Отчёт EAC об извлечении, выполненном 10. мая 2011, 21:09

Damn Yankees / Don't Tread

Дисковод: ASUS SDRW-08D2S-U Adapter: 2 ID: 0

Режим чтения : Достоверность
Использование точного потока : Да
Отключение кэша аудио : Да
Использование указателей C2 : Нет

Коррекция смещения при чтении : 103
Способность читать области Lead-in и Lead-out : Нет
Заполнение пропущенных сэмплов тишиной : Да
Удаление блоков с тишиной в начале и конце : Нет
При вычислениях CRC использовались нулевые сэмплы : Да
Интерфейс : Встроенный Win32-интерфейс для Win NT/2000

Выходной формат : Пользовательский кодировщик
Выбранный битрейт : 768 kBit/s
Качество : Высокий
Добавление ID3-тэга : Нет
Утилита сжатия : C:\Program Files\Exact Audio Copy\FLAC\FLAC.EXE
Дополнительные параметры : -8 -V %s


TOC извлечённого CD

Трек | Старт | Длительность | Начальный сектор | Конечный сектор
––––––––––––––––––––––––––––––––––-
1 | 0:00.00 | 5:08.05 | 0 | 23104
2 | 5:08.05 | 4:50.65 | 23105 | 44919
3 | 9:58.70 | 4:40.17 | 44920 | 65936
4 | 14:39.12 | 4:53.63 | 65937 | 87974
5 | 19:33.00 | 4:20.02 | 87975 | 107476
6 | 23:53.02 | 5:03.10 | 107477 | 130211
7 | 28:56.12 | 4:57.20 | 130212 | 152506
8 | 33:53.32 | 4:57.13 | 152507 | 174794
9 | 38:50.45 | 4:01.00 | 174795 | 192869
10 | 42:51.45 | 4:43.62 | 192870 | 214156
11 | 47:35.32 | 5:32.13 | 214157 | 239069


Характеристики диапазона извлечения и сообщения об ошибках

Выбранный диапазон

Имя файла D:\uTorrent.compl\Damn Yankees - 'Damn Yankees' 1990 & 'Don't Tread' 1992 ( Original Japan 1st Press )\'Don't Tread' 1992 ( Warner WPCP-4958 )\Damn Yankees - Don't Tread.wav

Пиковый уровень 100.0 %
Качество диапазона 100.0 %
CRC теста 6B7009CF
CRC копии 6B7009CF
Копирование… OK

Ошибок не произошло


AccurateRip: сводка

Трек 1 точность не определена (достоверность 1) [9822B94E], AccurateRip вернул [C1C28211]
Трек 2 точность не определена (достоверность 1) [E62F4DB2], AccurateRip вернул [74871333]
Трек 3 точность не определена (достоверность 1) [2E707FA4], AccurateRip вернул [7F3DDCF0]
Трек 4 точность не определена (достоверность 1) [1ACD5E6C], AccurateRip вернул [8BA31870]
Трек 5 точность не определена (достоверность 1) [737F4690], AccurateRip вернул [281333B1]
Трек 6 точность не определена (достоверность 1) [B20A20E4], AccurateRip вернул [9E09FC89]
Трек 7 точность не определена (достоверность 1) [30ABADE4], AccurateRip вернул [55F4E55D]
Трек 8 точность не определена (достоверность 1) [A84F0695], AccurateRip вернул [CB3D479F]
Трек 9 точность не определена (достоверность 1) [95332F0C], AccurateRip вернул [A6B1F6D5]
Трек 10 точность не определена (достоверность 1) [70B40CDE], AccurateRip вернул [48A32937]
Трек 11 точность не определена (достоверность 1) [B5ACFE91], AccurateRip вернул [CB09E472]

Ни один трек не прошёл проверки на точность
В вашей базе может быть иной вариант штамповки диска

Конец отчёта


Many thanks to the original uploader: kurok79

SEE also:
Damn Yankees 1990 Damn Yankees [Japan 1st Press]

Ted Nugent 2014 Shutup&Jam!



Password: pass