Tags
Language
Tags

Daniel Lozakovich, Valery Gergiev, Münchner Philharmoniker - Beethoven: Violin Concerto (2020)

Posted By: ArlegZ
Daniel Lozakovich, Valery Gergiev, Münchner Philharmoniker - Beethoven: Violin Concerto (2020)

Daniel Lozakovich, Valery Gergiev, Münchner Philharmoniker - Beethoven: Violin Concerto (2020)
EAC | FLAC | Image (Cue & Log) ~ 225 Mb | Total time: 48:09 | Scans included
Classical | Label: Deutsche Grammophon | # 483 8946 | Recorded: 2019

Immensely gifted emerging artist" (New York Times) Daniel Lozakovich has been dreaming about recording the Beethoven Violin Concerto since he was eight. He first performed it on stage when he was thirteen, and at fifteen was invited by Valery Gergiev to perform the concerto with him in Moscow. A few short years later, he has reunited with his mentor Gergiev to record the Beethoven with the Mnchner Philharmoniker for Deutsche Grammophon.

Performer:
Daniel Lozakovich, violin
Münchner Philharmoniker
Valery Gergiev, conductor

Track List:
Ludwig van Beethoven
Concerto for Violin and Orchestra in D major, Op.61
1. I. Allegro ma non troppo
2. II. Larghetto
3. III. Rondo. Allegro
Johann Sebastian Bach
4. Sonata for Violin Solo No.1 in G minor, BWV 1001 - Adagio


Exact Audio Copy V1.5 from 20. February 2020

EAC extraction logfile from 30. April 2021, 23:50

Daniel Lozakovich, Münchner Philharmoniker, Valery Gergiev / Beethoven - Violin Concerto

Used drive : ASUS SDRW-08U7M-U Adapter: 1 ID: 0

Read mode : Secure
Utilize accurate stream : Yes
Defeat audio cache : Yes
Make use of C2 pointers : No

Read offset correction : 6
Overread into Lead-In and Lead-Out : No
Fill up missing offset samples with silence : Yes
Delete leading and trailing silent blocks : No
Null samples used in CRC calculations : Yes
Used interface : Native Win32 interface for Win NT & 2000

Used output format : User Defined Encoder
Selected bitrate : 128 kBit/s
Quality : High
Add ID3 tag : No
Command line compressor : C:\Program Files (x86)\Exact Audio Copy\Flac\flac.exe
Additional command line options : -V -8 -T "Date=%year%" -T "Genre=%genre%" %source%


TOC of the extracted CD

Track | Start | Length | Start sector | End sector
––––––––––––––––––––––––––––-
1 | 0:00.00 | 24:35.20 | 0 | 110644
2 | 24:35.20 | 9:06.36 | 110645 | 151630
3 | 33:41.56 | 9:59.39 | 151631 | 196594
4 | 43:41.20 | 4:28.07 | 196595 | 216701


Range status and errors

Selected range

Filename C:\temp\Beethoven - Violin Concerto - Lozakovich - 2020\Beethoven - Violin Concerto.wav

Peak level 93.9 %
Extraction speed 1.9 X
Range quality 99.9 %
Test CRC AB111B32
Copy CRC AB111B32
Copy OK

No errors occurred


AccurateRip summary

Track 1 accurately ripped (confidence 2) [145CD4A9] (AR v2)
Track 2 accurately ripped (confidence 2) [3739063B] (AR v2)
Track 3 accurately ripped (confidence 2) [75743A45] (AR v2)
Track 4 accurately ripped (confidence 2) [4AC9D016] (AR v2)

All tracks accurately ripped

End of status report

==== Log checksum 8DAC6127D83E1FEAAA6AC5FF40AB9EB6F9DA0BA26669C7F8B32116D128F77DDB ====

Daniel Lozakovich, Valery Gergiev, Münchner Philharmoniker - Beethoven: Violin Concerto (2020)

Thanks to the original releaser