Tags
Language
Tags

Danny Gatton - Hot Rod Guitar - The Danny Gatton Anthology (1999)

Posted By: Rtax
Danny Gatton - Hot Rod Guitar - The Danny Gatton Anthology (1999)

Danny Gatton - Hot Rod Guitar - The Danny Gatton Anthology (1999)
EAC Rip | FLAC (tracks, log, scans) - 997 MB | MP3 CBR 320 kbps - 377 MB
2:27:21 | Jazz, Blues | Label: Rhino

Gatton was such a genre-jumper that he never found a commercial niche; instead, he was the guitarist's guitarist, fluent and fluid in various forms of rock, country, jazz, and blues. But he clearly had an innate fondness for country, especially bluegrass (perhaps that's what made him the fastest picker of his time). Among the country-oriented highlights here are the scintillating "Redneck Jazz," the rockabilly "Love My Baby" (with Robert Gordon singing), "Sun Medley" (with Delbert McClinton's Fogerty-esque barking), and "Linus and Lucy/Orange Blossom Medley," in which "Steel Guitar Rag" flashes by in a blur. But his country flair also manifests itself in more subtle ways (fingerpicking the blues, for example). If you don't mind a crash course in other American music mixed in with your country–it's not like being forced to eat beets with your burger, after all–then Gatton's your man. –John Morthland

Tracklist
Disc: 1
1 Honeysuckle Rose
2 Harlem Nocturne
3 After Hours
4 Redneck Jazz
5 Sax Fifth Avenue
6 Canadian Sunset (Live)
7 Love My Baby (Live)
8 Lappin It Up
9 Notchco Blues
10 Funky Mama
11 Elmira St. Boogie
12 Blues Newburg
13 Quiet Village
14 Dolly's Ditty
15 One For Lenny

Disc: 2
1 Funhouse
2 So Good
3 Sun Medley (Mystery Train/My Baby Left Me/That's All Right)
4 Cruisin' Deuce
5 Broadway
6 Gearheads
7 Kindred Spirits
8 Poinciana
9 Red Label
10 Gold Rush
11 Busboy
12 Linus & Lucy/Orange Blossom Medley (Live)
Exact Audio Copy V1.6 from 23. October 2020

EAC Auslese-Logdatei vom 26. Januar 2021, 18:25

Danny Gatton / Hot Rod Guitar: The Danny Gatton Anthology (Disc 1)

Benutztes Laufwerk : TSSTcorpBDDVDW SE-506CB Adapter: 1 ID: 2

Lesemodus : Sicher
Benutze Accurate Stream : Ja
Audio Puffer abgeschaltet : Ja
Benutze C2 Fehlerinformationen : Nein

Leseoffset Korrektur : 0
Überlesen in das Lead-In und Lead-Out : Nein
Fülle fehlende Offsetsample mit Stille auf : Ja
Lösche führende und nachfolgende stille Blöcke : Nein
Null Samples gehen in CRC Berechnungen ein : Ja
Benutzte Schnittstelle : Natürliche Win32 Schnittstelle für Win NT/2000/XP
Pausenbehandlung : Nicht erkannt, daher hinter dem vorigen Track angehängt

Benutztes Ausgabeformat : Benutzerdefinierter Komprimierer
Gewählte Bitrate : 768 kBit/s
Qualität : Hoch
Füge ID3 Tag hinzu : Nein
Kommandozeilen Komprimierer : C:\Program Files (x86)\Exact Audio Copy\FLAC\FLAC.EXE
Zusätzliche Kommandozeilenoptionen : -6 -V -T "ARTIST=%artist%" -T "TITLE=%title%" -T "ALBUM=%albumtitle%" -T "DATE=%year%" -T "TRACKNUMBER=%tracknr%" -T "GENRE=%genre%" -T "COMMENT=%comment%" -T "BAND=%albuminterpret%" -T "ALBUMARTIST=%albuminterpret%" -T "COMPOSER=%composer%" %haslyrics%–tag-from-file=LYRICS="%lyricsfile%"%haslyrics% -T "DISCNUMBER=%cdnumber%" -T "TOTALDISCS=%totalcds%" -T "TOTALTRACKS=%numtracks%" %hascover%–picture="%coverfile%"%hascover% %source% -o %dest%


TOC der ausgelesenen CD

Track | Start | Länge | Startsektor | Endsektor
–––––––––––––––––––––––––––-
1 | 0:00.32 | 3:31.55 | 32 | 15911
2 | 3:32.12 | 4:04.35 | 15912 | 34246
3 | 7:36.47 | 5:34.15 | 34247 | 59311
4 | 13:10.62 | 2:59.50 | 59312 | 72786
5 | 16:10.37 | 4:09.15 | 72787 | 91476
6 | 20:19.52 | 11:46.53 | 91477 | 144479
7 | 32:06.30 | 3:33.37 | 144480 | 160491
8 | 35:39.67 | 3:23.15 | 160492 | 175731
9 | 39:03.07 | 7:39.33 | 175732 | 210189
10 | 46:42.40 | 5:43.00 | 210190 | 235914
11 | 52:25.40 | 4:07.42 | 235915 | 254481
12 | 56:33.07 | 4:12.18 | 254482 | 273399
13 | 60:45.25 | 4:54.10 | 273400 | 295459
14 | 65:39.35 | 3:50.57 | 295460 | 312766
15 | 69:30.17 | 7:56.23 | 312767 | 348489


Track 15

Dateiname C:\Users\user01\Desktop\Danny Gatton\Danny Gatton - Hot Rod Guitar- The Danny Gatton Anthology (Disc 1) - 15. One For Lenny.wav

Spitzenpegel 98.1 %
Auslesegeschwindigkeit 2.9 X
Track Qualität 100.0 %
Kopie CRC 0EE698D1
Kopie OK

Keine Fehler aufgetreten

Ende des Statusreports