Tags
Language
Tags

Dave Brubeck - Early Concepts [Recorded 1948-1952] (2003) (Repost)

Posted By: gribovar
Dave Brubeck - Early Concepts [Recorded 1948-1952] (2003) (Repost)

Dave Brubeck - Early Concepts [Recorded 1948-1952] (2003)
EAC Rip | FLAC (tracks+.cue+log) - 373 MB | MP3 CBR 320 kbps (LAME 3.93) - 350 MB | Covers - 36 MB
Genre: Jazz | RAR 3% Rec. | Label: Proper Records (PVCD132)

The title of this two-CD compilation of the earliest commercial Dave Brubeck recordings does in fact document some of the early concepts that Brubeck was employing as a young artist in search of his own voice. The well-annotated information included by producer Joop Visser, using much of Ted Gioia’s West Coast Jazz as a reference, follows the progress of Brubeck’s artistic development, as indicated by the chronological recordings. And the liner notes include some little-known information, such as the poor prognosis, and possible paralysis, for Brubeck after a swimming accident in 1951, leading indirectly to the addition of Paul Desmond (then named "Paul Breitenfeld") to the group - which remained intact, becoming one of the legendary quartets in jazzdom, until 1967.
An early champion of Brubeck’s was announcer Jimmy Lyons, who, using Brubeck’s octet to make a musical point, pedantically describes various jazz styles during variations of "How High the Moon" with overwrought language like this: "And then along came a bright new word in the musical patois to chase moppets into the arms of their parents who, all of them, run for the hills whenever anyone shouts, ‘Bop!’ But consider, pilgrim, in the glare of that which just went by, that which follows should not be too disconcerting. The premise remains the same." The performance at the San Francisco Marines Memorial Auditorium marked one of Brubeck’s early radio appearances. More importantly, Lyons recommended Brubeck’s octet to the owner of Coronet Records, who eventually sold the masters to the founders of the new Fantasy label, thereby leading to Brubeck’s rising awareness on the West Coast, plus recognition by New Yorkers like Duke Ellington and George Shearing. Eventually, Brubeck stripped down to a trio format after a paucity of work for the octet, which included soon-to-be-well-known names like Desmond, bassist Ron Crotty and then-drummer Cal Tjader. Crotty and Tjader remained with Brubeck’s trio but left when Brubeck formed the to-be-famous quartet alternating bassists Fred Dutton and Wyatt Ruther and drummers Herb Barman and Lloyd Davis.
One of the more interesting aspects of Early Concepts is the very noticeable development of Brubeck’s style as he moved on from early basic compositions like "Rondo" (only 90 seconds long) to uses of counterpoint and eventually to the use of moving block chords for chorus after chorus of improvisation. Unlike some of Brubeck’s later block chord usage, it seemed that some of his early experiments involved marking time in place as he repeated the same broad chords over slowly changing modulations, as on his ponderous playing on "Look for the Silver Lining," rather than creating internal movement within the chords or adding substitutions to increase complexity and interest. In addition, Early Concepts provides evidence of Brubeck’s early octet form, consisting of Dick Collins on trumpet, Bob Collins on trombone, Bill Smith on reeds, Bob Cummings and Paul Desmond on alto sax, Dave Van Kriedt on tenor sax, Ron Crotty on bass and Cal Tjader on drums. Actually, the octet was cooperatively managed, and Brubeck became nominal leader through the consensus of the other seven members.
Disk One contains mostly the octet’s tracks, relatively short and based mostly upon arrangements of standards like "Blue Moon" or "I’ll Remember April." Mixed in with those standards, though, are some of Brubeck’s and Van Kriedt’s experiments, such as the contrapuntal "Fugue on Bop Themes" and the only-thirty-seconds-long "Closing Theme." However, Disk Two marks Brubeck’s eventual emergence as a force unto himself, first with the trio (reminiscent at time of George Shearing’s when Tjader plays vibes) and then when Desmond joined him. Brubeck appears to be an artist making rapid technical and artistic advances throughout the two CD’s, and his improvement during the 1948-to-1952 period recorded is as evident as Miles Davis’ from rough-edged neophyte to accomplished improviser a couple years before that. Clues to Brubeck’s later explorations are there, including his fascination with themes from Disney movies ("Alice in Wonderland") and mixtures of intimations of stride with unexpectedly elongated stretching of notes ("I Didn’t Know What Time It Was").
Interestingly, though, Desmond appears to have arrived fully developed even from recordings this early. Desmond’s tone is as distinctive as ever, and his fertile imagination of ever-shifting ideas presages some of his inimitable work soon to follow.
Soon after the final 1952 recording session on Early Concepts, the Dave Brubeck Quartet began its rapid ascent to the height of its critical, popular and financial success, as its personnel changed to include Bob Bates, Gene Wright, Joe Dodge and Joe Morello. Early Concepts provides the recorded link between Dave Brubeck’s classical music studies at Mills College with Darius Milhaud and his rapid fame as one of the best-known names in jazz.
CD 1 Tracklist:
01. How High the Moon
02. Serenade's Suite
03. Playland-at-the-Beach
04. Prisoner's Song
05. Schizophrenic Scherzo
06. Rondo
07. I Hear a Rhapsody
08. You Go to My Head
09. Laura
10. Closing Theme
11. Love Walked In
12. Ipca
13. What Is This Thing Called Love?
14. The Way You Look Tonight
15. September in the Rain
16. Prelude
17. Fugue on Bop Themes
18. Let's Fall in Love
19. Blue Moon
20. Tea for Two
21. Indiana
22. Laura
23. You Stepped Out of a Dream
24. Lullaby in Rhythm
25. Singing in the Rain
26. I'll Remember April
27. Body and Soul

Total time: 01:14:53

CD 2 Tracklist:
01. Let's Fall in Love
02. 'S Wonderful
03. Sweet Georgia Brown
04. Undecided
05. September Song
06. Spring Is Here
07. That Old Black Magic
08. I Didn't Know What Time It Was
09. Too Marvelous for Words
10. Perfidia
11. Crazy Chris
12. A Foggy Day
13. Lyons Busy
14. Somebody Loves Me
15. At a Perfume Counter
16. Mam'selle
17. Me and My Shadow
18. Frenesi
19. Look for the Silver Lining
20. My Romance
21. Just One of Those Things
22. Lulu's Back in Town
23. All the Things You Are
24. Alice in Wonderland
25. Stardust

Total time: 01:13:26

Exact Audio Copy V0.99 prebeta 4 from 23. January 2008

EAC extraction logfile from 5. July 2008, 16:51

Dave Brubeck / Early Concepts Disc One

Used drive : SONY CD-RW CRX230EE Adapter: 4 ID: 1

Read mode : Secure
Utilize accurate stream : Yes
Defeat audio cache : Yes
Make use of C2 pointers : No

Read offset correction : 6
Overread into Lead-In and Lead-Out : No
Fill up missing offset samples with silence : Yes
Delete leading and trailing silent blocks : No
Null samples used in CRC calculations : Yes
Used interface : Installed external ASPI interface
Gap handling : Appended to previous track

Used output format : User Defined Encoder
Selected bitrate : 128 kBit/s
Quality : High
Add ID3 tag : No
Command line compressor : C:\Program Files\Exact Audio Copy\Flac\flac.exe
Additional command line options : -V -8 -T "artist=%a" -T "title=%t" -T "album=%g" -T "date=%y" -T "tracknumber=%n" -T "genre=%m" %s


TOC of the extracted CD

Track | Start | Length | Start sector | End sector
––––––––––––––––––––––––––––-
1 | 0:00.00 | 6:54.43 | 0 | 31092
2 | 6:54.43 | 4:36.05 | 31093 | 51797
3 | 11:30.48 | 1:31.64 | 51798 | 58686
4 | 13:02.37 | 1:07.34 | 58687 | 63745
5 | 14:09.71 | 2:17.25 | 63746 | 74045
6 | 16:27.21 | 1:33.33 | 74046 | 81053
7 | 18:00.54 | 2:18.04 | 81054 | 91407
8 | 20:18.58 | 3:03.26 | 91408 | 105158
9 | 23:22.09 | 2:11.65 | 105159 | 115048
10 | 25:33.74 | 0:35.13 | 115049 | 117686
11 | 26:09.12 | 2:39.35 | 117687 | 129646
12 | 28:48.47 | 2:43.25 | 129647 | 141896
13 | 31:31.72 | 2:43.68 | 141897 | 154189
14 | 34:15.65 | 3:02.69 | 154190 | 167908
15 | 37:18.59 | 2:53.69 | 167909 | 180952
16 | 40:12.53 | 2:16.63 | 180953 | 191215
17 | 42:29.41 | 2:45.55 | 191216 | 203645
18 | 45:15.21 | 2:25.22 | 203646 | 214542
19 | 47:40.43 | 2:59.01 | 214543 | 227968
20 | 50:39.44 | 2:49.00 | 227969 | 240643
21 | 53:28.44 | 2:36.04 | 240644 | 252347
22 | 56:04.48 | 2:44.57 | 252348 | 264704
23 | 58:49.30 | 2:56.08 | 264705 | 277912
24 | 61:45.38 | 3:32.31 | 277913 | 293843
25 | 65:17.69 | 2:37.56 | 293844 | 305674
26 | 67:55.50 | 3:24.15 | 305675 | 320989
27 | 71:19.65 | 3:45.60 | 320990 | 337924


Track 1

Filename C:\Uploading\4\Dave Brubeck - Early Concepts (2003) [FLAC]\Disc1\01 - HOW HIGH THE MOON.wav

Pre-gap length 0:00:02.00

Peak level 94.2 %
Track quality 100.0 %
Test CRC 65745A7E
Copy CRC 65745A7E
Track not present in AccurateRip database
Copy OK

Track 2

Filename C:\Uploading\4\Dave Brubeck - Early Concepts (2003) [FLAC]\Disc1\02 - SERENADE'S SUITE.wav

Pre-gap length 0:00:02.54

Peak level 94.3 %
Track quality 100.0 %
Test CRC DEBB3F82
Copy CRC DEBB3F82
Track not present in AccurateRip database
Copy OK

Track 3

Filename C:\Uploading\4\Dave Brubeck - Early Concepts (2003) [FLAC]\Disc1\03 - PLAYLAND-AT-THE-BEACH.wav

Pre-gap length 0:00:02.54

Peak level 74.9 %
Track quality 100.0 %
Test CRC E1AF97F7
Copy CRC E1AF97F7
Track not present in AccurateRip database
Copy OK

Track 4

Filename C:\Uploading\4\Dave Brubeck - Early Concepts (2003) [FLAC]\Disc1\04 - PRISONER'S SONG.wav

Pre-gap length 0:00:02.54

Peak level 74.9 %
Track quality 100.0 %
Test CRC E2EEECB9
Copy CRC E2EEECB9
Track not present in AccurateRip database
Copy OK

Track 5

Filename C:\Uploading\4\Dave Brubeck - Early Concepts (2003) [FLAC]\Disc1\05 - SCHIZOPHRENIC SCHERZO.wav

Pre-gap length 0:00:02.54

Peak level 84.0 %
Track quality 100.0 %
Test CRC FE3CD982
Copy CRC FE3CD982
Track not present in AccurateRip database
Copy OK

Track 6

Filename C:\Uploading\4\Dave Brubeck - Early Concepts (2003) [FLAC]\Disc1\06 - RONDO.wav

Pre-gap length 0:00:02.54

Peak level 94.2 %
Track quality 100.0 %
Test CRC F195FEC8
Copy CRC F195FEC8
Track not present in AccurateRip database
Copy OK

Track 7

Filename C:\Uploading\4\Dave Brubeck - Early Concepts (2003) [FLAC]\Disc1\07 - I HEAR A RHAPSODY.wav

Pre-gap length 0:00:02.54

Peak level 84.0 %
Track quality 100.0 %
Test CRC D4D779B0
Copy CRC D4D779B0
Track not present in AccurateRip database
Copy OK

Track 8

Filename C:\Uploading\4\Dave Brubeck - Early Concepts (2003) [FLAC]\Disc1\08 - YOU GO TO MY HEAD.wav

Pre-gap length 0:00:02.54

Peak level 94.3 %
Track quality 100.0 %
Test CRC 846E3597
Copy CRC 846E3597
Track not present in AccurateRip database
Copy OK

Track 9

Filename C:\Uploading\4\Dave Brubeck - Early Concepts (2003) [FLAC]\Disc1\09 - LAURA.wav

Pre-gap length 0:00:02.54

Peak level 94.3 %
Track quality 100.0 %
Test CRC 79CA162E
Copy CRC 79CA162E
Track not present in AccurateRip database
Copy OK

Track 10

Filename C:\Uploading\4\Dave Brubeck - Early Concepts (2003) [FLAC]\Disc1\10 - CLOSING THEME.wav

Pre-gap length 0:00:02.54

Peak level 94.3 %
Track quality 100.0 %
Test CRC ABE010CF
Copy CRC ABE010CF
Track not present in AccurateRip database
Copy OK

Track 11

Filename C:\Uploading\4\Dave Brubeck - Early Concepts (2003) [FLAC]\Disc1\11 - LOVE WALKED IN.wav

Pre-gap length 0:00:03.53

Peak level 94.3 %
Track quality 100.0 %
Test CRC FDC76728
Copy CRC FDC76728
Track not present in AccurateRip database
Copy OK

Track 12

Filename C:\Uploading\4\Dave Brubeck - Early Concepts (2003) [FLAC]\Disc1\12 - IPCA.wav

Pre-gap length 0:00:02.54

Peak level 94.2 %
Track quality 100.0 %
Test CRC 7AC09FAA
Copy CRC 7AC09FAA
Track not present in AccurateRip database
Copy OK

Track 13

Filename C:\Uploading\4\Dave Brubeck - Early Concepts (2003) [FLAC]\Disc1\13 - WHAT IS THIS THING CALLED LOVE .wav

Pre-gap length 0:00:02.54

Peak level 94.3 %
Track quality 100.0 %
Test CRC C8339C59
Copy CRC C8339C59
Track not present in AccurateRip database
Copy OK

Track 14

Filename C:\Uploading\4\Dave Brubeck - Early Concepts (2003) [FLAC]\Disc1\14 - THE WAY YOU LOOK TONIGHT.wav

Pre-gap length 0:00:02.54

Peak level 94.3 %
Track quality 100.0 %
Test CRC 14ED7075
Copy CRC 14ED7075
Track not present in AccurateRip database
Copy OK

Track 15

Filename C:\Uploading\4\Dave Brubeck - Early Concepts (2003) [FLAC]\Disc1\15 - SEPTEMBER IN THE RAIN.wav

Pre-gap length 0:00:02.54

Peak level 94.2 %
Track quality 100.0 %
Test CRC 72124A5C
Copy CRC 72124A5C
Track not present in AccurateRip database
Copy OK

Track 16

Filename C:\Uploading\4\Dave Brubeck - Early Concepts (2003) [FLAC]\Disc1\16 - PRELUDE.wav

Pre-gap length 0:00:02.54

Peak level 84.0 %
Track quality 100.0 %
Test CRC 090A3A19
Copy CRC 090A3A19
Track not present in AccurateRip database
Copy OK

Track 17

Filename C:\Uploading\4\Dave Brubeck - Early Concepts (2003) [FLAC]\Disc1\17 - FUGUE ON BOP THEMES.wav

Pre-gap length 0:00:02.54

Peak level 94.3 %
Track quality 100.0 %
Test CRC A50290CF
Copy CRC A50290CF
Track not present in AccurateRip database
Copy OK

Track 18

Filename C:\Uploading\4\Dave Brubeck - Early Concepts (2003) [FLAC]\Disc1\18 - LET'S FALL IN LOVE.wav

Pre-gap length 0:00:02.54

Peak level 94.3 %
Track quality 100.0 %
Test CRC 5DE165D1
Copy CRC 5DE165D1
Track not present in AccurateRip database
Copy OK

Track 19

Filename C:\Uploading\4\Dave Brubeck - Early Concepts (2003) [FLAC]\Disc1\19 - BLUE MOON.wav

Pre-gap length 0:00:02.54

Peak level 84.0 %
Track quality 100.0 %
Test CRC C16AEAE1
Copy CRC C16AEAE1
Track not present in AccurateRip database
Copy OK

Track 20

Filename C:\Uploading\4\Dave Brubeck - Early Concepts (2003) [FLAC]\Disc1\20 - TEA FOR TWO.wav

Pre-gap length 0:00:02.54

Peak level 94.3 %
Track quality 99.9 %
Test CRC EF9985A1
Copy CRC EF9985A1
Track not present in AccurateRip database
Copy OK

Track 21

Filename C:\Uploading\4\Dave Brubeck - Early Concepts (2003) [FLAC]\Disc1\21 - INDIANA.wav

Pre-gap length 0:00:02.54

Peak level 94.2 %
Track quality 99.9 %
Test CRC F8CA82A9
Copy CRC F8CA82A9
Track not present in AccurateRip database
Copy OK

Track 22

Filename C:\Uploading\4\Dave Brubeck - Early Concepts (2003) [FLAC]\Disc1\22 - LAURA (1950).wav

Pre-gap length 0:00:02.54

Peak level 84.0 %
Track quality 100.0 %
Test CRC BF0ED069
Copy CRC BF0ED069
Track not present in AccurateRip database
Copy OK

Track 23

Filename C:\Uploading\4\Dave Brubeck - Early Concepts (2003) [FLAC]\Disc1\23 - YOU STEPPED OUT OF A DREAM.wav

Pre-gap length 0:00:02.54

Peak level 94.2 %
Track quality 100.0 %
Test CRC 49ECFAFC
Copy CRC 49ECFAFC
Track not present in AccurateRip database
Copy OK

Track 24

Filename C:\Uploading\4\Dave Brubeck - Early Concepts (2003) [FLAC]\Disc1\24 - LULLABY IN RHYTHM.wav

Pre-gap length 0:00:02.54

Peak level 94.3 %
Track quality 100.0 %
Test CRC 82462E80
Copy CRC 82462E80
Track not present in AccurateRip database
Copy OK

Track 25

Filename C:\Uploading\4\Dave Brubeck - Early Concepts (2003) [FLAC]\Disc1\25 - SINGING IN THE RAIN.wav

Pre-gap length 0:00:02.54

Peak level 94.3 %
Track quality 99.9 %
Test CRC 0686AD07
Copy CRC 0686AD07
Track not present in AccurateRip database
Copy OK

Track 26

Filename C:\Uploading\4\Dave Brubeck - Early Concepts (2003) [FLAC]\Disc1\26 - I'LL REMEMBER APRIL.wav

Pre-gap length 0:00:02.54

Peak level 94.2 %
Track quality 99.9 %
Test CRC 8424FD1E
Copy CRC 8424FD1E
Track not present in AccurateRip database
Copy OK

Track 27

Filename C:\Uploading\4\Dave Brubeck - Early Concepts (2003) [FLAC]\Disc1\27 - BODY AND SOUL.wav

Pre-gap length 0:00:02.54

Peak level 94.2 %
Track quality 99.9 %
Test CRC E772E4D5
Copy CRC E772E4D5
Track not present in AccurateRip database
Copy OK


None of the tracks are present in the AccurateRip database

No errors occurred

End of status report

[CUETools log; Date: 02.07.2018 20:42:59; Version: 2.1.4]
[CTDB TOCID: x6j3QzNy7B2oZKZz4rGH83b7ibA-] found.
Track | CTDB Status
1 | (5/5) Accurately ripped
2 | (5/5) Accurately ripped
3 | (5/5) Accurately ripped
4 | (5/5) Accurately ripped
5 | (5/5) Accurately ripped
6 | (5/5) Accurately ripped
7 | (5/5) Accurately ripped
8 | (5/5) Accurately ripped
9 | (5/5) Accurately ripped
10 | (5/5) Accurately ripped
11 | (5/5) Accurately ripped
12 | (5/5) Accurately ripped
13 | (5/5) Accurately ripped
14 | (5/5) Accurately ripped
15 | (5/5) Accurately ripped
16 | (5/5) Accurately ripped
17 | (5/5) Accurately ripped
18 | (5/5) Accurately ripped
19 | (5/5) Accurately ripped
20 | (5/5) Accurately ripped
21 | (5/5) Accurately ripped
22 | (5/5) Accurately ripped
23 | (5/5) Accurately ripped
24 | (5/5) Accurately ripped
25 | (5/5) Accurately ripped
26 | (5/5) Accurately ripped
27 | (5/5) Accurately ripped
[AccurateRip ID: 0047a6bd-05515407-7411991b] found.
Track [ CRC | V2 ] Status
01 [ae4f677f|6debef3b] (0+3/5) Accurately ripped
02 [7fdcce1c|b9abc01f] (0+3/5) Accurately ripped
03 [667065a8|4ac16dfb] (0+3/5) Accurately ripped
04 [17d81c3b|0f9565e5] (0+3/5) Accurately ripped
05 [591da8e9|1530e093] (0+3/5) Accurately ripped
06 [60426b36|cb5e7178] (0+3/5) Accurately ripped
07 [4e6b891e|83241586] (0+3/5) Accurately ripped
08 [70dfa976|89e5d2dd] (0+3/5) Accurately ripped
09 [e37a6542|a7415e2a] (0+3/5) Accurately ripped
10 [6c2f4069|2763a88e] (0+3/5) Accurately ripped
11 [8e8f94fd|53d79d72] (0+3/5) Accurately ripped
12 [deded8f9|3b1e51ae] (0+3/5) Accurately ripped
13 [c9e9cc6d|12c7dab6] (0+3/5) Accurately ripped
14 [2b3f8ff6|1bf17457] (0+3/5) Accurately ripped
15 [f4149952|0d8b7959] (0+3/5) Accurately ripped
16 [dceddc93|cf6db1db] (0+3/5) Accurately ripped
17 [d2935b9f|6cdc99d9] (0+3/5) Accurately ripped
18 [78d7c49d|7c56b1c5] (0+3/5) Accurately ripped
19 [9057bb98|fb4cb51e] (0+3/5) Accurately ripped
20 [2b83f904|209e676a] (0+3/5) Accurately ripped
21 [3781e71b|f7b86883] (0+3/5) Accurately ripped
22 [bdd94aa4|e206732d] (0+3/5) Accurately ripped
23 [4fe2ae18|59ee1aaa] (0+3/5) Accurately ripped
24 [877bf20d|f5f27605] (0+2/4) Accurately ripped
25 [22bad454|91c672ed] (0+3/5) Accurately ripped
26 [fa9a39cb|4b4596e3] (0+3/5) Accurately ripped
27 [a85258b5|fb87cf95] (0+3/5) Accurately ripped
Offsetted by -664:
01 [068c48d7] (0/5) No match (V2 was not tested)
02 [9313d004] (0/5) No match (V2 was not tested)
03 [328eab30] (0/5) No match (V2 was not tested)
04 [cc5c438b] (0/5) No match (V2 was not tested)
05 [3c445669] (0/5) No match (V2 was not tested)
06 [89461ef6] (0/5) No match (V2 was not tested)
07 [d9449d16] (0/5) No match (V2 was not tested)
08 [21cb796e] (0/5) No match (V2 was not tested)
09 [1243fcd2] (0/5) No match (V2 was not tested)
10 [ed1f0271] (0/5) No match (V2 was not tested)
11 [0147d1ed] (0/5) No match (V2 was not tested)
12 [33980ee9] (0/5) No match (V2 was not tested)
13 [0afdc655] (0/5) No match (V2 was not tested)
14 [22818516] (0/5) No match (V2 was not tested)
15 [e7b599a2] (0/5) No match (V2 was not tested)
16 [054496b3] (0/5) No match (V2 was not tested)
17 [b6a4873f] (0/5) No match (V2 was not tested)
18 [4ec7a225] (0/5) No match (V2 was not tested)
19 [c02b54f8] (0/5) No match (V2 was not tested)
20 [a6e9aa6c] (0/5) No match (V2 was not tested)
21 [83e65e03] (0/5) No match (V2 was not tested)
22 [fb43c40c] (0/5) No match (V2 was not tested)
23 [76d99b10] (0/5) No match (V2 was not tested)
24 [c8ae7d4d] (0/4) No match (V2 was not tested)
25 [9263e664] (0/5) No match (V2 was not tested)
26 [0afaf3e3] (0/5) No match (V2 was not tested)
27 [e7a57c75] (0/5) No match (V2 was not tested)

Track Peak [ CRC32 ] [W/O NULL] [ LOG ]
– 94,3 [7B1E959C] [30831ABA]
01 94,2 [65745A7E] [5F4BF6A0] CRC32
02 94,3 [DEBB3F82] [7DC1255E] CRC32
03 74,9 [E1AF97F7] [FA5BA5AF] CRC32
04 74,9 [E2EEECB9] [7095EC98] CRC32
05 84,0 [FE3CD982] [40A76659] CRC32
06 94,2 [F195FEC8] [121C9C45] CRC32
07 84,0 [D4D779B0] [CBDB16B2] CRC32
08 94,3 [846E3597] [68509A9D] CRC32
09 94,3 [79CA162E] [C6ACE6DC] CRC32
10 94,3 [ABE010CF] [B2BE724D] CRC32
11 94,3 [FDC76728] [90B38B54] CRC32
12 94,2 [7AC09FAA] [13B8B9D3] CRC32
13 94,3 [C8339C59] [94797C59] CRC32
14 94,3 [14ED7075] [A1A3FCC9] CRC32
15 94,2 [72124A5C] [D4938613] CRC32
16 84,0 [090A3A19] [400AC443] CRC32
17 94,3 [A50290CF] [8E8A1BFE] CRC32
18 94,3 [5DE165D1] [6D129898] CRC32
19 84,0 [C16AEAE1] [DB998DCE] CRC32
20 94,3 [EF9985A1] [37A9B634] CRC32
21 94,2 [F8CA82A9] [72ADF529] CRC32
22 84,0 [BF0ED069] [709EA05D] CRC32
23 94,2 [49ECFAFC] [8D0BFA48] CRC32
24 94,3 [82462E80] [6B3E824E] CRC32
25 94,3 [0686AD07] [DF54778F] CRC32
26 94,2 [8424FD1E] [A0ABDF52] CRC32
27 94,2 [E772E4D5] [B1E7EBFF] CRC32

Exact Audio Copy V0.99 prebeta 4 from 23. January 2008

EAC extraction logfile from 5. July 2008, 18:07

Dave Brubeck / Early Concepts Disc Two

Used drive : SONY CD-RW CRX230EE Adapter: 4 ID: 1

Read mode : Secure
Utilize accurate stream : Yes
Defeat audio cache : Yes
Make use of C2 pointers : No

Read offset correction : 6
Overread into Lead-In and Lead-Out : No
Fill up missing offset samples with silence : Yes
Delete leading and trailing silent blocks : No
Null samples used in CRC calculations : Yes
Used interface : Installed external ASPI interface
Gap handling : Appended to previous track

Used output format : User Defined Encoder
Selected bitrate : 128 kBit/s
Quality : High
Add ID3 tag : No
Command line compressor : C:\Program Files\Exact Audio Copy\Flac\flac.exe
Additional command line options : -V -8 -T "artist=%a" -T "title=%t" -T "album=%g" -T "date=%y" -T "tracknumber=%n" -T "genre=%m" %s


TOC of the extracted CD

Track | Start | Length | Start sector | End sector
––––––––––––––––––––––––––––-
1 | 0:00.00 | 2:44.66 | 0 | 12365
2 | 2:44.66 | 2:42.64 | 12366 | 24579
3 | 5:27.55 | 2:45.07 | 24580 | 36961
4 | 8:12.62 | 2:30.64 | 36962 | 48275
5 | 10:43.51 | 3:28.70 | 48276 | 63945
6 | 14:12.46 | 2:30.23 | 63946 | 75218
7 | 16:42.69 | 2:39.65 | 75219 | 87208
8 | 19:22.59 | 2:35.56 | 87209 | 98889
9 | 21:58.40 | 3:11.66 | 98890 | 113280
10 | 25:10.31 | 2:20.01 | 113281 | 123781
11 | 27:30.32 | 3:23.54 | 123782 | 139060
12 | 30:54.11 | 3:10.43 | 139061 | 153353
13 | 34:04.54 | 3:15.30 | 153354 | 168008
14 | 37:20.09 | 3:21.53 | 168009 | 183136
15 | 40:41.62 | 2:55.12 | 183137 | 196273
16 | 43:36.74 | 2:53.00 | 196274 | 209248
17 | 46:29.74 | 2:29.55 | 209249 | 220478
18 | 48:59.54 | 2:36.73 | 220479 | 232251
19 | 51:36.52 | 3:44.48 | 232252 | 249099
20 | 55:21.25 | 2:37.40 | 249100 | 260914
21 | 57:58.65 | 3:15.38 | 260915 | 275577
22 | 61:14.28 | 2:23.12 | 275578 | 286314
23 | 63:37.40 | 3:21.19 | 286315 | 301408
24 | 66:58.59 | 3:36.25 | 301409 | 317633
25 | 70:35.09 | 3:04.23 | 317634 | 331456


Track 1

Filename C:\Uploading\4\Dave Brubeck - Early Concepts (2003) [FLAC]\Disc 2\01 - LET'S FALL IN LOVE.wav

Pre-gap length 0:00:02.00

Peak level 84.0 %
Track quality 100.0 %
Test CRC 989D8C0D
Copy CRC 989D8C0D
Track not present in AccurateRip database
Copy OK

Track 2

Filename C:\Uploading\4\Dave Brubeck - Early Concepts (2003) [FLAC]\Disc 2\02 - 'S WONDERFUL.wav

Pre-gap length 0:00:02.54

Peak level 94.2 %
Track quality 100.0 %
Test CRC BDB16DFE
Copy CRC BDB16DFE
Track not present in AccurateRip database
Copy OK

Track 3

Filename C:\Uploading\4\Dave Brubeck - Early Concepts (2003) [FLAC]\Disc 2\03 - SWEET GEORGIA BROWN.wav

Pre-gap length 0:00:02.54

Peak level 94.3 %
Track quality 100.0 %
Test CRC F047E06C
Copy CRC F047E06C
Track not present in AccurateRip database
Copy OK

Track 4

Filename C:\Uploading\4\Dave Brubeck - Early Concepts (2003) [FLAC]\Disc 2\04 - UNDECIDED.wav

Pre-gap length 0:00:02.54

Peak level 94.2 %
Track quality 100.0 %
Test CRC 8052CECB
Copy CRC 8052CECB
Track not present in AccurateRip database
Copy OK

Track 5

Filename C:\Uploading\4\Dave Brubeck - Early Concepts (2003) [FLAC]\Disc 2\05 - SEPTEMBER SONG.wav

Pre-gap length 0:00:02.54

Peak level 84.0 %
Track quality 100.0 %
Test CRC 0FA71BF4
Copy CRC 0FA71BF4
Track not present in AccurateRip database
Copy OK

Track 6

Filename C:\Uploading\4\Dave Brubeck - Early Concepts (2003) [FLAC]\Disc 2\06 - SPRING IS HERE.wav

Pre-gap length 0:00:02.54

Peak level 94.2 %
Track quality 100.0 %
Test CRC 328614CF
Copy CRC 328614CF
Track not present in AccurateRip database
Copy OK

Track 7

Filename C:\Uploading\4\Dave Brubeck - Early Concepts (2003) [FLAC]\Disc 2\07 - THAT OLD BLACK MAGIC.wav

Pre-gap length 0:00:02.54

Peak level 94.2 %
Track quality 100.0 %
Test CRC 25DE6019
Copy CRC 25DE6019
Track not present in AccurateRip database
Copy OK

Track 8

Filename C:\Uploading\4\Dave Brubeck - Early Concepts (2003) [FLAC]\Disc 2\08 - I DIDN'T KNOW WHAT TIME IT WAS.wav

Pre-gap length 0:00:02.54

Peak level 84.0 %
Track quality 99.9 %
Test CRC A213CB13
Copy CRC A213CB13
Track not present in AccurateRip database
Copy OK

Track 9

Filename C:\Uploading\4\Dave Brubeck - Early Concepts (2003) [FLAC]\Disc 2\09 - TOO MARVELOUS FOR WORDS.wav

Pre-gap length 0:00:02.54

Peak level 84.0 %
Track quality 100.0 %
Test CRC 7C9DE5D4
Copy CRC 7C9DE5D4
Track not present in AccurateRip database
Copy OK

Track 10

Filename C:\Uploading\4\Dave Brubeck - Early Concepts (2003) [FLAC]\Disc 2\10 - PERFIDIA.wav

Pre-gap length 0:00:02.54

Peak level 94.2 %
Track quality 100.0 %
Test CRC 04386F2C
Copy CRC 04386F2C
Track not present in AccurateRip database
Copy OK

Track 11

Filename C:\Uploading\4\Dave Brubeck - Early Concepts (2003) [FLAC]\Disc 2\11 - CRAZY CHRIS.wav

Pre-gap length 0:00:02.54

Peak level 84.0 %
Track quality 100.0 %
Test CRC C7C9D272
Copy CRC C7C9D272
Track not present in AccurateRip database
Copy OK

Track 12

Filename C:\Uploading\4\Dave Brubeck - Early Concepts (2003) [FLAC]\Disc 2\12 - A FOGGY DAY.wav

Pre-gap length 0:00:02.54

Peak level 84.0 %
Track quality 99.9 %
Test CRC 738D607C
Copy CRC 738D607C
Track not present in AccurateRip database
Copy OK

Track 13

Filename C:\Uploading\4\Dave Brubeck - Early Concepts (2003) [FLAC]\Disc 2\13 - LYONS BUSY.wav

Pre-gap length 0:00:02.54

Peak level 84.0 %
Track quality 100.0 %
Test CRC 0B417363
Copy CRC 0B417363
Track not present in AccurateRip database
Copy OK

Track 14

Filename C:\Uploading\4\Dave Brubeck - Early Concepts (2003) [FLAC]\Disc 2\14 - SOMEBODY LOVES ME.wav

Pre-gap length 0:00:02.54

Peak level 84.0 %
Track quality 100.0 %
Test CRC 46A193DA
Copy CRC 46A193DA
Track not present in AccurateRip database
Copy OK

Track 15

Filename C:\Uploading\4\Dave Brubeck - Early Concepts (2003) [FLAC]\Disc 2\15 - AT A PERFUME COUNTER.wav

Pre-gap length 0:00:02.54

Peak level 94.2 %
Track quality 100.0 %
Test CRC 794B6626
Copy CRC 794B6626
Track not present in AccurateRip database
Copy OK

Track 16

Filename C:\Uploading\4\Dave Brubeck - Early Concepts (2003) [FLAC]\Disc 2\16 - MAM'SELLE.wav

Pre-gap length 0:00:02.54

Peak level 90.4 %
Track quality 99.9 %
Test CRC AB39B2B8
Copy CRC AB39B2B8
Track not present in AccurateRip database
Copy OK

Track 17

Filename C:\Uploading\4\Dave Brubeck - Early Concepts (2003) [FLAC]\Disc 2\17 - ME AND MY SHADOW.wav

Pre-gap length 0:00:02.54

Peak level 94.2 %
Track quality 99.9 %
Test CRC 9A9DCF63
Copy CRC 9A9DCF63
Track not present in AccurateRip database
Copy OK

Track 18

Filename C:\Uploading\4\Dave Brubeck - Early Concepts (2003) [FLAC]\Disc 2\18 - FRENESI.wav

Pre-gap length 0:00:02.54

Peak level 94.3 %
Track quality 100.0 %
Test CRC 1A84E722
Copy CRC 1A84E722
Track not present in AccurateRip database
Copy OK

Track 19

Filename C:\Uploading\4\Dave Brubeck - Early Concepts (2003) [FLAC]\Disc 2\19 - LOOK FOR THE SILVER LINING.wav

Pre-gap length 0:00:02.54

Peak level 84.0 %
Track quality 100.0 %
Test CRC B5811D78
Copy CRC B5811D78
Track not present in AccurateRip database
Copy OK

Track 20

Filename C:\Uploading\4\Dave Brubeck - Early Concepts (2003) [FLAC]\Disc 2\20 - MY ROMANCE.wav

Pre-gap length 0:00:02.54

Peak level 84.0 %
Track quality 100.0 %
Test CRC 722EB0D1
Copy CRC 722EB0D1
Track not present in AccurateRip database
Copy OK

Track 21

Filename C:\Uploading\4\Dave Brubeck - Early Concepts (2003) [FLAC]\Disc 2\21 - JUST ONE OF THOSE THINGS.wav

Pre-gap length 0:00:02.54

Peak level 84.0 %
Track quality 100.0 %
Test CRC 0B42554A
Copy CRC 0B42554A
Track not present in AccurateRip database
Copy OK

Track 22

Filename C:\Uploading\4\Dave Brubeck - Early Concepts (2003) [FLAC]\Disc 2\22 - LULU'S BACK IN TOWN.wav

Pre-gap length 0:00:02.54

Peak level 94.2 %
Track quality 100.0 %
Test CRC 1FE72FDE
Copy CRC 1FE72FDE
Track not present in AccurateRip database
Copy OK

Track 23

Filename C:\Uploading\4\Dave Brubeck - Early Concepts (2003) [FLAC]\Disc 2\23 - ALL THE THINGS YOU ARE.wav

Pre-gap length 0:00:02.54

Peak level 94.3 %
Track quality 99.9 %
Test CRC 87367C85
Copy CRC 87367C85
Track not present in AccurateRip database
Copy OK

Track 24

Filename C:\Uploading\4\Dave Brubeck - Early Concepts (2003) [FLAC]\Disc 2\24 - ALICE IN WONDERLAND.wav

Pre-gap length 0:00:02.54

Peak level 94.3 %
Track quality 100.0 %
Test CRC AECFC2B3
Copy CRC AECFC2B3
Track not present in AccurateRip database
Copy OK

Track 25

Filename C:\Uploading\4\Dave Brubeck - Early Concepts (2003) [FLAC]\Disc 2\25 - STARDUST.wav

Pre-gap length 0:00:02.54

Peak level 84.0 %
Track quality 99.9 %
Test CRC F0AA1AF0
Copy CRC F0AA1AF0
Track not present in AccurateRip database
Copy OK


None of the tracks are present in the AccurateRip database

No errors occurred

End of status report

[CUETools log; Date: 02.07.2018 20:43:29; Version: 2.1.4]
[CTDB TOCID: X1ekUZgr9EbWfjFR8NywqrXy3Q8-] found.
Track | CTDB Status
1 | (6/6) Accurately ripped
2 | (6/6) Accurately ripped
3 | (6/6) Accurately ripped
4 | (6/6) Accurately ripped
5 | (6/6) Accurately ripped
6 | (6/6) Accurately ripped
7 | (6/6) Accurately ripped
8 | (6/6) Accurately ripped
9 | (6/6) Accurately ripped
10 | (6/6) Accurately ripped
11 | (6/6) Accurately ripped
12 | (6/6) Accurately ripped
13 | (6/6) Accurately ripped
14 | (6/6) Accurately ripped
15 | (6/6) Accurately ripped
16 | (6/6) Accurately ripped
17 | (6/6) Accurately ripped
18 | (6/6) Accurately ripped
19 | (6/6) Accurately ripped
20 | (6/6) Accurately ripped
21 | (6/6) Accurately ripped
22 | (6/6) Accurately ripped
23 | (6/6) Accurately ripped
24 | (6/6) Accurately ripped
25 | (6/6) Accurately ripped
[AccurateRip ID: 0040385e-048b0f3e-57114319] found.
Track [ CRC | V2 ] Status
01 [23d1f1c3|bf849033] (0+4/4) Accurately ripped
02 [f2ee9c98|0cb64fba] (0+4/4) Accurately ripped
03 [d78e39da|bbd1330b] (0+4/4) Accurately ripped
04 [2af1e473|8be4ccc6] (0+4/4) Accurately ripped
05 [20ff69bc|8dba61a2] (0+4/4) Accurately ripped
06 [fd32f99f|63b5cea7] (0+4/4) Accurately ripped
07 [a556ca3e|53a68e69] (0+4/4) Accurately ripped
08 [58ed007b|97ba38fd] (0+4/4) Accurately ripped
09 [b7b34e78|1c25788d] (0+4/4) Accurately ripped
10 [3dcf4181|09d2dea4] (0+4/4) Accurately ripped
11 [5852efca|954602c3] (0+4/4) Accurately ripped
12 [4130abd7|bab29134] (0+4/4) Accurately ripped
13 [728a647b|2aa8564f] (0+4/4) Accurately ripped
14 [59a1b8e8|d79bf5d2] (0+4/4) Accurately ripped
15 [8d9f33fe|01f50de9] (0+4/4) Accurately ripped
16 [28d1f473|fb8bb8b9] (0+4/4) Accurately ripped
17 [fef12e7e|05a0973e] (0+4/4) Accurately ripped
18 [f5585690|6b8092aa] (0+4/4) Accurately ripped
19 [e7888824|7169c3d9] (0+4/4) Accurately ripped
20 [7c7bb2c8|44db3493] (0+4/4) Accurately ripped
21 [eaf55401|4ae6776c] (0+4/4) Accurately ripped
22 [261af726|55571d87] (0+4/4) Accurately ripped
23 [3932f26b|0f7b44ba] (0+4/4) Accurately ripped
24 [16ffbc4b|61a788da] (0+4/4) Accurately ripped
25 [5abaae07|5751155b] (0+4/4) Accurately ripped

Track Peak [ CRC32 ] [W/O NULL] [ LOG ]
– 94,3 [BB5A7F02] [FDFBC980]
01 84,0 [989D8C0D] [250C9297] CRC32
02 94,2 [BDB16DFE] [41EF933A] CRC32
03 94,3 [F047E06C] [9EFD2503] CRC32
04 94,2 [8052CECB] [4F5CF579] CRC32
05 84,0 [0FA71BF4] [760F8076] CRC32
06 94,2 [328614CF] [25F933B8] CRC32
07 94,2 [25DE6019] [7E71C3C7] CRC32
08 84,0 [A213CB13] [A5BB3FE7] CRC32
09 84,0 [7C9DE5D4] [4E5DD8C1] CRC32
10 94,2 [04386F2C] [34D9CA40] CRC32
11 84,0 [C7C9D272] [7CD8E810] CRC32
12 84,0 [738D607C] [80C60180] CRC32
13 84,0 [0B417363] [67B531B8] CRC32
14 84,0 [46A193DA] [B8353F23] CRC32
15 94,2 [794B6626] [E56B496E] CRC32
16 90,4 [AB39B2B8] [F7887735] CRC32
17 94,2 [9A9DCF63] [B12805AC] CRC32
18 94,3 [1A84E722] [39742157] CRC32
19 84,0 [B5811D78] [AA648409] CRC32
20 84,0 [722EB0D1] [4B372879] CRC32
21 84,0 [0B42554A] [D63F7AEE] CRC32
22 94,2 [1FE72FDE] [C41344FB] CRC32
23 94,3 [87367C85] [CACABB95] CRC32
24 94,3 [AECFC2B3] [7794DC19] CRC32
25 84,0 [F0AA1AF0] [6F58D3F9] CRC32

Thanks to fibonacci

See also: