Tags
Language
Tags

Dave Brubeck - Live with the LSO (2001)

Posted By:
Dave Brubeck - Live with the LSO (2001)

Dave Brubeck - Live with the LSO (2001)
EAC Rip | FLAC (tracks+.cue+log) - 393 MB | Covers (16 MB) included
Genre: Jazz | RAR 3% Rec. | Label: LSO Live (LSO0011)

This is a rather unique release by Dave Brubeck because it features the veteran pianist/composer with four of his sons, saxophonist Bobby Militello, and bassist Alec Dankworth, along with the London Symphony Orchestra in a concert played not long after his 80th birthday in December 2000. Unlike many jazz meets symphony affairs, this is a truly integrated effort that succeeds very well. Brubeck arranged "Chorale" (a powerful classical work primarily featuring the strings); Darius Brubeck, who is also featured on piano, contributed the arrangements for both "Summer Music" and "Blue Rondo à la Turk," demonstrating considerable skill in his writing for strings, as well as an original dedicated to his father, the tense and occasionally rockish "Four Score in Seven." The pianists' late brother, Howard Brubeck, scored the ever-popular "In Your Own Sweet Way" (a feature for Matthew Brubeck's lyrical cello) and the moving "Brandenberg Gate Revisited." Chris Brubeck (heard on both bass trombone and fretless electric bass) arranged the snappy "A Salute to the Count," which briefly touches upon several pieces associated with Count Basie, and also the catchy "Unsquare Dance," a longtime favorite which he plays when leading his own groups. The inevitable "Take Five," arranged by conductor Russell Gloyd (Brubeck's longtime manager), leads off with Bobby Militello's exuberant alto sax before giving way to the patriarch of the Brubeck clan and wrapping with youngest son, Dan's climatic drum solo. All of the musicians are in top form; this memorable concert is well-worth acquiring.
Tracklist:
01. Summer Music
02. In Your Own Sweet Way
03. A Salute to the Count (The Basie Band Is Back in Town)
04. Chorale
05. Blue Rondo a la Turk
06. Four Score in Seven
07. Brandenburg Gate, Revisited
08. Take Five
09. Unsquare Dance

Total time: 01:14:21

Exact Audio Copy V1.3 from 2. September 2016

EAC extraction logfile from 28. February 2017, 19:30

Dave Brubeck / Live With the LSO

Used drive : TSSTcorpCDDVDW SE-208AB Adapter: 2 ID: 0

Read mode : Secure
Utilize accurate stream : Yes
Defeat audio cache : Yes
Make use of C2 pointers : No

Read offset correction : 6
Overread into Lead-In and Lead-Out : No
Fill up missing offset samples with silence : Yes
Delete leading and trailing silent blocks : No
Null samples used in CRC calculations : Yes
Used interface : Installed external ASPI interface
Gap handling : Appended to previous track

Used output format : User Defined Encoder
Selected bitrate : 768 kBit/s
Quality : High
Add ID3 tag : No
Command line compressor : C:\Program Files (x86)\Exact Audio Copy\Flac\flac.exe
Additional command line options : -8 -V -T "ARTIST=%artist%" -T "TITLE=%title%" -T "ALBUM=%albumtitle%" -T "DATE=%year%" -T "TRACKNUMBER=%tracknr%" -T "GENRE=%genre%" -T "COMMENT=%comment%" -T "BAND=%albuminterpret%" -T "ALBUMARTIST=%albuminterpret%" -T "COMPOSER=%composer%" %haslyrics%–tag-from-file=LYRICS="%lyricsfile%"%haslyrics% -T "DISCNUMBER=%cdnumber%" -T "TOTALDISCS=%totalcds%" -T "TOTALTRACKS=%numtracks%" %hascover%–picture="%coverfile%"%hascover% %source% -o %dest%


TOC of the extracted CD

Track | Start | Length | Start sector | End sector
––––––––––––––––––––––––––––-
1 | 0:00.00 | 6:35.43 | 0 | 29667
2 | 6:35.43 | 5:56.20 | 29668 | 56387
3 | 12:31.63 | 7:45.08 | 56388 | 91270
4 | 20:16.71 | 10:36.31 | 91271 | 139001
5 | 30:53.27 | 6:26.00 | 139002 | 167951
6 | 37:19.27 | 7:31.36 | 167952 | 201812
7 | 44:50.63 | 15:50.25 | 201813 | 273087
8 | 60:41.13 | 9:22.50 | 273088 | 315287
9 | 70:03.63 | 4:18.12 | 315288 | 334649


Track 1

Filename C:\Program Files (x86)\Exact Audio Copy\Flac\01. Summer Music.wav

Pre-gap length 0:00:02.00

Peak level 92.5 %
Extraction speed 3.0 X
Track quality 100.0 %
Test CRC 20EA3E8D
Copy CRC 20EA3E8D
Accurately ripped (confidence 4) [A530B5A0] (AR v2)
Copy OK

Track 2

Filename C:\Program Files (x86)\Exact Audio Copy\Flac\02. In Your Own Sweet Way.wav

Peak level 94.5 %
Extraction speed 3.2 X
Track quality 100.0 %
Test CRC EAD4481A
Copy CRC EAD4481A
Accurately ripped (confidence 4) [3BA6BE61] (AR v2)
Copy OK

Track 3

Filename C:\Program Files (x86)\Exact Audio Copy\Flac\03. A Salute to the Count.wav

Peak level 95.3 %
Extraction speed 3.4 X
Track quality 99.9 %
Test CRC 539B1E0C
Copy CRC 539B1E0C
Accurately ripped (confidence 4) [FD358656] (AR v2)
Copy OK

Track 4

Filename C:\Program Files (x86)\Exact Audio Copy\Flac\04. Chorale.wav

Peak level 42.3 %
Extraction speed 4.0 X
Track quality 99.9 %
Test CRC F7C6D70E
Copy CRC F7C6D70E
Accurately ripped (confidence 4) [C1000834] (AR v2)
Copy OK

Track 5

Filename C:\Program Files (x86)\Exact Audio Copy\Flac\05. Blue Rondo a la Turk.wav

Peak level 82.0 %
Extraction speed 4.6 X
Track quality 100.0 %
Test CRC 73C87082
Copy CRC 73C87082
Accurately ripped (confidence 3) [391B51F2] (AR v2)
Copy OK

Track 6

Filename C:\Program Files (x86)\Exact Audio Copy\Flac\06. Four Score in Seven.wav

Peak level 93.5 %
Extraction speed 4.9 X
Track quality 100.0 %
Test CRC 5A97000C
Copy CRC 5A97000C
Accurately ripped (confidence 3) [A9EB500D] (AR v2)
Copy OK

Track 7

Filename C:\Program Files (x86)\Exact Audio Copy\Flac\07. Brandenburg Gate Revisited.wav

Peak level 98.7 %
Extraction speed 5.5 X
Track quality 100.0 %
Test CRC F5248A54
Copy CRC F5248A54
Accurately ripped (confidence 3) [491D8CE9] (AR v2)
Copy OK

Track 8

Filename C:\Program Files (x86)\Exact Audio Copy\Flac\08. Take Five.wav

Peak level 97.8 %
Extraction speed 5.7 X
Track quality 100.0 %
Test CRC 23B8622E
Copy CRC 23B8622E
Accurately ripped (confidence 4) [6B846AD3] (AR v2)
Copy OK

Track 9

Filename C:\Program Files (x86)\Exact Audio Copy\Flac\09. Unsquare Dance.wav

Peak level 88.7 %
Extraction speed 5.6 X
Track quality 100.0 %
Test CRC 3FF1BF64
Copy CRC 3FF1BF64
Accurately ripped (confidence 4) [CD559B91] (AR v2)
Copy OK


All tracks accurately ripped

No errors occurred

End of status report

–– CUETools DB Plugin V2.1.6

[CTDB TOCID: WspXz0YZKdrnaWQGioGynooKVSg-] found
Submit result: WspXz0YZKdrnaWQGioGynooKVSg- has been confirmed
Track | CTDB Status
1 | (18/18) Accurately ripped
2 | (18/18) Accurately ripped
3 | (18/18) Accurately ripped
4 | (18/18) Accurately ripped
5 | (18/18) Accurately ripped
6 | (18/18) Accurately ripped
7 | (18/18) Accurately ripped
8 | (18/18) Accurately ripped
9 | (18/18) Accurately ripped


==== Log checksum B4343A67A62704B561A5447A8B7F2A2B39668ADCC3FC8D61341BFA685DB8DFB0 ====

[CUETools log; Date: 23.07.2018 13:13:39; Version: 2.1.4]
[CTDB TOCID: WspXz0YZKdrnaWQGioGynooKVSg-] found.
Track | CTDB Status
1 | (25/25) Accurately ripped
2 | (25/25) Accurately ripped
3 | (25/25) Accurately ripped
4 | (25/25) Accurately ripped
5 | (25/25) Accurately ripped
6 | (25/25) Accurately ripped
7 | (25/25) Accurately ripped
8 | (25/25) Accurately ripped
9 | (25/25) Accurately ripped
[AccurateRip ID: 00188da0-00b84ae2-7a116e09] found.
Track [ CRC | V2 ] Status
01 [21419b27|a530b5a0] (06+06/16) Accurately ripped
02 [5c5767b6|3ba6be61] (06+06/16) Accurately ripped
03 [7a3e6c76|fd358656] (06+06/16) Accurately ripped
04 [fd496242|c1000834] (06+06/16) Accurately ripped
05 [61671611|391b51f2] (06+05/15) Accurately ripped
06 [48ccc232|a9eb500d] (06+05/15) Accurately ripped
07 [7822e3fe|491d8ce9] (06+05/15) Accurately ripped
08 [27284545|6b846ad3] (06+06/16) Accurately ripped
09 [4c42a359|cd559b91] (05+06/15) Accurately ripped
Offsetted by -12:
01 [ba361aec] (00/16) No match (V2 was not tested)
02 [1d31d4cd] (00/16) No match (V2 was not tested)
03 [05012326] (00/16) No match (V2 was not tested)
04 [1e78fe8d] (00/16) No match (V2 was not tested)
05 [48056dc3] (00/15) No match (V2 was not tested)
06 [06932e1f] (00/15) No match (V2 was not tested)
07 [040eb51e] (00/15) No match (V2 was not tested)
08 [974da0fb] (00/16) No match (V2 was not tested)
09 [7ae1aa71] (00/15) No match (V2 was not tested)

Track Peak [ CRC32 ] [W/O NULL] [ LOG ]
– 98,7 [4C4CF46A] [D98F8299]
01 92,5 [20EA3E8D] [EEAE29C6] CRC32
02 94,5 [EAD4481A] [B9A62618] CRC32
03 95,3 [539B1E0C] [EEF9054B] CRC32
04 42,3 [F7C6D70E] [6B0C2DD2] CRC32
05 82,0 [73C87082] [1C25F8FD] CRC32
06 93,5 [5A97000C] [2519BCA7] CRC32
07 98,7 [F5248A54] [90B638C6] CRC32
08 97,8 [23B8622E] [947A25D2] CRC32
09 88,7 [3FF1BF64] [EFDDF171] CRC32


Thanks to Olivierito

See also: