Tags
Language
Tags

Dave Brubeck Quartet - Complete 1958 Berlin Concert (2008)

Posted By: gribovar
Dave Brubeck Quartet - Complete 1958 Berlin Concert (2008)

Dave Brubeck Quartet - Complete 1958 Berlin Concert (2008)
EAC Rip | FLAC (tracks+.cue+log) - 191 MB | MP3 CBR 320 kbps (LAME 3.93) - 188 MB | Covers (10 MB) included
Genre: Jazz | RAR 3% Rec. | Label: Rare Live Recordings (RLR 88636)

Drummer Joe Dodge left the Dave Brubeck quartet in 1956 to spend more time with his wife and children. He was replaced by Joe Morello. Bassist Norman Bates also left the group the following year for the comforts of home and family. Brubeck chose Eugene Wright to take his place on bass. With Morello and Wright in the fold, the "Classic Quartet" was born. Although Brubeck and Desmond played with several musicians over the years, this group of Brubeck, Desmond, Wright and Morello would become the most famous of Brubeck's bands. The US State Department hired them for this "goodwill" tour of Europe including dates in England, Scotland, Germany, Denmark,Belgium, Holland, Turkey, Pakistan, India, Afghanistan, Iran and Iraq. This long unavailable concert appears here in its entirety for the first time ever - including two previously unissued tracks 'The Duke' and 'One Moment Worth Years'.
Tracklist:
01. The Duke
02. Take the "A" Train
03. Two Part Contention
04. One Moment Worth Years
05. These Foolish Things
06. St. Louis Blues

Total time: 01:15:29

Exact Audio Copy V1.3 from 2. September 2016

EAC extraction logfile from 28. March 2017, 0:16

The Dave Brubeck Quartet / Complete 1958 Berlin Concert

Used drive : TSSTcorpCDDVDW SE-208AB Adapter: 2 ID: 0

Read mode : Secure
Utilize accurate stream : Yes
Defeat audio cache : Yes
Make use of C2 pointers : No

Read offset correction : 6
Overread into Lead-In and Lead-Out : No
Fill up missing offset samples with silence : Yes
Delete leading and trailing silent blocks : No
Null samples used in CRC calculations : Yes
Used interface : Installed external ASPI interface
Gap handling : Appended to previous track

Used output format : User Defined Encoder
Selected bitrate : 768 kBit/s
Quality : High
Add ID3 tag : No
Command line compressor : C:\Program Files (x86)\Exact Audio Copy\Flac\flac.exe
Additional command line options : -8 -V -T "ARTIST=%artist%" -T "TITLE=%title%" -T "ALBUM=%albumtitle%" -T "DATE=%year%" -T "TRACKNUMBER=%tracknr%" -T "GENRE=%genre%" -T "COMMENT=%comment%" -T "BAND=%albuminterpret%" -T "ALBUMARTIST=%albuminterpret%" -T "COMPOSER=%composer%" %haslyrics%–tag-from-file=LYRICS="%lyricsfile%"%haslyrics% -T "DISCNUMBER=%cdnumber%" -T "TOTALDISCS=%totalcds%" -T "TOTALTRACKS=%numtracks%" %hascover%–picture="%coverfile%"%hascover% %source% -o %dest%


TOC of the extracted CD

Track | Start | Length | Start sector | End sector
––––––––––––––––––––––––––––-
1 | 0:00.00 | 2:48.12 | 0 | 12611
2 | 2:48.12 | 19:21.25 | 12612 | 99711
3 | 22:09.37 | 16:26.30 | 99712 | 173691
4 | 38:35.67 | 10:22.17 | 173692 | 220358
5 | 48:58.09 | 12:48.10 | 220359 | 277968
6 | 61:46.19 | 13:44.01 | 277969 | 339769


Track 1

Filename C:\Program Files (x86)\Exact Audio Copy\Flac\01. The Duke.wav

Pre-gap length 0:00:02.00

Peak level 90.0 %
Extraction speed 1.1 X
Track quality 100.0 %
Test CRC 01FBB2B6
Copy CRC 01FBB2B6
Accurately ripped (confidence 5) [22CADD3E] (AR v2)
Copy OK

Track 2

Filename C:\Program Files (x86)\Exact Audio Copy\Flac\02. Take The ''A'' Train.wav

Peak level 98.5 %
Extraction speed 1.6 X
Track quality 99.9 %
Test CRC 1C8A8C64
Copy CRC 1C8A8C64
Accurately ripped (confidence 5) [BE55B17B] (AR v2)
Copy OK

Track 3

Filename C:\Program Files (x86)\Exact Audio Copy\Flac\03. Two Part Contention.wav

Peak level 100.0 %
Extraction speed 2.1 X
Track quality 100.0 %
Test CRC 54E9C98F
Copy CRC 54E9C98F
Accurately ripped (confidence 5) [908E04B5] (AR v2)
Copy OK

Track 4

Filename C:\Program Files (x86)\Exact Audio Copy\Flac\04. One Moment Worth Years.wav

Peak level 89.2 %
Extraction speed 2.3 X
Track quality 100.0 %
Test CRC 9958C72B
Copy CRC 9958C72B
Accurately ripped (confidence 5) [01AFFF10] (AR v2)
Copy OK

Track 5

Filename C:\Program Files (x86)\Exact Audio Copy\Flac\05. These Foolish Things.wav

Peak level 88.7 %
Extraction speed 2.5 X
Track quality 100.0 %
Test CRC FFFBE870
Copy CRC FFFBE870
Accurately ripped (confidence 5) [C71764F5] (AR v2)
Copy OK

Track 6

Filename C:\Program Files (x86)\Exact Audio Copy\Flac\06. St. Louis Blues.wav

Peak level 91.1 %
Extraction speed 2.6 X
Track quality 99.9 %
Test CRC 73F523CB
Copy CRC 73F523CB
Accurately ripped (confidence 5) [82BBEA00] (AR v2)
Copy OK


All tracks accurately ripped

No errors occurred

End of status report

–– CUETools DB Plugin V2.1.6

[CTDB TOCID: 9dMSaAYE2Rw9i9RW3dzyrYDBeoM-] found
Submit result: 9dMSaAYE2Rw9i9RW3dzyrYDBeoM- has been confirmed
Track | CTDB Status
1 | (2/2) Accurately ripped
2 | (2/2) Accurately ripped
3 | (2/2) Accurately ripped
4 | (2/2) Accurately ripped
5 | (2/2) Accurately ripped
6 | (2/2) Accurately ripped


==== Log checksum 5F518B31B9B71DB7D8E4FF054F4089E0E4C5E73676986502162A5D67B5520259 ====

[CUETools log; Date: 16.07.2018 22:20:07; Version: 2.1.4]
[CTDB TOCID: 9dMSaAYE2Rw9i9RW3dzyrYDBeoM-] found.
Track | CTDB Status
1 | (4/4) Accurately ripped
2 | (4/4) Accurately ripped
3 | (4/4) Accurately ripped
4 | (4/4) Accurately ripped
5 | (4/4) Accurately ripped
6 | (4/4) Accurately ripped
[AccurateRip ID: 00112712-005e1a58-4011b206] found.
Track [ CRC | V2 ] Status
01 [7385877d|22cadd3e] (0+5/5) Accurately ripped
02 [1032fea5|be55b17b] (0+5/5) Accurately ripped
03 [d78fa4f3|908e04b5] (0+5/5) Accurately ripped
04 [eecd9443|01afff10] (0+5/5) Accurately ripped
05 [72d94150|c71764f5] (0+5/5) Accurately ripped
06 [dfd3afc1|82bbea00] (0+5/5) Accurately ripped

Track Peak [ CRC32 ] [W/O NULL] [ LOG ]
– 100,0 [8DE72981] [54E733E3]
01 90,0 [01FBB2B6] [4C2C3922] CRC32
02 98,5 [1C8A8C64] [A919D439] CRC32
03 100,0 [54E9C98F] [0CDEADFD] CRC32
04 89,2 [9958C72B] [F9849574] CRC32
05 88,7 [FFFBE870] [FFB6D800] CRC32
06 91,1 [73F523CB] [138A07F8] CRC32

Thanks to Olivierito

See also: