Tags
Language
Tags

Dave Brubeck - The Very Best (2000)

Posted By: gribovar
Dave Brubeck - The Very Best (2000)

Dave Brubeck - The Very Best (2000)
EAC Rip | FLAC (tracks+.cue+log) - 439 MB | MP3 CBR 320 kbps (LAME 3.93) - 190 MB | Covers (16 MB) included
Genre: Jazz | RAR 3% Rec. | Label: Columbia/Sony Music (499694 2)

A generation ago Brubeck was largely dismissed as an unswinging pianist with a vulgar preoccupation with odd time-signatures. Now he is a senatorial figure whose work is celebrated as much as it used to be reviled. On this evidence the contemporary view is fair. Brubeck could be heavy-handed, and some of his 1960s work was undoubtedly pretentious; on the other hand, he had considerable harmonic imagination, constantly surprised with his delicate melodiousness, and could generate prodigious swing. Moreover, in Paul Desmond he enjoyed the services of a top-class alto saxophonist who was also a deeply sympathetic spirit. Here they are joined on all but one of the 15 tracks by Brubeck's finest rhythm section, bassist Eugene Wright and drummer Joe Morello, and the programme, in addition to memorialising old favourites, includes Brubeck's excellent compositions "The Duke", "Mr. Broadway" and "In Your Own Sweet Way" and offers intriguing readings of "Camptown Races" and "Trolley Song". Strongly recommended to anyone new to Brubeck, the CD will please his dedicated fans too.
Tracklist:
01. Unsquare Dance
02. Take Five
03. Bossa Nova U.S.A.
04. Mr. Broadway
05. Trolley Song
06. Blue Rondo a la Turk
07. Camptown Races
08. The Duke
09. Three to Get Ready
10. Somewhere
11. In Your Own Sweet Way
12. There'll Be Some Changes Made
13. Fujiyama
14. It's a Raggy Waltz (Live)
15. La Paloma Azul

Total time: 01:13:54

Exact Audio Copy V1.3 from 2. September 2016

EAC extraction logfile from 28. March 2017, 17:39

Dave Brubeck / The Very Best

Used drive : HL-DT-STDVD+-RW GU90N Adapter: 1 ID: 0

Read mode : Secure
Utilize accurate stream : Yes
Defeat audio cache : Yes
Make use of C2 pointers : No

Read offset correction : 102
Overread into Lead-In and Lead-Out : No
Fill up missing offset samples with silence : Yes
Delete leading and trailing silent blocks : No
Null samples used in CRC calculations : Yes
Used interface : Installed external ASPI interface
Gap handling : Appended to previous track

Used output format : User Defined Encoder
Selected bitrate : 768 kBit/s
Quality : High
Add ID3 tag : No
Command line compressor : C:\Program Files (x86)\Exact Audio Copy\Flac\flac.exe
Additional command line options : -8 -V -T "ARTIST=%artist%" -T "TITLE=%title%" -T "ALBUM=%albumtitle%" -T "DATE=%year%" -T "TRACKNUMBER=%tracknr%" -T "GENRE=%genre%" -T "COMMENT=%comment%" -T "BAND=%albuminterpret%" -T "ALBUMARTIST=%albuminterpret%" -T "COMPOSER=%composer%" %haslyrics%–tag-from-file=LYRICS="%lyricsfile%"%haslyrics% -T "DISCNUMBER=%cdnumber%" -T "TOTALDISCS=%totalcds%" -T "TOTALTRACKS=%numtracks%" %hascover%–picture="%coverfile%"%hascover% %source% -o %dest%


TOC of the extracted CD

Track | Start | Length | Start sector | End sector
––––––––––––––––––––––––––––-
1 | 0:00.00 | 2:00.52 | 0 | 9051
2 | 2:00.52 | 5:25.55 | 9052 | 33481
3 | 7:26.32 | 2:24.48 | 33482 | 44329
4 | 9:51.05 | 7:18.17 | 44330 | 77196
5 | 17:09.22 | 3:04.33 | 77197 | 91029
6 | 20:13.55 | 6:44.40 | 91030 | 121369
7 | 26:58.20 | 1:57.37 | 121370 | 130181
8 | 28:55.57 | 6:30.38 | 130182 | 159469
9 | 35:26.20 | 5:22.35 | 159470 | 183654
10 | 40:48.55 | 4:15.32 | 183655 | 202811
11 | 45:04.12 | 8:40.63 | 202812 | 241874
12 | 53:45.00 | 2:07.55 | 241875 | 251454
13 | 55:52.55 | 5:04.02 | 251455 | 274256
14 | 60:56.57 | 6:38.33 | 274257 | 304139
15 | 67:35.15 | 6:19.15 | 304140 | 332579


Track 1

Filename C:\Program Files (x86)\Exact Audio Copy\Flac\01. Unsquare Dance.wav

Pre-gap length 0:00:02.00

Peak level 97.7 %
Extraction speed 2.4 X
Track quality 100.0 %
Test CRC 4020DE60
Copy CRC 4020DE60
Accurately ripped (confidence 30) [AAAD6BB5] (AR v2)
Copy OK

Track 2

Filename C:\Program Files (x86)\Exact Audio Copy\Flac\02. Take Five.wav

Peak level 97.7 %
Extraction speed 3.2 X
Track quality 100.0 %
Test CRC C9F95DCA
Copy CRC C9F95DCA
Accurately ripped (confidence 30) [F42A66AA] (AR v2)
Copy OK

Track 3

Filename C:\Program Files (x86)\Exact Audio Copy\Flac\03. Bossa Nova U. S. A..wav

Peak level 97.7 %
Extraction speed 3.0 X
Track quality 100.0 %
Test CRC E04FDBB1
Copy CRC E04FDBB1
Accurately ripped (confidence 30) [33C628FD] (AR v2)
Copy OK

Track 4

Filename C:\Program Files (x86)\Exact Audio Copy\Flac\04. Mr. Broadway.wav

Peak level 97.7 %
Extraction speed 3.4 X
Track quality 99.9 %
Test CRC 5E05D9B9
Copy CRC 5E05D9B9
Accurately ripped (confidence 30) [402A6E60] (AR v2)
Copy OK

Track 5

Filename C:\Program Files (x86)\Exact Audio Copy\Flac\05. Trolley Song.wav

Peak level 97.7 %
Extraction speed 3.7 X
Track quality 100.0 %
Test CRC 3E7BCB0C
Copy CRC 3E7BCB0C
Accurately ripped (confidence 30) [EF7E2342] (AR v2)
Copy OK

Track 6

Filename C:\Program Files (x86)\Exact Audio Copy\Flac\06. Blue Rondo a la Turk.wav

Peak level 97.7 %
Extraction speed 4.4 X
Track quality 100.0 %
Test CRC 34E774FD
Copy CRC 34E774FD
Accurately ripped (confidence 30) [C8DF15D2] (AR v2)
Copy OK

Track 7

Filename C:\Program Files (x86)\Exact Audio Copy\Flac\07. Camptown Races.wav

Peak level 64.4 %
Extraction speed 2.6 X
Track quality 99.9 %
Test CRC CD902D17
Copy CRC CD902D17
Accurately ripped (confidence 30) [4D3422BA] (AR v2)
Copy OK

Track 8

Filename C:\Program Files (x86)\Exact Audio Copy\Flac\08. The Duke.wav

Peak level 97.7 %
Extraction speed 4.8 X
Track quality 100.0 %
Test CRC 5843B717
Copy CRC 5843B717
Accurately ripped (confidence 30) [8F034B2A] (AR v2)
Copy OK

Track 9

Filename C:\Program Files (x86)\Exact Audio Copy\Flac\09. Three to Get Ready.wav

Peak level 97.7 %
Extraction speed 4.7 X
Track quality 100.0 %
Test CRC 5897240A
Copy CRC 5897240A
Accurately ripped (confidence 29) [01AD5CDA] (AR v2)
Copy OK

Track 10

Filename C:\Program Files (x86)\Exact Audio Copy\Flac\10. Somewhere.wav

Peak level 97.7 %
Extraction speed 4.6 X
Track quality 100.0 %
Test CRC 6D807228
Copy CRC 6D807228
Accurately ripped (confidence 28) [7E3B3370] (AR v2)
Copy OK

Track 11

Filename C:\Program Files (x86)\Exact Audio Copy\Flac\11. In Your Own Sweet Way.wav

Peak level 97.7 %
Extraction speed 5.2 X
Track quality 100.0 %
Test CRC 0AA58F08
Copy CRC 0AA58F08
Accurately ripped (confidence 28) [F9254002] (AR v2)
Copy OK

Track 12

Filename C:\Program Files (x86)\Exact Audio Copy\Flac\12. There'll Be Some Changes Made.wav

Peak level 97.7 %
Extraction speed 4.4 X
Track quality 100.0 %
Test CRC B06A0335
Copy CRC B06A0335
Accurately ripped (confidence 29) [5F6CF7DA] (AR v2)
Copy OK

Track 13

Filename C:\Program Files (x86)\Exact Audio Copy\Flac\13. Fujiyama.wav

Peak level 97.7 %
Extraction speed 5.3 X
Track quality 100.0 %
Test CRC CD534EC4
Copy CRC CD534EC4
Accurately ripped (confidence 29) [FBB866D1] (AR v2)
Copy OK

Track 14

Filename C:\Program Files (x86)\Exact Audio Copy\Flac\14. It's a Raggy Waltz (live).wav

Peak level 97.7 %
Extraction speed 5.2 X
Track quality 100.0 %
Test CRC 363A22BA
Copy CRC 363A22BA
Accurately ripped (confidence 29) [8FE97C32] (AR v2)
Copy OK

Track 15

Filename C:\Program Files (x86)\Exact Audio Copy\Flac\15. La Paloma Azul.wav

Peak level 97.7 %
Extraction speed 3.0 X
Track quality 99.9 %
Test CRC F70A8220
Copy CRC F70A8220
Accurately ripped (confidence 29) [BFE9BC55] (AR v2)
Copy OK


All tracks accurately ripped

No errors occurred

End of status report

–– CUETools DB Plugin V2.1.6

[CTDB TOCID: OtEHZYrkqgB0duMOpNslB_oFwus-] found
Submit result: OtEHZYrkqgB0duMOpNslB_oFwus- has been confirmed
Track | CTDB Status
1 | (32/33) Accurately ripped
2 | (32/33) Accurately ripped, or (1/33) differs in 17 samples @00:17:18-00:17:19
3 | (33/33) Accurately ripped
4 | (33/33) Accurately ripped
5 | (33/33) Accurately ripped
6 | (33/33) Accurately ripped
7 | (33/33) Accurately ripped
8 | (32/33) Accurately ripped
9 | (32/33) Accurately ripped
10 | (32/33) Accurately ripped
11 | (32/33) Accurately ripped
12 | (33/33) Accurately ripped
13 | (33/33) Accurately ripped
14 | (32/33) Accurately ripped
15 | (31/33) Accurately ripped


==== Log checksum E4A65D9C2F7596C59CA02005B6708711A2EE7995180A219D04737A4FA56F028A ====

[CUETools log; Date: 03.03.2020 0:43:50; Version: 2.1.4]
[CTDB TOCID: OtEHZYrkqgB0duMOpNslB_oFwus-] found.
Track | CTDB Status
1 | (66/67) Accurately ripped
2 | (66/67) Accurately ripped
3 | (67/67) Accurately ripped
4 | (67/67) Accurately ripped
5 | (67/67) Accurately ripped
6 | (67/67) Accurately ripped
7 | (67/67) Accurately ripped
8 | (66/67) Accurately ripped
9 | (66/67) Accurately ripped
10 | (66/67) Accurately ripped
11 | (66/67) Accurately ripped
12 | (67/67) Accurately ripped
13 | (65/67) Accurately ripped
14 | (66/67) Accurately ripped
15 | (65/67) Accurately ripped
[AccurateRip ID: 00257d37-01b31f5b-bb11520f] found.
Track [ CRC | V2 ] Status
01 [4be943c4|aaad6bb5] (23+37/75) Accurately ripped
02 [96a926c2|f42a66aa] (23+37/75) Accurately ripped
03 [c085c8f5|33c628fd] (23+37/75) Accurately ripped
04 [c4d95837|402a6e60] (23+37/75) Accurately ripped
05 [e546ff1d|ef7e2342] (23+37/75) Accurately ripped
06 [fa171ec2|c8df15d2] (23+37/75) Accurately ripped
07 [6f896a5b|4d3422ba] (23+37/75) Accurately ripped
08 [8d3d8a31|8f034b2a] (23+37/75) Accurately ripped
09 [66ca58a3|01ad5cda] (23+36/74) Accurately ripped
10 [fc95e9c7|7e3b3370] (23+35/73) Accurately ripped
11 [aa774ad5|f9254002] (22+34/71) Accurately ripped
12 [1403f4f0|5f6cf7da] (22+36/73) Accurately ripped
13 [ead6870a|fbb866d1] (22+35/72) Accurately ripped
14 [ba153743|8fe97c32] (21+36/72) Accurately ripped
15 [fd9ef843|bfe9bc55] (21+36/72) Accurately ripped
Offsetted by -628:
01 [349cf5cc] (02/75) Accurately ripped
02 [b616d3c2] (02/75) Accurately ripped
03 [55785f35] (02/75) Accurately ripped
04 [0094e3f7] (02/75) Accurately ripped
05 [ace85cf5] (02/75) Accurately ripped
06 [723debfa] (02/75) Accurately ripped
07 [f1df983b] (02/75) Accurately ripped
08 [0be6d285] (02/75) Accurately ripped
09 [b4c18f57] (02/74) Accurately ripped
10 [193a4727] (02/73) Accurately ripped
11 [6a9b231d] (02/71) Accurately ripped
12 [fbef504c] (02/73) Accurately ripped
13 [ea3fe8da] (02/72) Accurately ripped
14 [2da6bed3] (02/72) Accurately ripped
15 [f09e919f] (02/72) Accurately ripped
Offsetted by -18:
01 [be32e638] (00/75) No match (V2 was not tested)
02 [bd109342] (00/75) No match (V2 was not tested)
03 [235d7395] (00/75) No match (V2 was not tested)
04 [0485da97] (00/75) No match (V2 was not tested)
05 [c3dd8ed9] (00/75) No match (V2 was not tested)
06 [6d3a796e] (00/75) No match (V2 was not tested)
07 [af9a8f8b] (00/75) No match (V2 was not tested)
08 [e74a8b73] (00/75) No match (V2 was not tested)
09 [e835b655] (00/74) No match (V2 was not tested)
10 [7af5efb7] (00/73) No match (V2 was not tested)
11 [c93f3fe9] (00/71) No match (V2 was not tested)
12 [7e20b726] (00/73) No match (V2 was not tested)
13 [9bbd0352] (00/72) No match (V2 was not tested)
14 [54392eeb] (00/72) No match (V2 was not tested)
15 [0495fd79] (00/72) No match (V2 was not tested)

Track Peak [ CRC32 ] [W/O NULL] [ LOG ]
– 97,7 [2214CCC8] [8A66B8CF]
01 97,7 [4020DE60] [E83B9674] CRC32
02 97,7 [C9F95DCA] [C5E7C37C] CRC32
03 97,7 [E04FDBB1] [AF20E789] CRC32
04 97,7 [5E05D9B9] [278CCD10] CRC32
05 97,7 [3E7BCB0C] [05CD3E6A] CRC32
06 97,7 [34E774FD] [92E4E975] CRC32
07 64,4 [CD902D17] [3579E77D] CRC32
08 97,7 [5843B717] [7B33E676] CRC32
09 97,7 [5897240A] [A40B3FF2] CRC32
10 97,7 [6D807228] [DA7CC631] CRC32
11 97,7 [0AA58F08] [854C330A] CRC32
12 97,7 [B06A0335] [5F75CAB5] CRC32
13 97,7 [CD534EC4] [06962F73] CRC32
14 97,7 [363A22BA] [1FED089F] CRC32
15 97,7 [F70A8220] [A1FAAFD9] CRC32

Thanks to Olivierito

See also:
Dave Brubeck Quartet - Jazz At... Pacific (1954) [Reissue 1997]
The Dave Brubeck Quartet - Jaz...And Cool (1955) [Reissue 2001]
Dave Brubeck Quartet - Brubeck Time (1955) [Reissue 2009]
Dave Brubeck - Brubeck Plays Brubeck (1956) [Reissue 2009]
The Dave Brubeck Quartet - Dave Digs Disney (1957) [Reissue 1994]
The Dave Brubeck Quartet - Gone With The Wind (1959) [Reissue 1990]
Dave Brubeck Quartet & Car...ht Only! (1960) [Reissue 2011]
Dave Brubeck Quartet - Near-Myth With Bill Smith (1961) [Reissue 1995]
Carmen McRae & Dave Brubeck - Take Five (1961) [Reissue 2009]
Dave Brubeck - The Real Ambassadors (1962) [Reissue 1994]
The Dave Brubeck Quartet - Jaz...of Japan (1964) [Reissue 2009]
Dave Brubeck - Jazz Impressions Of New York (1965) [Reissue 1990]
Dave Brubeck - We're All Together Again For The First Time (1973)
Dave Brubeck & Paul Desmon... Desmond (1982) [Reissue 1990]
The Dave Brubeck Quartet - Con...er Night (1982) [Reissue 2003]
Dave Brubeck Quartet Featuring Paul Desmond - Stardust (1983)
The Dave Brubeck Quartet - Reflections (1986)
The Dave Brubeck Quartet - Som...ll Come [Recorded 1965] (1993)
Dave Brubeck - Just You, Just Me (1994)
Dave Brubeck - Late Night Brubeck: Live from the Blue Note (1994)
Dave Brubeck - Young Lions & Old Tigers (1995)
Dave Brubeck - Live with the LSO (2001)
Dave Brubeck - Early Concepts [Recorded 1948-1952] (2003)
Dave Brubeck - For All Time (1959-1966) [5CD Box Set] (2004)
Dave Brubeck - Modern Jazz Archive [Recorded 1946-1982] (2004)
Dave Brubeck - Supreme Jazz [Recorded 1954-1956] (2006)
Dave Brubeck Quartet - Complete 1958 Berlin Concert (2008)
Dave Brubeck Quartet - The 1965 Canadian Concert (2008)