Subcategories

Dave Douglas - Five (1996) {Soul Note}

Posted By: tiburon
Dave Douglas - Five (1996) {Soul Note}

Dave Douglas - Five (1996) {Soul Note}
EAC 0.99pb3 | FLAC Image | Cue+Log | Full Scans 300dpi | 323MB + 5% Recovery
MP3 CBR 320 Kbps | 146MB + 5% Recovery
Genre: Avant-Garde Jazz
Dave Douglas - Five (1996) {Soul Note}

Trumpeter Dave Douglas' unusual string group (which also includes violinist Mark Feldman, cellist Erik Friedlander, bassist Drew Gross and drummer Michael Sarin) is reminiscent in some ways of Ornette Coleman's free-jazz quartet despite not playing any of Ornette's originals and having a very different instrumentation. All of the musicians function as equals, the interaction is often intuitive, and the improvising on eight Douglas originals (including tunes dedicated to Steve Lacy, Wayne Shorter, Mark Dresser, Woody Shaw, John Cage and John Zorn), Thelonious Monk's "Who Knows," and Rahsaan Roland Kirk's "The Inflated Tear" is on a high level. Well worth exploring.
Track List
01. Invasive Procedure 0:41
02. Mirrors (For Steve Lacy) 2:56
03. Going, Going (For Wayne Shorter) 5:40
04. Seven (For Mark Dresser) 8:54
05. Who Knows 4:35
06. The Inflated Tear 6:16
07. Actualities (For Woody Shaw) 13:31
08. Knit Brow 0:55
09. Over Farrell's (For John Cage) 8:04
10. Mogador (For John Zorn) 8:10

musicians
Dave Douglas - trumpet
Drew Gress - bass
Erik Friedlander - cello
Michael Sarin - drums
Mark Feldman - violin

Produced by Dave Douglas


Exact Audio Copy V0.99 prebeta 3 from 28. July 2007

Отчёт EAC об извлечении, выполненном 16. декабря 2008, 20:37

dave douglas / five

Дисковод: Optiarc DVD RW AD-7203A Adapter: 0 ID: 1

Режим чтения : Достоверность
Использование точного потока : Да
Отключение кэша аудио : Да
Использование указателей C2 : Нет

Коррекция смещения при чтении : 48
Способность читать области Lead-in и Lead-out : Нет
Заполнение пропущенных сэмплов тишиной : Да
Удаление блоков с тишиной в начале и конце : Нет
При вычислениях CRC использовались нулевые сэмплы : Да
Интерфейс : Установленный внешний ASPI-интерфейс

Выходной формат : Monkey's Audio Lossless Encoder v3.99 DLL
Формат сэмплов : Normal Lossless Compression


TOC извлечённого CD

Трек | Старт | Длительность | Начальный сектор | Конечный сектор
––––––––––––––––––––––––––––––––––-
1 | 0:00.33 | 0:41.55 | 33 | 3162
2 | 0:42.13 | 3:02.42 | 3163 | 16854
3 | 3:44.55 | 5:47.23 | 16855 | 42902
4 | 9:32.03 | 8:54.50 | 42903 | 83002
5 | 18:26.53 | 4:41.55 | 83003 | 104132
6 | 23:08.33 | 6:21.25 | 104133 | 132732
7 | 29:29.58 | 13:37.50 | 132733 | 194057
8 | 43:07.33 | 1:02.50 | 194058 | 198757
9 | 44:10.08 | 8:11.25 | 198758 | 235607
10 | 52:21.33 | 8:10.00 | 235608 | 272357


Характеристики диапазона извлечения и сообщения об ошибках

Выбранный диапазон

Имя файла C:\Documents and Settings\1\Рабочий стол\dave douglas - five.ape

Пиковый уровень 100.0 %
Качество диапазона 99.9 %
CRC теста D66BDCAC
CRC копии D66BDCAC
Копирование… OK

Ошибок не произошло


AccurateRip: сводка

Трек 1 точное извлечение (доверие 2) [E40BE44C]
Трек 2 точное извлечение (доверие 2) [475E13FC]
Трек 3 точное извлечение (доверие 2) [C889E8BA]
Трек 4 точное извлечение (доверие 2) [652EC6C9]
Трек 5 точное извлечение (доверие 2) [5D9F1CB1]
Трек 6 точное извлечение (доверие 2) [8059BEA4]
Трек 7 точное извлечение (доверие 2) [D6A7E2BB]
Трек 8 точное извлечение (доверие 2) [EE15B408]
Трек 9 точное извлечение (доверие 2) [919E4484]
Трек 10 точное извлечение (доверие 2) [3DED04B8]

Все треки извлечены точно

Конец отчёта


foobar2000 1.3.13 / Dynamic Range Meter 1.1.1
log date: 2020-01-18 17:50:56

––––––––––––––––––––––––––––––––––––––––
Analyzed: Dave Douglas / Five
––––––––––––––––––––––––––––––––––––––––

DR Peak RMS Duration Track
––––––––––––––––––––––––––––––––––––––––
DR12 0.00 dB -16.21 dB 0:42 01-Invasive Procedure
DR13 0.00 dB -16.16 dB 3:03 02-Mirrors
DR14 0.00 dB -19.43 dB 5:47 03-Going, Going
DR13 0.00 dB -17.06 dB 8:55 04-Seven
DR13 -0.51 dB -17.00 dB 4:42 05-Who Knows
DR14 -0.35 dB -20.40 dB 6:21 06-The Inflated Tear
DR13 -0.17 dB -17.00 dB 13:38 07-Actualities
DR16 -4.76 dB -27.15 dB 1:03 08-Knit Brow
DR15 -0.72 dB -21.03 dB 8:11 09-Over Farrell's
DR14 -1.22 dB -20.04 dB 8:10 10-Mogador
––––––––––––––––––––––––––––––––––––––––

Number of tracks: 10
Official DR value: DR14

Samplerate: 44100 Hz
Channels: 2
Bits per sample: 16
Bitrate: 730 kbps
Codec: FLAC
================================================================================

Dave Douglas - Five (1996) {Soul Note}
Dave Douglas - Five (1996) {Soul Note}


Thanks to the original ripper