Subcategories

David Lee Roth - Eat 'Em And Smile (1986)

Posted By: v3122
David Lee Roth - Eat 'Em And Smile (1986)

David Lee Roth - Eat 'Em And Smile (1986)
EAC | Flac(Image) + Cue + Log & MP3 CBR 320Kbps
Warner Bros., 7599-25470-2 | ~ 229 or 103 Mb | Scans Included
Hard Rock

Few would argue that David Lee Roth's first solo EP was a complete comedy send-up, albeit a very successful one that gained him enough favor with the MTV peanut gallery to solidify his potential as a solo artist. When threat became fact, however, Roth was smart enough to know that show tunes set to flashy videos weren't going to cut it and wisely proceeded to surround himself with musicians of impeccable pedigree. Thus armed, the "diamond" one set out to out-Van Halen Van Halen with his band's first effort, Eat 'Em and Smile, a more than adequate substitute for the overtly commercial tendencies of the "new and improved" original. Why mess with a winning recipe, indeed. Guitarist Steve Vai, bassist Billy Sheehan, and drummer Gregg Bissonette sound perfectly at home aping their boss' old cronies on such sizzling party anthems as "Shyboy" and "Elephant Gun." A fun-loving cover of "Tobacco Road" kicks off a very solid side two featuring the remarkably Fair Warning-esque "Big Trouble," and it doesn't get any better than first single, "Yankee Rose," where the squealing call and response between Roth and Vai reaches unparalleled comical heights. The glossy pump of "Goin' Crazy!" (originally conceived as the title track for Roth's botched movie project) hints at the pop excesses to come, and although two lounge pieces are knocked out for good measure, these are easily offset by the cool strut of "Ladies Nite in Buffalo?," arguably Roth's most legitimate piece of art ever.

by Eduardo Rivadavia, AMG
David Lee Roth - Eat 'Em And Smile (1986)


David Lee Roth - Eat 'Em And Smile (1986):

David Lee Roth - Eat 'Em And Smile (1986)

Tracklist:

1. Yankee Rose
2. Shyboy
3. I'm Easy
4. Ladies' Nite In Buffalo?
5. Goin' Crazy!
6. Tobacco Road
7. Elephant Gun
8. Big Trouble
9. Bump And Grind
10. That's Life

Exact Audio Copy V1.1 from 23. June 2015

EAC extraction logfile from 23. March 2016, 19:43

David Lee Roth / Eat 'Em And Smile

Used drive : TSSTcorpDVD-ROM SH-118CB Adapter: 1 ID: 0

Read mode : Secure
Utilize accurate stream : Yes
Defeat audio cache : Yes
Make use of C2 pointers : No

Read offset correction : 6
Overread into Lead-In and Lead-Out : No
Fill up missing offset samples with silence : Yes
Delete leading and trailing silent blocks : No
Null samples used in CRC calculations : Yes
Used interface : Native Win32 interface for Win NT & 2000

Used output format : User Defined Encoder
Selected bitrate : 1024 kBit/s
Quality : High
Add ID3 tag : No
Command line compressor : C:\Program Files (x86)\Exact Audio Copy\Flac\flac.exe
Additional command line options : -V -8 -T "Date=%year%" -T "Genre=%genre%" %source%


TOC of the extracted CD

Track | Start | Length | Start sector | End sector
––––––––––––––––––––––––––––-
1 | 0:00.00 | 3:55.32 | 0 | 17656
2 | 3:55.32 | 3:24.38 | 17657 | 32994
3 | 7:19.70 | 2:11.45 | 32995 | 42864
4 | 9:31.40 | 4:08.62 | 42865 | 61526
5 | 13:40.27 | 3:10.05 | 61527 | 75781
6 | 16:50.32 | 2:29.55 | 75782 | 87011
7 | 19:20.12 | 2:26.50 | 87012 | 98011
8 | 21:46.62 | 3:59.65 | 98012 | 116001
9 | 25:46.52 | 2:32.63 | 116002 | 127464
10 | 28:19.40 | 2:45.35 | 127465 | 139874


Range status and errors

Selected range

Filename E:\Torrent\David Lee Roth\1986 - Eat 'Em And Smile (Warner Bros., 7599-25470-2, Germany)\David Lee Roth - Eat 'Em And Smile.wav

Peak level 100.0 %
Extraction speed 2.5 X
Range quality 100.0 %
Test CRC 12E4C08A
Copy CRC 12E4C08A
Copy OK

No errors occurred


AccurateRip summary

Track 1 accurately ripped (confidence 41) [9DD0677D] (AR v2)
Track 2 accurately ripped (confidence 41) [C344C0F8] (AR v2)
Track 3 accurately ripped (confidence 41) [73D89348] (AR v2)
Track 4 accurately ripped (confidence 41) [BD60D1E9] (AR v2)
Track 5 accurately ripped (confidence 40) [5AC38353] (AR v2)
Track 6 accurately ripped (confidence 40) [CA7D690C] (AR v2)
Track 7 accurately ripped (confidence 41) [57156E9F] (AR v2)
Track 8 accurately ripped (confidence 41) [EE1F9869] (AR v2)
Track 9 accurately ripped (confidence 41) [91E5158E] (AR v2)
Track 10 accurately ripped (confidence 40) [C8874672] (AR v2)

All tracks accurately ripped

End of status report

–– CUETools DB Plugin V2.1.6

[CTDB TOCID: nUocBWx5LDRHVTarPFcf88Tosz8-] found
Submit result: nUocBWx5LDRHVTarPFcf88Tosz8- has been confirmed
Track | CTDB Status
1 | (116/120) Accurately ripped
2 | (118/120) Accurately ripped
3 | (119/120) Accurately ripped
4 | (118/120) Accurately ripped
5 | (119/120) Accurately ripped
6 | (117/120) Accurately ripped
7 | (118/120) Accurately ripped
8 | (118/120) Accurately ripped
9 | (118/120) Accurately ripped
10 | (118/120) Accurately ripped


==== Log checksum 7E21028445EBF64FBD103B4E762EBD52EFB03464B79AE8D39D2D46D197E78C0B ====

foobar2000 1.2.9 / Dynamic Range Meter 1.1.1
log date: 2016-03-27 13:19:42

––––––––––––––––––––––––––––––––––––––––
Analyzed: David Lee Roth / Eat 'Em And Smile
––––––––––––––––––––––––––––––––––––––––

DR Peak RMS Duration Track
––––––––––––––––––––––––––––––––––––––––
DR14 -1.23 dB -17.84 dB 3:55 01-Yankee Rose
DR13 -3.01 dB -17.19 dB 3:25 02-Shyboy
DR14 -0.52 dB -17.87 dB 2:12 03-I'm Easy
DR16 0.00 dB -18.63 dB 4:09 04-Ladies' Nite In Buffalo?
DR13 -2.24 dB -16.98 dB 3:10 05-Goin' Crazy!
DR13 -0.66 dB -16.19 dB 2:30 06-Tobacco Road
DR13 -1.02 dB -15.65 dB 2:27 07-Elephant Gun
DR15 0.00 dB -16.17 dB 4:00 08-Big Trouble
DR14 0.00 dB -15.26 dB 2:33 09-Bump And Grind
DR13 -0.36 dB -15.38 dB 2:45 10-That's Life
––––––––––––––––––––––––––––––––––––––––

Number of tracks: 10
Official DR value: DR14

Samplerate: 44100 Hz
Channels: 2
Bits per sample: 16
Bitrate: 895 kbps
Codec: FLAC

[CUETools log; Date: 27.03.2016 13:15:29; Version: 2.1.4]
[CTDB TOCID: nUocBWx5LDRHVTarPFcf88Tosz8-] found.
Track | CTDB Status
1 | (117/121) Accurately ripped
2 | (119/121) Accurately ripped
3 | (120/121) Accurately ripped
4 | (119/121) Accurately ripped
5 | (120/121) Accurately ripped
6 | (118/121) Accurately ripped
7 | (119/121) Accurately ripped
8 | (119/121) Accurately ripped
9 | (119/121) Accurately ripped
10 | (119/121) Accurately ripped
[AccurateRip ID: 000c31d8-006069e0-6707490a] found.
Track [ CRC | V2 ] Status
01 [8ddde860|9dd0677d] (040+041/154) Accurately ripped
02 [73295dc8|c344c0f8] (040+041/154) Accurately ripped
03 [c006cfdf|73d89348] (043+041/157) Accurately ripped
04 [2d9aef56|bd60d1e9] (043+041/157) Accurately ripped
05 [567a28c3|5ac38353] (041+040/154) Accurately ripped
06 [8ef22b08|ca7d690c] (043+040/156) Accurately ripped
07 [54ee4d69|57156e9f] (043+041/157) Accurately ripped
08 [1e49553f|ee1f9869] (042+041/156) Accurately ripped
09 [34adcc58|91e5158e] (043+041/157) Accurately ripped
10 [54bc4cc1|c8874672] (042+040/153) Accurately ripped
Offsetted by -1709:
01 [eace931f] (008/154) Accurately ripped
02 [1dc25db4] (008/154) Accurately ripped
03 [a141b569] (008/157) Accurately ripped
04 [002c70ea] (008/157) Accurately ripped
05 [20844f1b] (008/154) Accurately ripped
06 [2315d6cc] (008/156) Accurately ripped
07 [afe6fe4e] (008/157) Accurately ripped
08 [54136912] (008/156) Accurately ripped
09 [17919e31] (008/157) Accurately ripped
10 [2c1d7044] (007/153) Accurately ripped
Offsetted by -1045:
01 [ee6e0117] (005/154) Accurately ripped
02 [cc0c3d14] (005/154) Accurately ripped
03 [7cd3f1b9] (005/157) Accurately ripped
04 [ef129d8a] (005/157) Accurately ripped
05 [303d41db] (005/154) Accurately ripped
06 [009389b0] (005/156) Accurately ripped
07 [86bc58b2] (005/157) Accurately ripped
08 [dfe83faa] (005/156) Accurately ripped
09 [ad1e89bd] (005/157) Accurately ripped
10 [a721d9da] (005/153) Accurately ripped
Offsetted by -901:
01 [6253a9e7] (002/154) Accurately ripped
02 [4e601d54] (002/154) Accurately ripped
03 [65818999] (002/157) Accurately ripped
04 [071f854a] (002/157) Accurately ripped
05 [36bbba5b] (002/154) Accurately ripped
06 [b85327c8] (002/156) Accurately ripped
07 [6b4c6d4a] (002/157) Accurately ripped
08 [5dd8b83a] (002/156) Accurately ripped
09 [838802c5] (002/157) Accurately ripped
10 [4d24a247] (002/153) Accurately ripped
Offsetted by -381:
01 [37cd6f0f] (015/154) Accurately ripped
02 [7a561c74] (015/154) Accurately ripped
03 [58662e09] (015/157) Accurately ripped
04 [ddf8ca2a] (015/157) Accurately ripped
05 [3ff6349b] (015/154) Accurately ripped
06 [de17f6d4] (015/156) Accurately ripped
07 [5d8af8d6] (015/157) Accurately ripped
08 [6bbd1642] (015/156) Accurately ripped
09 [42b22f89] (015/157) Accurately ripped
10 [19c6c475] (015/153) Accurately ripped

Track Peak [ CRC32 ] [W/O NULL] [ LOG ]
– 100,0 [12E4C08A] [A6DC89BA] CRC32
01 86,8 [4C19E50B] [22BF7092]
02 70,6 [736DAB0C] [39916DAD]
03 94,1 [B6A1068B] [A806BC9D]
04 100,0 [526B73D5] [16BF94C7]
05 77,2 [CC3E13AF] [C52A1A55]
06 92,6 [26A9BBBA] [B39CB237]
07 88,9 [65203579] [D7823F46]
08 100,0 [6C771FAF] [E588F72C]
09 100,0 [229A2232] [F8FF0B1C]
10 95,8 [BC5BBA32] [27B881B1]

David Lee Roth - Eat 'Em And Smile (1986)

All thanks go to Ginger Devil

Download David Lee Roth - Eat 'Em And Smile (1986):