Subcategories

David Oistrakh - David Oistrakh in Prague (1999)

Posted By: tirexiss
David Oistrakh - David Oistrakh in Prague (1999)

David Oistrakh - David Oistrakh in Prague (1999)
EAC | FLAC (image+.cue, log) | Covers Included | 06:44:43 | 1.93 gb
Genre: Classical | Label: Praga | Catalog: PR256007

David Oistrakh is considered the premiere violinist of mid-20th century Soviet Union. His recorded legacy includes nearly the entire standard violin repertory up to and including Prokofiev and Bartók. Oistrakh's violin studies began in 1913 with famed teacher Pyotr Stolyarsky. Later he officially joined Stolyarsky's class at the Odessa Conservatory, graduating in 1926 by playing Prokofiev's First Violin Concerto. Performances of the Glazunov concerto in Odessa and Kiev in 1927, and a 1928 debut in Leningrad (Tchaikovsky concerto), gave Oistrakh the confidence to move to Moscow. He made his premiere there in early 1929, but the event went largely unnoticed. In 1934, however, after several years of patiently refining his craft, Oistrakh was invited to join the Moscow Conservatory, eventually rising to the rank of full professor in 1939.

Meanwhile, Oistrakh was gaining success on the competition circuit, winning the 1930 All-Ukrainian contest, and the All-Soviet competition three years later. In 1935 he took second prize at the Wieniawski competition. In 1937 the Soviet government sent the now veteran violinist to Brussels to compete in the International Ysaÿe Competition, where he took home first prize.

With his victory in Brussels, Soviet composers began to take notice of their young compatriot, enabling Oistrakh to work closely with Myaskovsky and Khachaturian on their concertos in 1939 and 1940, respectively. In addition, his close friendship with Shostakovich led the composer to write two concertos for the instrument (the first of which Oistrakh played at his, and its, triumphant American premiere in 1955). During the 1940s Oistrakh's active performing schedule took him across the Soviet Union but his international career had to wait until the 1950s, when the political climate had cooled enough for Soviet artists to be welcomed in the capitals of the West.

The remaining decades of Oistrakh's life were devoted to maintaining the highest possible standards of excellence throughout an exhausting touring schedule (he returned to the U.S. six times in the 1960s), and he began a small but successful sideline career as an orchestral conductor. His death came suddenly in Amsterdam in 1974, during a cycle of Brahms concerts in which he both played and conducted. Oistrakh's unexpected death left a void in the Soviet musical world which was never really filled.

Throughout his career David Oistrakh was known for his honest, warm personality; he developed close friendships with many of the leading musicians of the day. His violin technique was virtually flawless, though he never allowed purely physical matters to dominate his musical performances. He always demanded of himself (and his students) that musical proficiency, intelligence, and emotion be in balance, regardless of the particular style. Oistrakh felt that a violinist's essence was communicated through clever and subtle use of the bow, and not through overly expressive use of vibrato. To this end he developed a remarkably relaxed, flexible right arm technique, capable of producing the most delicate expressive nuances, but equally capable of generating great volume and projection.

As a teacher, David Oistrakh maintained that a teacher should do no more than necessary to help guide the student toward his or her own solutions to technical and interpretive difficulties. He rarely played during lessons, fearing that he might distract the student from developing a more individual approach, and even encouraged his students to challenge his interpretations. Perhaps the best evidence of the Oistrakh's gift for teaching is that he felt that he gained as much from the teaching experience as his students did. ~ Blair Johnston

David Oistrakh - David Oistrakh in Prague (1999)

Track List:

CD1 Beethoven; Brahms
Ludiwg Van Beehotven
[1]-[4] Sonata for violin & piano No. 5 in F major ("Spring"), Op. 24
Johannes Brahms
[5]-[7] Sonata for violin & piano No. 1 in G major ("Regen"), Op. 78
[8]-[11] Sonata for violin & piano No. 3 in D minor, Op. 108

Performers:
David Oistrakh, Frida Bauer

Exact Audio Copy V1.0 beta 3 from 29. August 2011

EAC extraction logfile from 21. April 2014, 18:09

David Oistrakh / Oistrakh - Praga Edition Vol.1 - Beethoven, Brahms

Used drive : TSSTcorpCDDVDW SH-222BB Adapter: 2 ID: 1

Read mode : Secure
Utilize accurate stream : Yes
Defeat audio cache : Yes
Make use of C2 pointers : No

Read offset correction : 6
Overread into Lead-In and Lead-Out : No
Fill up missing offset samples with silence : Yes
Delete leading and trailing silent blocks : No
Null samples used in CRC calculations : Yes
Used interface : Native Win32 interface for Win NT & 2000

Used output format : User Defined Encoder
Selected bitrate : 896 kBit/s
Quality : High
Add ID3 tag : No
Command line compressor : C:\Program Files\Exact Audio Copy\FLAC\FLAC.EXE
Additional command line options : -8 -V -T "TITLE=%title%" -T "ARTIST=%artist%" -T "ALBUMARTIST=%albumartist%" -T "ALBUM=%albumtitle%" -T "DATE=%year%" -T "TRACKNUMBER=%tracknr%" -T "TRACKTOTAL=%numtracks%" -T "GENRE=%genre%" -T "COMMENT=%comment%" -T "PERFORMER=%albuminterpret%" -T "COMPOSER=%composer%" %source% -o %dest%


TOC of the extracted CD

Track | Start | Length | Start sector | End sector
––––––––––––––––––––––––––––-
1 | 0:00.00 | 9:28.22 | 0 | 42621
2 | 9:28.22 | 5:44.40 | 42622 | 68461
3 | 15:12.62 | 1:08.33 | 68462 | 73594
4 | 16:21.20 | 6:40.15 | 73595 | 103609
5 | 23:01.35 | 10:18.35 | 103610 | 149994
6 | 33:19.70 | 8:03.35 | 149995 | 186254
7 | 41:23.30 | 8:05.32 | 186255 | 222661
8 | 49:28.62 | 8:11.50 | 222662 | 259536
9 | 57:40.37 | 4:47.45 | 259537 | 281106
10 | 62:28.07 | 3:00.13 | 281107 | 294619
11 | 65:28.20 | 6:21.57 | 294620 | 323251


Range status and errors

Selected range

Filename E:\3000\[3948] Oistrakh – Praga Edition Vol.1 – Beethoven, Brahms\Oistrakh - Praga Edition Vol.1 - Beethoven, Brahms.wav

Peak level 94.9 %
Extraction speed 7.2 X
Range quality 99.9 %
Test CRC 3B981FA0
Copy CRC 3B981FA0
Copy OK

No errors occurred


AccurateRip summary

Track 1 accurately ripped (confidence 1) [72A8648E] (AR v2)
Track 2 accurately ripped (confidence 1) [5961FB1B] (AR v2)
Track 3 accurately ripped (confidence 1) [A52095DA] (AR v2)
Track 4 accurately ripped (confidence 1) [DE229FA7] (AR v2)
Track 5 accurately ripped (confidence 1) [D5E097AC] (AR v2)
Track 6 accurately ripped (confidence 1) [9DC06354] (AR v2)
Track 7 accurately ripped (confidence 1) [5C78D13D] (AR v2)
Track 8 accurately ripped (confidence 1) [01D9E513] (AR v2)
Track 9 accurately ripped (confidence 1) [2BF648A5] (AR v2)
Track 10 accurately ripped (confidence 1) [0EA155E0] (AR v2)
Track 11 accurately ripped (confidence 1) [CBCFB21E] (AR v2)

All tracks accurately ripped

End of status report

==== Log checksum 13B00707676189707791657845776C74E621B397FC0CC530FF809E75EB73E0A5 ====

CD2 Schubert; Mozart
Franz Schubert
[1]-[4] Sonata for violin & piano in A major ("Duo"), D. 574 (Op. posth. 162)
Wolfgang Amadeus Mozart
[5] Variations (12) on "La bergère Célimene," for violin & piano in G major, K. 359 (K. 374a)
Franz Schubert
[6]-[9] Piano Trio in B flat major, D. 898 (Op. 99)

Performers:
David Oistrakh, Lev Oborin, Sviatoslav Knushevitsky

Exact Audio Copy V1.0 beta 3 from 29. August 2011

EAC extraction logfile from 21. April 2014, 19:16

David Oistrakh / Oistrakh - Praga Edition Vol.2 - Schubert, Mozart

Used drive : TSSTcorpCDDVDW SH-222BB Adapter: 2 ID: 1

Read mode : Secure
Utilize accurate stream : Yes
Defeat audio cache : Yes
Make use of C2 pointers : No

Read offset correction : 6
Overread into Lead-In and Lead-Out : No
Fill up missing offset samples with silence : Yes
Delete leading and trailing silent blocks : No
Null samples used in CRC calculations : Yes
Used interface : Native Win32 interface for Win NT & 2000

Used output format : User Defined Encoder
Selected bitrate : 896 kBit/s
Quality : High
Add ID3 tag : No
Command line compressor : C:\Program Files\Exact Audio Copy\FLAC\FLAC.EXE
Additional command line options : -8 -V -T "TITLE=%title%" -T "ARTIST=%artist%" -T "ALBUMARTIST=%albumartist%" -T "ALBUM=%albumtitle%" -T "DATE=%year%" -T "TRACKNUMBER=%tracknr%" -T "TRACKTOTAL=%numtracks%" -T "GENRE=%genre%" -T "COMMENT=%comment%" -T "PERFORMER=%albuminterpret%" -T "COMPOSER=%composer%" %source% -o %dest%


TOC of the extracted CD

Track | Start | Length | Start sector | End sector
––––––––––––––––––––––––––––-
1 | 0:00.32 | 5:45.68 | 32 | 25974
2 | 5:46.25 | 4:14.15 | 25975 | 45039
3 | 10:00.40 | 4:00.10 | 45040 | 63049
4 | 14:00.50 | 3:54.57 | 63050 | 80656
5 | 17:55.32 | 13:35.35 | 80657 | 141816
6 | 31:30.67 | 10:44.23 | 141817 | 190139
7 | 42:15.15 | 9:23.45 | 190140 | 232409
8 | 51:38.60 | 6:32.17 | 232410 | 261826
9 | 58:11.02 | 8:26.63 | 261827 | 299839


Range status and errors

Selected range

Filename E:\3000\[3949] Oistrakh – Praga Edition Vol.2 – Schubert, Mozart\Oistrakh - Praga Edition Vol.2 - Schubert, Mozart.wav

Peak level 92.6 %
Extraction speed 2.3 X
Range quality 100.0 %
Test CRC AA541527
Copy CRC AA541527
Copy OK

No errors occurred


AccurateRip summary

Track 1 accurately ripped (confidence 1) [AC122675] (AR v2)
Track 2 accurately ripped (confidence 1) [B173F089] (AR v2)
Track 3 accurately ripped (confidence 1) [459005D3] (AR v2)
Track 4 accurately ripped (confidence 1) [575454F5] (AR v2)
Track 5 accurately ripped (confidence 1) [E88B6AE7] (AR v2)
Track 6 accurately ripped (confidence 1) [B46BE1F5] (AR v2)
Track 7 accurately ripped (confidence 1) [31021F51] (AR v2)
Track 8 accurately ripped (confidence 1) [1F2A691B] (AR v2)
Track 9 accurately ripped (confidence 1) [8C558F6F] (AR v2)

All tracks accurately ripped

End of status report

==== Log checksum 734CD2A801AA7F7A9856D884C265625D2BA7E1207F41D38E4C12125F86F4D9E3 ====

CD3 Dvořák; Grieg; Glazunov
Antonin Dvorák
[1]-[3] Violin Concerto in A minor, B. 96/B. 108 (Op. 53)
Edvard Grieg
[4]-[6] Sonata for violin & piano No. 2 in G major, Op. 13
Alexander Glazunov
[7]-[9] Violin Concerto in A minor, Op. 82

Performers:
David Oistrakh, Lev Oborin [4]-[6], Prague Radio Symphony Orchestra, Karel Ančerl [1]-[3], Kyrill Kondrashin [7]-[9]

Exact Audio Copy V1.0 beta 3 from 29. August 2011

EAC extraction logfile from 21. April 2014, 20:19

David Oistrakh / Oistrakh - Praga Edition Vol.3 - Dvorak, Grieg, Glazunov

Used drive : TSSTcorpCDDVDW SH-222BB Adapter: 2 ID: 1

Read mode : Secure
Utilize accurate stream : Yes
Defeat audio cache : Yes
Make use of C2 pointers : No

Read offset correction : 6
Overread into Lead-In and Lead-Out : No
Fill up missing offset samples with silence : Yes
Delete leading and trailing silent blocks : No
Null samples used in CRC calculations : Yes
Used interface : Native Win32 interface for Win NT & 2000

Used output format : User Defined Encoder
Selected bitrate : 896 kBit/s
Quality : High
Add ID3 tag : No
Command line compressor : C:\Program Files\Exact Audio Copy\FLAC\FLAC.EXE
Additional command line options : -8 -V -T "TITLE=%title%" -T "ARTIST=%artist%" -T "ALBUMARTIST=%albumartist%" -T "ALBUM=%albumtitle%" -T "DATE=%year%" -T "TRACKNUMBER=%tracknr%" -T "TRACKTOTAL=%numtracks%" -T "GENRE=%genre%" -T "COMMENT=%comment%" -T "PERFORMER=%albuminterpret%" -T "COMPOSER=%composer%" %source% -o %dest%


TOC of the extracted CD

Track | Start | Length | Start sector | End sector
––––––––––––––––––––––––––––-
1 | 0:00.00 | 9:40.00 | 0 | 43499
2 | 9:40.00 | 11:39.45 | 43500 | 95969
3 | 21:19.45 | 9:21.05 | 95970 | 138049
4 | 30:40.50 | 8:46.22 | 138050 | 177521
5 | 39:26.72 | 7:07.18 | 177522 | 209564
6 | 46:34.15 | 5:13.62 | 209565 | 233101
7 | 51:48.02 | 4:17.40 | 233102 | 252416
8 | 56:05.42 | 9:55.20 | 252417 | 297061
9 | 66:00.62 | 5:13.60 | 297062 | 320596


Range status and errors

Selected range

Filename E:\3000\[3950] Oistrakh – Praga Edition Vol.3 – Dvorak, Grieg, Glazunov\Oistrakh - Praga Edition Vol.3 - Dvorak, Grieg, Glazunov.wav

Peak level 100.0 %
Extraction speed 7.4 X
Range quality 100.0 %
Test CRC EFFE8D06
Copy CRC EFFE8D06
Copy OK

No errors occurred


AccurateRip summary

Track 1 accurately ripped (confidence 1) [5CB9F253] (AR v2)
Track 2 accurately ripped (confidence 1) [5BCF4C7D] (AR v2)
Track 3 accurately ripped (confidence 1) [1C90F6F8] (AR v2)
Track 4 accurately ripped (confidence 1) [0113E553] (AR v2)
Track 5 accurately ripped (confidence 1) [35D9A8B2] (AR v2)
Track 6 accurately ripped (confidence 1) [652B3331] (AR v2)
Track 7 accurately ripped (confidence 1) [F4CDB4C4] (AR v2)
Track 8 accurately ripped (confidence 1) [AD08513E] (AR v2)
Track 9 accurately ripped (confidence 1) [BE84EE5C] (AR v2)

All tracks accurately ripped

End of status report

==== Log checksum 1989711AEB6201DEA39FBFCC38EC95C78E79E52592330E2E6C9C44A5EF559B4E ====

CD4 Bartók; Ravel
Béla Bartók
[1]-[3] Sonata for violin & piano No. 1 in C sharp minor, Sz. 75, BB 84 (Op. 21) ]
[4] Hungarian Folk Tunes, for violin & piano (arranged by Joseph Szigeti and Bela Bartók from "For Children")
Maurice Ravel
[5]-[7] Sonata for violin & piano No. 2 in G major
[8] Tzigane

Performers:
David Oistrakh, Frida Bauer, Vladimir Yampolsky

Exact Audio Copy V1.0 beta 3 from 29. August 2011

EAC extraction logfile from 22. April 2014, 8:45

David Oistrakh / Oistrakh - Praga Edition Vol.4 - Bartok, Ravel

Used drive : TSSTcorpCDDVDW SH-222BB Adapter: 2 ID: 1

Read mode : Secure
Utilize accurate stream : Yes
Defeat audio cache : Yes
Make use of C2 pointers : No

Read offset correction : 6
Overread into Lead-In and Lead-Out : No
Fill up missing offset samples with silence : Yes
Delete leading and trailing silent blocks : No
Null samples used in CRC calculations : Yes
Used interface : Native Win32 interface for Win NT & 2000

Used output format : User Defined Encoder
Selected bitrate : 896 kBit/s
Quality : High
Add ID3 tag : No
Command line compressor : C:\Program Files\Exact Audio Copy\FLAC\FLAC.EXE
Additional command line options : -8 -V -T "TITLE=%title%" -T "ARTIST=%artist%" -T "ALBUMARTIST=%albumartist%" -T "ALBUM=%albumtitle%" -T "DATE=%year%" -T "TRACKNUMBER=%tracknr%" -T "TRACKTOTAL=%numtracks%" -T "GENRE=%genre%" -T "COMMENT=%comment%" -T "PERFORMER=%albuminterpret%" -T "COMPOSER=%composer%" %source% -o %dest%


TOC of the extracted CD

Track | Start | Length | Start sector | End sector
––––––––––––––––––––––––––––-
1 | 0:00.00 | 12:16.57 | 0 | 55256
2 | 12:16.57 | 10:16.00 | 55257 | 101456
3 | 22:32.57 | 10:00.10 | 101457 | 146466
4 | 32:32.67 | 4:00.35 | 146467 | 164501
5 | 36:33.27 | 1:42.40 | 164502 | 172191
6 | 38:15.67 | 1:27.00 | 172192 | 178716
7 | 39:42.67 | 8:19.40 | 178717 | 216181
8 | 48:02.32 | 5:08.08 | 216182 | 239289
9 | 53:10.40 | 3:52.20 | 239290 | 256709
10 | 57:02.60 | 9:10.42 | 256710 | 298001


Range status and errors

Selected range

Filename E:\3000\[3951] Oistrakh – Praga Edition Vol.4 – Bartok, Ravel\Oistrakh - Praga Edition Vol.4 - Bartok, Ravel.wav

Peak level 99.3 %
Extraction speed 7.0 X
Range quality 99.9 %
Test CRC D83C2EE3
Copy CRC D83C2EE3
Copy OK

No errors occurred


AccurateRip summary

Track 1 accurately ripped (confidence 2) [983FFBCB] (AR v2)
Track 2 accurately ripped (confidence 2) [3556CC70] (AR v2)
Track 3 accurately ripped (confidence 2) [410206B5] (AR v2)
Track 4 accurately ripped (confidence 2) [AE6171E6] (AR v2)
Track 5 accurately ripped (confidence 2) [B540C5A8] (AR v2)
Track 6 accurately ripped (confidence 1) [42F1543D] (AR v2)
Track 7 accurately ripped (confidence 1) [DCDEEA1A] (AR v2)
Track 8 accurately ripped (confidence 1) [1BC1CF7E] (AR v2)
Track 9 accurately ripped (confidence 1) [8A9B9B49] (AR v2)
Track 10 cannot be verified as accurate (confidence 1) [B9749D1B], AccurateRip returned [DE620A08] (AR v2)

9 track(s) accurately ripped
1 track(s) could not be verified as accurate

Some tracks could not be verified as accurate

End of status report

==== Log checksum ECBD2F914D701B3F4D2E0EAAE068CC41E4FF9EDE062FD7AFDE7427358E3C1C23 ====

CD5 Prokofiev
Sergey Prokofiev
[1]-[3] Violin Concerto No. 1 in D major, Op. 19
[4]-[8] Melodies (5) for violin & piano, Op. 35b
[9]-[12] Sonata for violin & piano No. 1 in F minor, Op. 80

Performers:
David Oistrakh, Frida Bauer, The Moscow Symhpony Orchestra, Yuri Temirkanov

Exact Audio Copy V1.0 beta 3 from 29. August 2011

EAC extraction logfile from 22. April 2014, 9:45

David Oistrakh / Oistrakh - Praga Edition Vol.5 - Prokofiev

Used drive : TSSTcorpCDDVDW SH-222BB Adapter: 2 ID: 1

Read mode : Secure
Utilize accurate stream : Yes
Defeat audio cache : Yes
Make use of C2 pointers : No

Read offset correction : 6
Overread into Lead-In and Lead-Out : No
Fill up missing offset samples with silence : Yes
Delete leading and trailing silent blocks : No
Null samples used in CRC calculations : Yes
Used interface : Native Win32 interface for Win NT & 2000

Used output format : User Defined Encoder
Selected bitrate : 896 kBit/s
Quality : High
Add ID3 tag : No
Command line compressor : C:\Program Files\Exact Audio Copy\FLAC\FLAC.EXE
Additional command line options : -8 -V -T "TITLE=%title%" -T "ARTIST=%artist%" -T "ALBUMARTIST=%albumartist%" -T "ALBUM=%albumtitle%" -T "DATE=%year%" -T "TRACKNUMBER=%tracknr%" -T "TRACKTOTAL=%numtracks%" -T "GENRE=%genre%" -T "COMMENT=%comment%" -T "PERFORMER=%albuminterpret%" -T "COMPOSER=%composer%" %source% -o %dest%


TOC of the extracted CD

Track | Start | Length | Start sector | End sector
––––––––––––––––––––––––––––-
1 | 0:00.32 | 8:41.00 | 32 | 39106
2 | 8:41.32 | 3:48.13 | 39107 | 56219
3 | 12:29.45 | 7:37.27 | 56220 | 90521
4 | 20:06.72 | 2:09.70 | 90522 | 100266
5 | 22:16.67 | 2:51.13 | 100267 | 113104
6 | 25:08.05 | 3:01.62 | 113105 | 126741
7 | 28:09.67 | 1:17.25 | 126742 | 132541
8 | 29:27.17 | 3:08.55 | 132542 | 146696
9 | 32:35.72 | 6:50.08 | 146697 | 177454
10 | 39:26.05 | 6:47.72 | 177455 | 208051
11 | 46:14.02 | 7:08.10 | 208052 | 240161
12 | 53:22.12 | 7:51.25 | 240162 | 275511


Range status and errors

Selected range

Filename E:\3000\[3952] Oistrakh – Praga Edition Vol.5 – Prokofiev\Oistrakh - Praga Edition Vol.5 - Prokofiev.wav

Peak level 100.0 %
Extraction speed 2.2 X
Range quality 100.0 %
Test CRC 0C8EF06B
Copy CRC 0C8EF06B
Copy OK

No errors occurred


AccurateRip summary

Track 1 accurately ripped (confidence 4) [3309DA25] (AR v2)
Track 2 accurately ripped (confidence 4) [1A70764B] (AR v2)
Track 3 accurately ripped (confidence 4) [E1EA34EF] (AR v2)
Track 4 accurately ripped (confidence 4) [12227E9C] (AR v2)
Track 5 accurately ripped (confidence 4) [76FE9961] (AR v2)
Track 6 accurately ripped (confidence 4) [EBA415A5] (AR v2)
Track 7 accurately ripped (confidence 4) [4007BF68] (AR v2)
Track 8 accurately ripped (confidence 4) [1839E7C7] (AR v2)
Track 9 accurately ripped (confidence 4) [B1D2BE8D] (AR v2)
Track 10 accurately ripped (confidence 4) [0AFE2D69] (AR v2)
Track 11 accurately ripped (confidence 4) [DC9E46A2] (AR v2)
Track 12 accurately ripped (confidence 4) [C67B2FCC] (AR v2)

All tracks accurately ripped

End of status report

==== Log checksum 83D5083B93E26454B3840CED5ADCCE3B5385143DFDB22DB7AC9DF8695352FE4C ====

CD6 Shostakovich; Khachaturian
Dmitry Shostakovich
[1]-[4] Violin Concerto No. 1 in A minor, Op. 77 (published as Op. 99)
Aram Khachaturian
[5]-[7] Violin Concerto in D minor (also arranged for violin & piano)

Performers:
David Oistrakh, Czech Philarmonic Orchestra, Evegeny Mravinsky [1]-[4], Prague Symphony Orchestra, Rafael Kubelik [5]-[7]

Exact Audio Copy V1.0 beta 3 from 29. August 2011

EAC extraction logfile from 22. April 2014, 12:12

David Oistrakh / David Oistrakh In Prague, Vol. 6

Used drive : TSSTcorpCDDVDW SH-222BB Adapter: 2 ID: 1

Read mode : Secure
Utilize accurate stream : Yes
Defeat audio cache : Yes
Make use of C2 pointers : No

Read offset correction : 6
Overread into Lead-In and Lead-Out : No
Fill up missing offset samples with silence : Yes
Delete leading and trailing silent blocks : No
Null samples used in CRC calculations : Yes
Used interface : Native Win32 interface for Win NT & 2000

Used output format : User Defined Encoder
Selected bitrate : 896 kBit/s
Quality : High
Add ID3 tag : No
Command line compressor : C:\Program Files\Exact Audio Copy\FLAC\FLAC.EXE
Additional command line options : -8 -V -T "TITLE=%title%" -T "ARTIST=%artist%" -T "ALBUMARTIST=%albumartist%" -T "ALBUM=%albumtitle%" -T "DATE=%year%" -T "TRACKNUMBER=%tracknr%" -T "TRACKTOTAL=%numtracks%" -T "GENRE=%genre%" -T "COMMENT=%comment%" -T "PERFORMER=%albuminterpret%" -T "COMPOSER=%composer%" %source% -o %dest%


TOC of the extracted CD

Track | Start | Length | Start sector | End sector
––––––––––––––––––––––––––––-
1 | 0:00.00 | 10:58.00 | 0 | 49349
2 | 10:58.00 | 6:15.10 | 49350 | 77484
3 | 17:13.10 | 17:29.30 | 77485 | 156189
4 | 34:42.40 | 12:55.05 | 156190 | 214319
5 | 47:37.45 | 11:18.40 | 214320 | 265209
6 | 58:56.10 | 8:37.65 | 265210 | 304049


Range status and errors

Selected range

Filename E:\3000\[3953] Oistrakh – Praga Edition Vol.6 – Shostakovich, Khachaturian\David Oistrakh In Prague, Vol. 6.wav

Peak level 92.7 %
Extraction speed 7.2 X
Range quality 100.0 %
Test CRC B4487465
Copy CRC B4487465
Copy OK

No errors occurred


AccurateRip summary

Track 1 accurately ripped (confidence 1) [1A77432C] (AR v2)
Track 2 accurately ripped (confidence 1) [769BD0CE] (AR v2)
Track 3 accurately ripped (confidence 1) [428F7455] (AR v2)
Track 4 accurately ripped (confidence 1) [12A74182] (AR v2)
Track 5 accurately ripped (confidence 1) [4772B631] (AR v2)
Track 6 accurately ripped (confidence 1) [A23428CD] (AR v2)

All tracks accurately ripped

End of status report

==== Log checksum C58A59E7725725409612CFAAA88BEB8CA94310ED27FCD939A92EC7F00D9AAFBD ====

Thanks to the Original ripper (unknown)!

Download: