Subcategories

David Oistrakh, Lev Oborin - Beethoven: Complete Violin Sonatas (2001) (Repost)

Posted By: tirexiss
David Oistrakh, Lev Oborin - Beethoven: Complete Violin Sonatas (2001) (Repost)

David Oistrakh, Lev Oborin - Beethoven: Complete Violin Sonatas (2001)
EAC | FLAC (image+.cue, log) | Covers Included | 03:49:16 | 1.1 Gb
Genre: Classical | Label: Philips | Catalog: 468 406-2

With the return of these stereo recordings by David Oistrakh and Lev Oborin (made in Paris in 1962), many collectors will find an automatic first choice. This new Philips set presents these accounts in fine digital transfers and has the benefit of having all 10 sonatas placed sequentially across four CDs. The performances are exceptionally fine, sometimes not as dramatic as Schneiderhan's (DG), it's true, but always intensely musical and natural. For example, compare Oistrakh's reading of the darkly urgent C minor work (Op. 30 No. 2) with Schneiderhan's and you'll find an altogether more comfortable ride, without the sometimes fussy dramatic overlay. That owes something to Oborin's greater restraint, an impression also bolstered by the aural perspective of the recordings in which the players are positioned considerably apart, with violin to the left and piano to the right. Okay, it's not really ideal, and some listeners will find this extreme balance annoying, but it's a small price to pay considering the caliber of these performances.

In the epic "Kreutzer" sonata Oistrakh plays majestically and thoughtfully, the slow movement being beautifully inflected without losing its tight rhythmic control. On balance Oistrakh probably comes closest to Grumiaux's style of playing, with its tonal purity and dignity, though the iron-fisted austerity of Schneiderhan's DG performances remains impressive. What you don't need in Beethoven, however, is the inflammatory but often clumsy rhetoric that Szeryng sometimes produced, and in this regard Oistrakh can't be faulted, for these are readings of the highest sophistication. Finally, there are also very special qualities in Oistrakh and Oborin's classically concise readings of the earlier sonatas, particularly the three Op. 12 works and the Op. 30 group. What you'll find here is a duo that devotes minute attentiveness to every passing detail, along the way conveying a powerful feeling of joyfulness and discovery. This is essential listening, and not just for violin devotees: this set belongs in everyone's collection! – Michael Jameson

David Oistrakh, Lev Oborin - Beethoven: Complete Violin Sonatas (2001) (Repost)

Track List:

CD 1:
Sonata No. 1 in D major, Op. 12 No. 1
01. I. Allegro con brio - 06.16
02. II. Tema con variazioni. Andante con moto - 07.24
03. III. Rondo. Allegro - 04.58
Sonata No. 2 in A major, Op. 12 No. 2
4. I. Allegro vivace - 06.52
5. II. Andante piu tosto allegretto - 06.00
6. III. Allegro piacevole - 04.59
Sonata No. 3 in E flat major, Op. 12 No. 3
07. I. Allegro con spirito - 05.52
08. II. Andante con molta espressione - 06.55
09. III. Rondo. Allegro molto - 04.10

CD 2:
Sonata No. 4 in A minor, Op. 23
01. I. Presto - 05.37
02. II. Andante scherzoso piu allegretto - 06.28
03. III. Allegro molto - 05.57
Sonata No. 5 in F major, Op. 24 'Spring'
04. I. Allegro - 10.13
05. II. Adagio molto espressivo - 06.04
06. III. Scherzo. Allegro molto - 01.18
07. IV. Rondo. Allegro ma non troppo - 06.58
Sonata No. 6 in A major, Op. 30 No. 1
08. I. Allegro - 06.11
09. II. Adagio - 07.37
10. III. Allegretto con variazioni - 08.13

CD 3:
Sonata No. 7 in C minor, Op. 30 No. 2
01. I. Allegro con brio - 07.57
02. II. Adagio cantabile - 11.15
03. III. Scherzo. Allegro - 03.22
04. IV. Finale: Allegro - 05.13
Sonata No. 8 in G major, Op. 30 No. 3
05. I. Allegro assai - 07.16
06. II. Tempo di minuetto, ma molto moderato e grazioso - 09.25
07. III. Allegro vivace - 03.25

CD 4:

Sonata No. 9 in A major, Op. 47 'Kreutzer'
01. I. Adagio sostenuto – Presto - 11.40
02. II. Andante con variazioni - 15.23
03. III. Presto - 06.58
Sonata No. 10 in G major, Op. 96
04. I. Allegro moderato - 10.35
05. II. Adagio espressivo
III. Scherzo. Allegro - 08.30
06. IV. Poco allegretto - 08.25

Performers:
David Oistrakh, violin
Lev Oborin, piano

Exact Audio Copy V0.99 prebeta 5 from 4. May 2009

EAC extraction logfile from 14. June 2011, 8:26

David Oistrakh, Lev Oborin / Beethoven: The Sonatas for Piano and Violin [Disc 1]

Used drive : _NEC DVD_RW ND-3570A Adapter: 3 ID: 1

Read mode : Secure
Utilize accurate stream : Yes
Defeat audio cache : Yes
Make use of C2 pointers : No

Read offset correction : 48
Overread into Lead-In and Lead-Out : No
Fill up missing offset samples with silence : Yes
Delete leading and trailing silent blocks : No
Null samples used in CRC calculations : Yes
Used interface : Installed external ASPI interface
Gap handling : Appended to previous track

Used output format : User Defined Encoder
Selected bitrate : 128 kBit/s
Quality : High
Add ID3 tag : No
Command line compressor : C:\Program Files\Exact Audio Copy\Flac\flac.exe
Additional command line options : -8 -V -T "ARTIST=%a" -T "TITLE=%t" -T "ALBUM=%g" -T "DATE=%y" -T "TRACKNUMBER=%n" -T "GENRE=%m" -T "COMMENT=EAC FLAC -8" %s


TOC of the extracted CD

Track | Start | Length | Start sector | End sector
––––––––––––––––––––––––––––-
1 | 0:00.32 | 6:18.03 | 32 | 28384
2 | 6:18.35 | 7:25.37 | 28385 | 61796
3 | 13:43.72 | 5:08.18 | 61797 | 84914
4 | 18:52.15 | 6:55.45 | 84915 | 116084
5 | 25:47.60 | 6:03.62 | 116085 | 143371
6 | 31:51.47 | 5:07.53 | 143372 | 166449
7 | 36:59.25 | 5:54.50 | 166450 | 193049
8 | 42:54.00 | 6:57.12 | 193050 | 224336
9 | 49:51.12 | 4:10.08 | 224337 | 243094


Track 1

Filename D:\Мои документы\Exact Audio Copy\Beethoven - Complete Violin Sonatas - Oistrakh, Oborin\01 - Violin Sonata no.1 in D major, op.12 no.1 - 1. Allegro con brio.wav

Pre-gap length 0:00:02.42

Peak level 85.6 %
Track quality 100.0 %
Test CRC DD9F78F3
Copy CRC DD9F78F3
Accurately ripped (confidence 24) [1B583EC4]
Copy OK

Track 2

Filename D:\Мои документы\Exact Audio Copy\Beethoven - Complete Violin Sonatas - Oistrakh, Oborin\02 - Violin Sonata no.1 in D major, op.12 no.1 - 2. Tema con variazioni. Andante con moto.wav

Pre-gap length 0:00:02.02

Peak level 79.3 %
Track quality 100.0 %
Test CRC 9CDEBC99
Copy CRC 9CDEBC99
Accurately ripped (confidence 23) [2A35EC47]
Copy OK

Track 3

Filename D:\Мои документы\Exact Audio Copy\Beethoven - Complete Violin Sonatas - Oistrakh, Oborin\03 - Violin Sonata no.1 in D major, op.12 no.1 - 3. Rondo. Allegro.wav

Pre-gap length 0:00:01.78

Peak level 59.9 %
Track quality 100.0 %
Test CRC 82EAC70C
Copy CRC 82EAC70C
Accurately ripped (confidence 24) [35EAE7E7]
Copy OK

Track 4

Filename D:\Мои документы\Exact Audio Copy\Beethoven - Complete Violin Sonatas - Oistrakh, Oborin\04 - Violin Sonata no.2 in A major, op.12 no.2 - 1. Allegro vivace.wav

Pre-gap length 0:00:10.69

Peak level 69.0 %
Track quality 100.0 %
Test CRC D870902C
Copy CRC D870902C
Accurately ripped (confidence 24) [237BF58C]
Copy OK

Track 5

Filename D:\Мои документы\Exact Audio Copy\Beethoven - Complete Violin Sonatas - Oistrakh, Oborin\05 - Violin Sonata no.2 in A major, op.12 no.2 - 2. Andante piu tosto allegretto.wav

Pre-gap length 0:00:03.49

Peak level 41.5 %
Track quality 100.0 %
Test CRC 8AAD7FA5
Copy CRC 8AAD7FA5
Accurately ripped (confidence 24) [1392B024]
Copy OK

Track 6

Filename D:\Мои документы\Exact Audio Copy\Beethoven - Complete Violin Sonatas - Oistrakh, Oborin\06 - Violin Sonata no.2 in A major, op.12 no.2 - 3. Allegro piacevole.wav

Pre-gap length 0:00:03.34

Peak level 64.4 %
Track quality 100.0 %
Test CRC 28F6F429
Copy CRC 28F6F429
Accurately ripped (confidence 24) [ADFA6460]
Copy OK

Track 7

Filename D:\Мои документы\Exact Audio Copy\Beethoven - Complete Violin Sonatas - Oistrakh, Oborin\07 - Violin Sonata no.3 in E-flat major, op.12 no.3 - 1. Allegro con spirito.wav

Pre-gap length 0:00:08.76

Peak level 89.3 %
Track quality 99.9 %
Test CRC B7D332C2
Copy CRC B7D332C2
Accurately ripped (confidence 24) [EB70958B]
Copy OK

Track 8

Filename D:\Мои документы\Exact Audio Copy\Beethoven - Complete Violin Sonatas - Oistrakh, Oborin\08 - Violin Sonata no.3 in E-flat major, op.12 no.3 - 2. Adagio con molt'espressione.wav

Pre-gap length 0:00:03.09

Peak level 85.6 %
Track quality 100.0 %
Test CRC 849E72D8
Copy CRC 849E72D8
Accurately ripped (confidence 24) [ADAE6EF6]
Copy OK

Track 9

Filename D:\Мои документы\Exact Audio Copy\Beethoven - Complete Violin Sonatas - Oistrakh, Oborin\09 - Violin Sonata no.3 in E-flat major, op.12 no.3 - 3. Rondo. Allegro molto.wav

Pre-gap length 0:00:02.49

Peak level 80.4 %
Track quality 100.0 %
Test CRC F9C0BC05
Copy CRC F9C0BC05
Accurately ripped (confidence 23) [84F88A9C]
Copy OK


All tracks accurately ripped

No errors occurred

End of status report

Exact Audio Copy V0.99 prebeta 5 from 4. May 2009

EAC extraction logfile from 14. June 2011, 8:49

David Oistrakh, Lev Oborin / Beethoven: The Sonatas for Piano and Violin [Disc 2]

Used drive : _NEC DVD_RW ND-3570A Adapter: 3 ID: 1

Read mode : Secure
Utilize accurate stream : Yes
Defeat audio cache : Yes
Make use of C2 pointers : No

Read offset correction : 48
Overread into Lead-In and Lead-Out : No
Fill up missing offset samples with silence : Yes
Delete leading and trailing silent blocks : No
Null samples used in CRC calculations : Yes
Used interface : Installed external ASPI interface
Gap handling : Appended to previous track

Used output format : User Defined Encoder
Selected bitrate : 128 kBit/s
Quality : High
Add ID3 tag : No
Command line compressor : C:\Program Files\Exact Audio Copy\Flac\flac.exe
Additional command line options : -8 -V -T "ARTIST=%a" -T "TITLE=%t" -T "ALBUM=%g" -T "DATE=%y" -T "TRACKNUMBER=%n" -T "GENRE=%m" -T "COMMENT=EAC FLAC -8" %s


TOC of the extracted CD

Track | Start | Length | Start sector | End sector
––––––––––––––––––––––––––––-
1 | 0:00.33 | 5:40.30 | 33 | 25562
2 | 5:40.63 | 6:29.65 | 25563 | 54802
3 | 12:10.53 | 6:08.25 | 54803 | 82427
4 | 18:19.03 | 10:14.05 | 82428 | 128482
5 | 28:33.08 | 6:05.40 | 128483 | 155897
6 | 34:38.48 | 1:19.30 | 155898 | 161852
7 | 35:58.03 | 7:06.70 | 161853 | 193872
8 | 43:04.73 | 6:13.42 | 193873 | 221889
9 | 49:18.40 | 7:40.10 | 221890 | 256399
10 | 56:58.50 | 8:12.40 | 256400 | 293339


Track 1

Filename D:\Мои документы\Exact Audio Copy\Beethoven - Complete Violin Sonatas - Oistrakh, Oborin\CD2\01 - Beethoven - Violin Sonata no.4 in A minor, op.23 - 1. Presto.wav

Pre-gap length 0:00:02.44

Peak level 78.7 %
Track quality 100.0 %
Test CRC 8750A647
Copy CRC 8750A647
Accurately ripped (confidence 4) [1600DB30]
Copy OK

Track 2

Filename D:\Мои документы\Exact Audio Copy\Beethoven - Complete Violin Sonatas - Oistrakh, Oborin\CD2\02 - Beethoven - Violin Sonata no.4 in A minor, op.23 - 2. Andante scherzoso, pi allegretto.wav

Pre-gap length 0:00:03.04

Peak level 70.5 %
Track quality 99.9 %
Test CRC 6B9D2D89
Copy CRC 6B9D2D89
Accurately ripped (confidence 4) [566A7925]
Copy OK

Track 3

Filename D:\Мои документы\Exact Audio Copy\Beethoven - Complete Violin Sonatas - Oistrakh, Oborin\CD2\03 - Beethoven - Violin Sonata no.4 in A minor, op.23 - 3. Allegro molto.wav

Pre-gap length 0:00:01.40

Peak level 71.7 %
Track quality 100.0 %
Test CRC CD090E99
Copy CRC CD090E99
Accurately ripped (confidence 4) [2BF876ED]
Copy OK

Track 4

Filename D:\Мои документы\Exact Audio Copy\Beethoven - Complete Violin Sonatas - Oistrakh, Oborin\CD2\04 - Beethoven - Violin Sonata no.5 in F major, op.24 - 1. Allegro.wav

Pre-gap length 0:00:10.93

Peak level 89.6 %
Track quality 100.0 %
Test CRC BC9EB993
Copy CRC BC9EB993
Accurately ripped (confidence 4) [457EB480]
Copy OK

Track 5

Filename D:\Мои документы\Exact Audio Copy\Beethoven - Complete Violin Sonatas - Oistrakh, Oborin\CD2\05 - Beethoven - Violin Sonata no.5 in F major, op.24 - 2. Adagio molto espressivo.wav

Pre-gap length 0:00:01.50

Peak level 66.6 %
Track quality 100.0 %
Test CRC 1F53F0C7
Copy CRC 1F53F0C7
Accurately ripped (confidence 4) [F0A35AFD]
Copy OK

Track 6

Filename D:\Мои документы\Exact Audio Copy\Beethoven - Complete Violin Sonatas - Oistrakh, Oborin\CD2\06 - Beethoven - Violin Sonata no.5 in F major, op.24 - 3. Scherzo. Allegro molto.wav

Pre-gap length 0:00:01.64

Peak level 70.0 %
Track quality 100.0 %
Test CRC 2DC12574
Copy CRC 2DC12574
Accurately ripped (confidence 4) [AF8CE7A9]
Copy OK

Track 7

Filename D:\Мои документы\Exact Audio Copy\Beethoven - Complete Violin Sonatas - Oistrakh, Oborin\CD2\07 - Beethoven - Violin Sonata no.5 in F major, op.24 - 4. Rondo. Allegro ma non troppo.wav

Pre-gap length 0:00:01.24

Peak level 87.2 %
Track quality 100.0 %
Test CRC 7F12A7EA
Copy CRC 7F12A7EA
Accurately ripped (confidence 4) [3F4AAA17]
Copy OK

Track 8

Filename D:\Мои документы\Exact Audio Copy\Beethoven - Complete Violin Sonatas - Oistrakh, Oborin\CD2\08 - Beethoven - Violin Sonata no.6 in A major, op.30 no.1 - 1. Allegro.wav

Pre-gap length 0:00:09.06

Peak level 66.9 %
Track quality 99.9 %
Test CRC 26AAB40C
Copy CRC 26AAB40C
Accurately ripped (confidence 4) [131C03CB]
Copy OK

Track 9

Filename D:\Мои документы\Exact Audio Copy\Beethoven - Complete Violin Sonatas - Oistrakh, Oborin\CD2\09 - Beethoven - Violin Sonata no.6 in A major, op.30 no.1 - 2. Adagio.wav

Pre-gap length 0:00:02.80

Peak level 57.0 %
Track quality 100.0 %
Test CRC 920F6B2C
Copy CRC 920F6B2C
Accurately ripped (confidence 5) [969B41C6]
Copy OK

Track 10

Filename D:\Мои документы\Exact Audio Copy\Beethoven - Complete Violin Sonatas - Oistrakh, Oborin\CD2\10 - Beethoven - Violin Sonata no.6 in A major, op.30 no.1 - 3. Allegretto con variazioni.wav

Pre-gap length 0:00:02.62

Peak level 94.3 %
Track quality 100.0 %
Test CRC 50C998F1
Copy CRC 50C998F1
Accurately ripped (confidence 5) [28CA44E7]
Copy OK


All tracks accurately ripped

No errors occurred

End of status report

Exact Audio Copy V0.99 prebeta 5 from 4. May 2009

EAC extraction logfile from 14. June 2011, 9:12

David Oistrakh, Lev Oborin / Beethoven: The Sonatas for Piano and Violin [Disc 3]

Used drive : _NEC DVD_RW ND-3570A Adapter: 3 ID: 1

Read mode : Secure
Utilize accurate stream : Yes
Defeat audio cache : Yes
Make use of C2 pointers : No

Read offset correction : 48
Overread into Lead-In and Lead-Out : No
Fill up missing offset samples with silence : Yes
Delete leading and trailing silent blocks : No
Null samples used in CRC calculations : Yes
Used interface : Installed external ASPI interface
Gap handling : Appended to previous track

Used output format : User Defined Encoder
Selected bitrate : 128 kBit/s
Quality : High
Add ID3 tag : No
Command line compressor : C:\Program Files\Exact Audio Copy\Flac\flac.exe
Additional command line options : -8 -V -T "ARTIST=%a" -T "TITLE=%t" -T "ALBUM=%g" -T "DATE=%y" -T "TRACKNUMBER=%n" -T "GENRE=%m" -T "COMMENT=EAC FLAC -8" %s


TOC of the extracted CD

Track | Start | Length | Start sector | End sector
––––––––––––––––––––––––––––-
1 | 0:00.32 | 8:00.05 | 32 | 36036
2 | 8:00.37 | 11:17.60 | 36037 | 86871
3 | 19:18.22 | 3:22.40 | 86872 | 102061
4 | 22:40.62 | 5:21.70 | 102062 | 126206
5 | 28:02.57 | 7:17.63 | 126207 | 159044
6 | 35:20.45 | 9:27.12 | 159045 | 201581
7 | 44:47.57 | 3:25.25 | 201582 | 216981


Track 1

Filename D:\Мои документы\Exact Audio Copy\Beethoven - Complete Violin Sonatas - Oistrakh, Oborin\CD3\01 - Beethoven - Violin Sonata no.7 in C minor, op.30 no.2 - 1. Allegro con brio.wav

Pre-gap length 0:00:02.42

Peak level 94.6 %
Track quality 100.0 %
Test CRC 0D33829A
Copy CRC 0D33829A
Accurately ripped (confidence 15) [1CF0E4C2]
Copy OK

Track 2

Filename D:\Мои документы\Exact Audio Copy\Beethoven - Complete Violin Sonatas - Oistrakh, Oborin\CD3\02 - Beethoven - Violin Sonata no.7 in C minor, op.30 no.2 - 2. Adagio cantabile.wav

Pre-gap length 0:00:03.22

Peak level 67.7 %
Track quality 100.0 %
Test CRC 12619D5C
Copy CRC 12619D5C
Accurately ripped (confidence 15) [E6DADFE6]
Copy OK

Track 3

Filename D:\Мои документы\Exact Audio Copy\Beethoven - Complete Violin Sonatas - Oistrakh, Oborin\CD3\03 - Beethoven - Violin Sonata no.7 in C minor, op.30 no.2 - 3. Scherzo. Allegro.wav

Pre-gap length 0:00:03.09

Peak level 72.8 %
Track quality 100.0 %
Test CRC 91111C8F
Copy CRC 91111C8F
Accurately ripped (confidence 15) [F8162420]
Copy OK

Track 4

Filename D:\Мои документы\Exact Audio Copy\Beethoven - Complete Violin Sonatas - Oistrakh, Oborin\CD3\04 - Beethoven - Violin Sonata no.7 in C minor, op.30 no.2 - 4. Finale. Allegro.wav

Pre-gap length 0:00:00.40

Peak level 77.5 %
Track quality 100.0 %
Test CRC A2E9F958
Copy CRC A2E9F958
Accurately ripped (confidence 15) [EB20E3CE]
Copy OK

Track 5

Filename D:\Мои документы\Exact Audio Copy\Beethoven - Complete Violin Sonatas - Oistrakh, Oborin\CD3\05 - Beethoven - Violin Sonata no.8 in G major, op.30 no.3 - 1. Allegro assai.wav

Pre-gap length 0:00:08.86

Peak level 51.5 %
Track quality 100.0 %
Test CRC 46D540E1
Copy CRC 46D540E1
Accurately ripped (confidence 15) [2C4C9AA4]
Copy OK

Track 6

Filename D:\Мои документы\Exact Audio Copy\Beethoven - Complete Violin Sonatas - Oistrakh, Oborin\CD3\06 - Beethoven - Violin Sonata no.8 in G major, op.30 no.3 - 2. Tempo di minuetto, ma molto moderato e grazioso.wav

Pre-gap length 0:00:02.24

Peak level 43.5 %
Track quality 99.9 %
Test CRC 508A096B
Copy CRC 508A096B
Accurately ripped (confidence 16) [A5880B89]
Copy OK

Track 7

Filename D:\Мои документы\Exact Audio Copy\Beethoven - Complete Violin Sonatas - Oistrakh, Oborin\CD3\07 - Beethoven - Violin Sonata no.8 in G major, op.30 no.3 - 3. Allegro vivace.wav

Pre-gap length 0:00:02.02

Peak level 75.5 %
Track quality 100.0 %
Test CRC B3006073
Copy CRC B3006073
Accurately ripped (confidence 15) [57D5139F]
Copy OK


All tracks accurately ripped

No errors occurred

End of status report

Exact Audio Copy V0.99 prebeta 5 from 4. May 2009

EAC extraction logfile from 14. June 2011, 10:27

Oistrakh-Oborin / Beethoven: The Sonatas for Piano and Violin [Disc 4]

Used drive : _NEC DVD_RW ND-3570A Adapter: 3 ID: 1

Read mode : Secure
Utilize accurate stream : Yes
Defeat audio cache : Yes
Make use of C2 pointers : No

Read offset correction : 48
Overread into Lead-In and Lead-Out : No
Fill up missing offset samples with silence : Yes
Delete leading and trailing silent blocks : No
Null samples used in CRC calculations : Yes
Used interface : Installed external ASPI interface
Gap handling : Appended to previous track

Used output format : User Defined Encoder
Selected bitrate : 128 kBit/s
Quality : High
Add ID3 tag : No
Command line compressor : C:\Program Files\Exact Audio Copy\Flac\flac.exe
Additional command line options : -8 -V -T "ARTIST=%a" -T "TITLE=%t" -T "ALBUM=%g" -T "DATE=%y" -T "TRACKNUMBER=%n" -T "GENRE=%m" -T "COMMENT=EAC FLAC -8" %s


TOC of the extracted CD

Track | Start | Length | Start sector | End sector
––––––––––––––––––––––––––––-
1 | 0:00.32 | 11:43.30 | 32 | 52786
2 | 11:43.62 | 15:25.65 | 52787 | 122226
3 | 27:09.52 | 7:08.00 | 122227 | 154326
4 | 34:17.52 | 10:37.70 | 154327 | 202171
5 | 44:55.47 | 8:32.18 | 202172 | 240589
6 | 53:27.65 | 8:25.22 | 240590 | 278486


Track 1

Filename D:\Мои документы\Exact Audio Copy\Beethoven - Complete Violin Sonatas - Oistrakh, Oborin\CD4\01 - Beethoven - Violin Sonata no.9 in A major,op.47 Kreutzer - 1 Adagio sostenuto - Presto.wav

Pre-gap length 0:00:02.42

Peak level 94.4 %
Track quality 100.0 %
Test CRC 57998D2A
Copy CRC 57998D2A
Accurately ripped (confidence 16) [5EA42B38]
Copy OK

Track 2

Filename D:\Мои документы\Exact Audio Copy\Beethoven - Complete Violin Sonatas - Oistrakh, Oborin\CD4\02 - Beethoven - Violin Sonata no.9 in A major,op.47 Kreutzer - 2 Andante con variazioni.wav

Pre-gap length 0:00:03.22

Peak level 58.7 %
Track quality 100.0 %
Test CRC 100A7907
Copy CRC 100A7907
Accurately ripped (confidence 16) [696D9EEB]
Copy OK

Track 3

Filename D:\Мои документы\Exact Audio Copy\Beethoven - Complete Violin Sonatas - Oistrakh, Oborin\CD4\03 - Beethoven - Violin Sonata no.9 in A major,op.47 Kreutzer - 3 Finale (Presto).wav

Pre-gap length 0:00:02.53

Peak level 73.2 %
Track quality 99.6 %
Test CRC 1E0B6D37
Copy CRC 1E0B6D37
Accurately ripped (confidence 16) [C60BA88F]
Copy OK

Track 4

Filename D:\Мои документы\Exact Audio Copy\Beethoven - Complete Violin Sonatas - Oistrakh, Oborin\CD4\04 - Beethoven - Violin Sonata no.10 in G major, op.96 - 1 Allegro moderato.wav

Pre-gap length 0:00:09.49

Peak level 79.6 %
Track quality 100.0 %
Test CRC 806CD2FB
Copy CRC 806CD2FB
Accurately ripped (confidence 16) [FEB088CA]
Copy OK

Track 5

Filename D:\Мои документы\Exact Audio Copy\Beethoven - Complete Violin Sonatas - Oistrakh, Oborin\CD4\05 - Beethoven - Violin Sonata no.10 in G major, op.96 - 2 Adagio espressivo - 3 Scherzo (Allegro).wav

Pre-gap length 0:00:02.93

Peak level 65.5 %
Track quality 100.0 %
Test CRC 4EC54536
Copy CRC 4EC54536
Accurately ripped (confidence 15) [91E467E4]
Copy OK

Track 6

Filename D:\Мои документы\Exact Audio Copy\Beethoven - Complete Violin Sonatas - Oistrakh, Oborin\CD4\06 - Beethoven - Violin Sonata no.10 in G major, op.96 - 4 Poco allegretto.wav

Pre-gap length 0:00:01.80

Peak level 84.3 %
Track quality 100.0 %
Test CRC 015A0B28
Copy CRC 015A0B28
Accurately ripped (confidence 15) [1F60BB62]
Copy OK


All tracks accurately ripped

No errors occurred

End of status report

Thanks to the Original ripper (unknown)!

Download: