Tags
Language
Tags

David Oistrakh - The Complete EMI Recordings (2008) (17 CDs Box Set)

Posted By: murena
David Oistrakh - The Complete EMI Recordings (2008) (17 CDs Box Set)

David Oistrakh - The Complete EMI Recordings (2008) (17 CDs Box Set)
XLD Rip | FLAC (Image+.cue, log) | 17 CDs, 19:39:00 min | 4,49 Gb | Scans->20 mb
Genre: Classical, Violin / Label: EMI

While only the faithful are likely to try this 17-disc set of violinist David Oistrakh's complete recordings for EMI, they will no doubt fall all over themselves in their rush to get it. How could they not? It contains all the recordings the great Soviet violinist made for EMI: his 1958 and 1969 recordings of Beethoven's Triple Concerto, his 1954 and 1958 recordings of the same composer's violin concerto, his 1956 and 1969 recordings of Brahms' Double Concerto, his 1960 and 1969 recordings of the same composer's violin concerto plus recordings of concertos and sonatas by composers running the gamut from Mozart to Shostakovich. In each and every performance, Oistrakh demonstrates not only his impeccable technique but his warm tone and above all his irreproachable interpretations. No matter what the style or content of the work, Oistrakh understands every one from the inside out. There is tart sweetness in his Schubert, chaste passion in his Franck, cold fire in his Sibelius, insouciant sparkle in his Lalo, tempered strength in his Beethoven, aching lyricism in his Prokofiev, and reserved rapture in his Brahms. While EMI's sound ranges from merely functional monaural live recordings to opulent stereo studio recordings, the quality of the performances is consistently outstanding. Listeners deeply interested in twentieth century violinists in general and in Oistrakh in particular will surely want to at least sample this box set.

David Oistrakh - The Complete EMI Recordings (2008) (17 CDs Box Set)



Disc 1
Lev Oborin / Sviatoslav Knushevitsky
Philharmonia Orchestra/ Sir Malcolm Sargent
10.05.1958 Abbey Rd 1-3 and 9-10,12.05.1958 Abbey Rd.
1-3 Beethoven: Triple Concerto, Op. 56
4-7 Beethoven: Piano Trio No. 7, Op. 97

Disc 2
Track 1-3
Sviatoslav Richter/Mstislav Rostropovich
Berliner Philharmoniker/H.v.Karajan
15-17.09.1969 Berlin
Track 4-6
M. Rostropovich
Cleveland Orchestra/George Szell
12-13.05.1969 Cleveland
1-3 Beethoven: Concerto In C, Op. 56
4-6 Brahms: Double Concerto In A Minor, Op. 102

Disc 3
Stockholm Festival Orchestra/ Sixten Ehrling
10-11.06.1954 Stockholm
1- 3 Beethoven: Violin Concerto in D major, Op. 61
4-6 Sibelius: Violin Concerto in D minor, Op. 47

Disc 4
Track 1-3
Orchestre National de la Radioffusion Francaise 8&10.11.1958 Paris
Trak 4-10
Lev Oborin
1953 Paris
1-3 Beethoven: Violin Concerto In D, Op. 61
4-10 Sonata "Kreutzer"

Disc 5
Vladimir Yampolsky
Track 1-3 1955 Abbey Rd
Track 4-10 1956 Brussels
1-3 Mozart: Violin Sonata No. 32
4-6 Beethoven: Violin Sonata No. 3
7-10 Brahms: Violin Sonata No. 3

Disc 6
Track 1-3
Orchestre National de la Radioffusion Francaise/ Otto Klemperer
17-19.06.1960 Paris
Track 4-6
Pierre Fournier cello
Philharmonia Orchestra/Alceo Galliera
29.02&2-3.03.1956 London
1-3 Brahms: Violin Concerto, Op. 77
4-6 Brahms: Double Concerto, Op. 102

Disc 7
Track 1-3
Berliner Philharmoniker/David Oistrakh
22-23.03.1971 Berlin
Track 4-6
Cleveland Orchestra/George Szell
13&16.05.1969 Cleveland
1-3 Mozart: Violin Concerto No.3
4-6 Brahms: Violin Concerto

Disc 8
Track 1-3
London Symphony Orchestra/Lovro von Matacic
18&21.10.1954 Abbey Rd
Track 4-6
Philarmonia Otchestra/Alceo Galliera
14&19.05.1958 Abbey Rd
Track 7-10
Vladimir Yampolsky piano
22.05.1955 Brussels
1-3 Prokofiev: Violin Concerto #1 In D, Op. 19
4-6 Prokofiev: Violin Concerto #2 In G Minor
7-10 Prokofiev: Violin Sonata #2 In D

Disc 9
Mozart
Track 7-9
Igor Oistrakh violin/David Oistrakh viola
Track 1-9
Berliner Philharmoniker/David Oistrakh
1971-1972 Berlin
1-3 Violin Concerto No.1 In B Flat
4-6 Violin Concerto No.2 In D
7-9 Sinfonia Concertante In E Flat

Disc 10
Berliner Philharmoniker
Track 1-6
11.1970
Track 7-9
11.1971
Berlin
1-3 Mozart: Violin Concerto No.4
4-6 Mozart: Violin Concerto No.5 'Turkish'
Mozart: Adagio in E 8:18
Mozart: Rondo Concertante in B flat 6:39
Mozart: Rondo in C 6:13

Disc 11
Track 1-3
Philharmonia Orchestra/ David Oisrtakh
22.05.1958 Abbey Rd
Track 4-6
Igor Oistrakh
Berliner Philharmoniker/David Oistrakh
03.1972 Berlin
1-3 Mozart: Violin Concerto No.3 In G
4-6 Mozart: Concertone In C, K 190

Disc 12
Track1-5
Philhalrmonia Orchestra/Jean Martinon
13-14.11.1954 Abbey Rd
Track 6-8
London Symhony Orchestra/Lovro von Matacic
17-18.11.1954 Abbey Rd
1-5 Lalo: Symphonie Espagnole, Op.23
6-8 Bruch: Violin Concerto No.1 In G Minor, Op. 26

Disc 13
Track 1-4
New Philharmonia Orchestra/ maxim Shostakovich
25.11.1972
Abbey Rd
Track 5-7
Philharmonia Orchestra/Aram Khachaturian
26-28.11.1954 london
1-4 Shostakovich: Violin Concerto No.1 In A Minor, Op. 99
5-7 Khachaturian: Violin Concerto In D Minor

Disc 14
Track 1-5
Philharmonia Orchestra/Nikolai Malko
24.02.1956 Abbey Rd
Track 6-9
Vladimir Yampolsky piano
8.06.1954 Stockholm
1-5 Taneyev: Suite de concert
6-9 Franck: Violin Sonata

Disc 15
Track 1-3
Vladimir Yampolsky piano
08.06.1954
Stockholm
Track4-11
Vladimir Yampolsky
28.02.1956
Abbey Rd
1-3 Szymanowsky: Violin Sonata In D Minor, Op. 9
Suk: Six Pieces, Op. 7, No. 1 - Love Song 6:08
Kodály: Three Hungarian Folk Songs 4:19
Wieniawsky: Légende, Op. 17 7:27
Zarzycki: Mazurka In G, Op. 26 4:46
Debussy: Suite Bergamasque - Claia De Lune 4:41
De Falla: Suite Populaire Española - Jota 3:00
Tchaikovsky: Scherzo-Valse, Op. 34 5:29
Ysaÿe: Extase, Op. 21 9:51

Disc 16
Track 1-4
Lev Oborin piano/ Sviatoslav Knushevitsky cello
13&16 .05.1958 Abbey Rd
Track 5-7
Vladimir Yampolsky piano
21.05.1955 Brussels
Track 8-11
Vladimir Yampolsky piano
16-17.02.1956
Abbey Rd
1-4 Schubert: Piano Trio No.1 in B flat, D 898
5-7 Khachatrurian: Violin Sonata, Op. 1
8-11Tartini: Violin Sonata in G minor, “The Devil's Trill”

Disc 17
David Oistrakh, Peter Bondarenko (Violin), Mikhail Terian (Viola), Sviatoslav Knushevitzky (Cello), Vladimir Sorokin (Clarinet), Joseph Gertovich (Double Bass), Joseph Stidel (Bassoon), Jacov Shapiro (Horn)
27.10.1955 Moscow
1-6 Schubert: Octet In F, D 803



Disc 1
X Lossless Decoder version 20080926 (93.3)
XLD extraction logfile from 2008-09-27 16:32:23 +0100
/ David Oistrakh: The Complete EMI Recordings (Disc 1)
Used drive : MATSHITA DVD-R UJ-85J (revision FCQA)
Use cdparanoia mode : YES (CDParanoia III 10.2 engine)
Disable audio cache : OK for the drive with cache less than 2750KB
Make use of C2 pointers : NO
Read offset correction : 102
Max retry count : 100
TOC of the extracted CD
Track | Start | Length | Start sector | End sector
––––––––––––––––––––––––––––-
1 | 00:00:00 | 17:11:22 | 0 | 77346
2 | 17:11:22 | 04:37:45 | 77347 | 98166
3 | 21:48:67 | 13:05:63 | 98167 | 157104
4 | 34:54:55 | 09:27:00 | 157105 | 199629
5 | 44:21:55 | 06:57:09 | 199630 | 230913
6 | 51:18:64 | 12:30:00 | 230914 | 287163
7 | 63:48:64 | 06:39:37 | 287164 | 317125
8 | 73:00:26 | 06:36:62 | 328526 | 358287
All Tracks
Filename : /Users/Brunslik/Desktop/XLD/David Oistrakh: The Complete EMI Recordings (Disc 1).flac
CRC32 hash (test run) : 3D25560A
CRC32 hash : 3D25560A
CRC32 hash (skip zero) : 4D7CC20B
Statistics
Read error : 0
Skipped (treated as error) : 0
Edge jitter error (maybe fixed) : 0
Atom jitter error (maybe fixed) : 0
Drift error (maybe fixed) : 0
Dropped bytes error (maybe fixed) : 0
Duplicated bytes error (maybe fixed) : 0
Inconsistency in error sectors : 0
Track 01
CRC32 hash (test run) : 3348C391
CRC32 hash : 3348C391
CRC32 hash (skip zero) : F2234DD9
AccurateRip signature : FA7491BA
->Track not present in AccurateRip database.
Statistics
Read error : 0
Skipped (treated as error) : 0
Edge jitter error (maybe fixed) : 0
Atom jitter error (maybe fixed) : 0
Drift error (maybe fixed) : 0
Dropped bytes error (maybe fixed) : 0
Duplicated bytes error (maybe fixed) : 0
Inconsistency in error sectors : 0
Track 02
CRC32 hash (test run) : 29974AD7
CRC32 hash : 29974AD7
CRC32 hash (skip zero) : 5600010B
AccurateRip signature : F789BD6B
->Track not present in AccurateRip database.
Statistics
Read error : 0
Skipped (treated as error) : 0
Edge jitter error (maybe fixed) : 0
Atom jitter error (maybe fixed) : 0
Drift error (maybe fixed) : 0
Dropped bytes error (maybe fixed) : 0
Duplicated bytes error (maybe fixed) : 0
Inconsistency in error sectors : 0
Track 03
CRC32 hash (test run) : 26A89A4F
CRC32 hash : 26A89A4F
CRC32 hash (skip zero) : 040B3A4F
AccurateRip signature : 7A6F6CD5
->Track not present in AccurateRip database.
Statistics
Read error : 0
Skipped (treated as error) : 0
Edge jitter error (maybe fixed) : 0
Atom jitter error (maybe fixed) : 0
Drift error (maybe fixed) : 0
Dropped bytes error (maybe fixed) : 0
Duplicated bytes error (maybe fixed) : 0
Inconsistency in error sectors : 0
Track 04
CRC32 hash (test run) : BBB0573C
CRC32 hash : BBB0573C
CRC32 hash (skip zero) : C0124555
AccurateRip signature : 6F6B50AC
->Track not present in AccurateRip database.
Statistics
Read error : 0
Skipped (treated as error) : 0
Edge jitter error (maybe fixed) : 0
Atom jitter error (maybe fixed) : 0
Drift error (maybe fixed) : 0
Dropped bytes error (maybe fixed) : 0
Duplicated bytes error (maybe fixed) : 0
Inconsistency in error sectors : 0
Track 05
CRC32 hash (test run) : FAD834C4
CRC32 hash : FAD834C4
CRC32 hash (skip zero) : 4AF579F2
AccurateRip signature : E8A1EEDC
->Track not present in AccurateRip database.
Statistics
Read error : 0
Skipped (treated as error) : 0
Edge jitter error (maybe fixed) : 0
Atom jitter error (maybe fixed) : 0
Drift error (maybe fixed) : 0
Dropped bytes error (maybe fixed) : 0
Duplicated bytes error (maybe fixed) : 0
Inconsistency in error sectors : 0
Track 06
CRC32 hash (test run) : 103D7B51
CRC32 hash : 103D7B51
CRC32 hash (skip zero) : E4C7B849
AccurateRip signature : BBAD4195
->Track not present in AccurateRip database.
Statistics
Read error : 0
Skipped (treated as error) : 0
Edge jitter error (maybe fixed) : 0
Atom jitter error (maybe fixed) : 0
Drift error (maybe fixed) : 0
Dropped bytes error (maybe fixed) : 0
Duplicated bytes error (maybe fixed) : 0
Inconsistency in error sectors : 0
Track 07
CRC32 hash (test run) : 8714ED12
CRC32 hash : 8714ED12
CRC32 hash (skip zero) : 82A45B45
AccurateRip signature : EC5572A1
->Track not present in AccurateRip database.
Statistics
Read error : 0
Skipped (treated as error) : 0
Edge jitter error (maybe fixed) : 0
Atom jitter error (maybe fixed) : 0
Drift error (maybe fixed) : 0
Dropped bytes error (maybe fixed) : 0
Duplicated bytes error (maybe fixed) : 0
Inconsistency in error sectors : 0
No errors occurred
End of status report


Disc 2
X Lossless Decoder version 20080926 (93.3)
XLD extraction logfile from 2008-09-27 17:06:02 +0100
David Oistrakh, Mstislav Rostropovich, Sviatoslav Richter / Beethoven: Triple Concerto; Brahms: Double Concerto
Used drive : MATSHITA DVD-R UJ-85J (revision FCQA)
Use cdparanoia mode : YES (CDParanoia III 10.2 engine)
Disable audio cache : OK for the drive with cache less than 2750KB
Make use of C2 pointers : NO
Read offset correction : 102
Max retry count : 100
TOC of the extracted CD
Track | Start | Length | Start sector | End sector
––––––––––––––––––––––––––––-
1 | 00:00:32 | 17:58:08 | 32 | 80889
2 | 17:58:40 | 05:36:25 | 80890 | 106114
3 | 23:34:65 | 13:04:45 | 106115 | 164959
4 | 36:39:35 | 16:50:57 | 164960 | 240766
5 | 53:30:17 | 07:50:28 | 240767 | 276044
6 | 61:20:45 | 08:48:47 | 276045 | 315691
List of alternate offset correction values
# | Absolute | Relative | Confidence
–––––––––––––––––––––
1 | 458 | 356 | 20
2 | 464 | 362 | 18
3 | 96 | -6 | 6
All Tracks
Filename : /Users/Brunslik/Desktop/XLD/Beethoven: Triple Concerto; Brahms: Double Concerto.flac
CRC32 hash (test run) : E257AF7B
CRC32 hash : E257AF7B
CRC32 hash (skip zero) : AC72C585
Statistics
Read error : 0
Skipped (treated as error) : 0
Edge jitter error (maybe fixed) : 0
Atom jitter error (maybe fixed) : 0
Drift error (maybe fixed) : 0
Dropped bytes error (maybe fixed) : 0
Duplicated bytes error (maybe fixed) : 0
Inconsistency in error sectors : 0
Track 01
CRC32 hash (test run) : 35980F8C
CRC32 hash : 35980F8C
CRC32 hash (skip zero) : 7E62BA1F
AccurateRip signature : 61B8D676
->Rip may not be accurate.
Statistics
Read error : 0
Skipped (treated as error) : 0
Edge jitter error (maybe fixed) : 0
Atom jitter error (maybe fixed) : 0
Drift error (maybe fixed) : 0
Dropped bytes error (maybe fixed) : 0
Duplicated bytes error (maybe fixed) : 0
Inconsistency in error sectors : 0
Track 02
CRC32 hash (test run) : 5F1DD9E9
CRC32 hash : 5F1DD9E9
CRC32 hash (skip zero) : 9E117704
AccurateRip signature : A409F7C0
->Accurately ripped! (confidence 20)
(matched with the different offset correction value;
calculated using an additional offset of 356;
the signature after correction is: 168E59DA)
Statistics
Read error : 0
Skipped (treated as error) : 0
Edge jitter error (maybe fixed) : 0
Atom jitter error (maybe fixed) : 0
Drift error (maybe fixed) : 0
Dropped bytes error (maybe fixed) : 0
Duplicated bytes error (maybe fixed) : 0
Inconsistency in error sectors : 0
Track 03
CRC32 hash (test run) : F8859032
CRC32 hash : F8859032
CRC32 hash (skip zero) : 4DB24647
AccurateRip signature : 4091BC36
->Accurately ripped! (confidence 19)
(matched with the different offset correction value;
calculated using an additional offset of 356;
the signature after correction is: 87B73515)
Statistics
Read error : 0
Skipped (treated as error) : 0
Edge jitter error (maybe fixed) : 0
Atom jitter error (maybe fixed) : 0
Drift error (maybe fixed) : 0
Dropped bytes error (maybe fixed) : 0
Duplicated bytes error (maybe fixed) : 0
Inconsistency in error sectors : 0
Track 04
CRC32 hash (test run) : 37A85116
CRC32 hash : 37A85116
CRC32 hash (skip zero) : 608A39BA
AccurateRip signature : 6AF7BCE2
->Accurately ripped! (confidence 18)
(matched with the different offset correction value;
calculated using an additional offset of 362;
the signature after correction is: F88E7B3F)
Statistics
Read error : 0
Skipped (treated as error) : 0
Edge jitter error (maybe fixed) : 0
Atom jitter error (maybe fixed) : 0
Drift error (maybe fixed) : 0
Dropped bytes error (maybe fixed) : 0
Duplicated bytes error (maybe fixed) : 0
Inconsistency in error sectors : 0
Track 05
CRC32 hash (test run) : 5C5146F9
CRC32 hash : 5C5146F9
CRC32 hash (skip zero) : 2DB26A19
AccurateRip signature : DF3BD0A2
->Accurately ripped! (confidence 18)
(matched with the different offset correction value;
calculated using an additional offset of 362;
the signature after correction is: 8A093708)
Statistics
Read error : 0
Skipped (treated as error) : 0
Edge jitter error (maybe fixed) : 0
Atom jitter error (maybe fixed) : 0
Drift error (maybe fixed) : 0
Dropped bytes error (maybe fixed) : 0
Duplicated bytes error (maybe fixed) : 0
Inconsistency in error sectors : 0
Track 06
CRC32 hash (test run) : FC58623D
CRC32 hash : FC58623D
CRC32 hash (skip zero) : 850CF08C
AccurateRip signature : 08844C8C
->Accurately ripped! (confidence 18)
(matched with the different offset correction value;
calculated using an additional offset of 362;
the signature after correction is: 643887D9)
Statistics
Read error : 0
Skipped (treated as error) : 0
Edge jitter error (maybe fixed) : 0
Atom jitter error (maybe fixed) : 0
Drift error (maybe fixed) : 0
Dropped bytes error (maybe fixed) : 0
Duplicated bytes error (maybe fixed) : 0
Inconsistency in error sectors : 0
Some inconsistencies found
End of status report


Disc 3
X Lossless Decoder version 20080926 (93.3)
XLD extraction logfile from 2008-09-27 17:42:27 +0100
Oistrakh/Ehrling/Stockholm Festival Orch. / Beethoven: Violin Concerto | Sibelius: Violin Cto (Oistrakh)
Used drive : MATSHITA DVD-R UJ-85J (revision FCQA)
Use cdparanoia mode : YES (CDParanoia III 10.2 engine)
Disable audio cache : OK for the drive with cache less than 2750KB
Make use of C2 pointers : NO
Read offset correction : 102
Max retry count : 100
TOC of the extracted CD
Track | Start | Length | Start sector | End sector
––––––––––––––––––––––––––––-
1 | 00:00:32 | 24:19:10 | 32 | 109466
2 | 24:19:42 | 09:32:73 | 109467 | 152439
3 | 33:52:40 | 10:11:42 | 152440 | 198306
4 | 44:04:07 | 15:18:50 | 198307 | 267206
5 | 59:22:57 | 08:06:48 | 267207 | 303704
6 | 67:29:30 | 07:20:37 | 303705 | 336741
All Tracks
Filename : /Users/Brunslik/Desktop/XLD/Beethoven: Violin Concerto | Sibelius: Violin Cto (Oistrakh).flac
CRC32 hash (test run) : B0893ABE
CRC32 hash : B0893ABE
CRC32 hash (skip zero) : F0BE5AF4
Statistics
Read error : 0
Skipped (treated as error) : 0
Edge jitter error (maybe fixed) : 2
Atom jitter error (maybe fixed) : 0
Drift error (maybe fixed) : 0
Dropped bytes error (maybe fixed) : 1
Duplicated bytes error (maybe fixed) : 2
Inconsistency in error sectors : 0
Track 01
CRC32 hash (test run) : 4882F372
CRC32 hash : 4882F372
CRC32 hash (skip zero) : CEB95351
AccurateRip signature : 766C01C3
->Track not present in AccurateRip database.
Statistics
Read error : 0
Skipped (treated as error) : 0
Edge jitter error (maybe fixed) : 0
Atom jitter error (maybe fixed) : 0
Drift error (maybe fixed) : 0
Dropped bytes error (maybe fixed) : 0
Duplicated bytes error (maybe fixed) : 0
Inconsistency in error sectors : 0
Track 02
CRC32 hash (test run) : CF49E01B
CRC32 hash : CF49E01B
CRC32 hash (skip zero) : 4083853E
AccurateRip signature : F6FC3A8D
->Track not present in AccurateRip database.
Statistics
Read error : 0
Skipped (treated as error) : 0
Edge jitter error (maybe fixed) : 0
Atom jitter error (maybe fixed) : 0
Drift error (maybe fixed) : 0
Dropped bytes error (maybe fixed) : 0
Duplicated bytes error (maybe fixed) : 0
Inconsistency in error sectors : 0
Track 03
CRC32 hash (test run) : 17743493
CRC32 hash : 17743493
CRC32 hash (skip zero) : E7DFD69C
AccurateRip signature : 5745B7AE
->Track not present in AccurateRip database.
Statistics
Read error : 0
Skipped (treated as error) : 0
Edge jitter error (maybe fixed) : 1
Atom jitter error (maybe fixed) : 0
Drift error (maybe fixed) : 0
Dropped bytes error (maybe fixed) : 0
Duplicated bytes error (maybe fixed) : 1
Inconsistency in error sectors : 0
Track 04
CRC32 hash (test run) : 6F84F8EE
CRC32 hash : 6F84F8EE
CRC32 hash (skip zero) : EE29FEAC
AccurateRip signature : 0484F7DA
->Track not present in AccurateRip database.
Statistics
Read error : 0
Skipped (treated as error) : 0
Edge jitter error (maybe fixed) : 0
Atom jitter error (maybe fixed) : 0
Drift error (maybe fixed) : 0
Dropped bytes error (maybe fixed) : 0
Duplicated bytes error (maybe fixed) : 0
Inconsistency in error sectors : 0
Track 05
CRC32 hash (test run) : 1D4E9A86
CRC32 hash : 1D4E9A86
CRC32 hash (skip zero) : 6B258C53
AccurateRip signature : A9B91191
->Track not present in AccurateRip database.
Statistics
Read error : 0
Skipped (treated as error) : 0
Edge jitter error (maybe fixed) : 0
Atom jitter error (maybe fixed) : 0
Drift error (maybe fixed) : 0
Dropped bytes error (maybe fixed) : 0
Duplicated bytes error (maybe fixed) : 0
Inconsistency in error sectors : 0
Track 06
CRC32 hash (test run) : 551F1F38
CRC32 hash : 551F1F38
CRC32 hash (skip zero) : 33492026
AccurateRip signature : 47BE789C
->Track not present in AccurateRip database.
Statistics
Read error : 0
Skipped (treated as error) : 0
Edge jitter error (maybe fixed) : 1
Atom jitter error (maybe fixed) : 0
Drift error (maybe fixed) : 0
Dropped bytes error (maybe fixed) : 1
Duplicated bytes error (maybe fixed) : 1
Inconsistency in error sectors : 0
No errors occurred
End of status report


Disc 4
X Lossless Decoder version 20080926 (93.3)
XLD extraction logfile from 2008-09-27 18:52:48 +0100
Ludwig Van Beethoven / Concerto per violino e orchestra (op. 61) - Sonata "Kreutzer" (op.47)
Used drive : MATSHITA DVD-R UJ-85J (revision FCQA)
Use cdparanoia mode : YES (CDParanoia III 10.2 engine)
Disable audio cache : OK for the drive with cache less than 2750KB
Make use of C2 pointers : NO
Read offset correction : 102
Max retry count : 100
TOC of the extracted CD
Track | Start | Length | Start sector | End sector
––––––––––––––––––––––––––––-
1 | 00:00:00 | 25:27:25 | 0 | 114549
2 | 25:27:25 | 09:44:63 | 114550 | 158412
3 | 35:12:13 | 10:30:29 | 158413 | 205691
4 | 45:42:42 | 11:35:59 | 205692 | 257875
5 | 57:18:26 | 02:42:16 | 257876 | 270041
6 | 60:00:42 | 02:07:34 | 270042 | 279600
7 | 62:08:01 | 01:48:50 | 279601 | 287750
8 | 63:56:51 | 03:02:43 | 287751 | 301443
9 | 66:59:19 | 05:47:13 | 301444 | 327481
10 | 72:46:32 | 06:32:49 | 327482 | 356930
All Tracks
Filename : /Users/Brunslik/Desktop/XLD/Concerto per violino e orchestra (op. 61) - Sonata "Kreutzer" (op.47).flac
CRC32 hash (test run) : 3CA7FFAA
CRC32 hash : 3CA7FFAA
CRC32 hash (skip zero) : 7417C1D7
Statistics
Read error : 0
Skipped (treated as error) : 0
Edge jitter error (maybe fixed) : 0
Atom jitter error (maybe fixed) : 0
Drift error (maybe fixed) : 0
Dropped bytes error (maybe fixed) : 0
Duplicated bytes error (maybe fixed) : 0
Inconsistency in error sectors : 0
Track 01
CRC32 hash (test run) : 4FAA0C62
CRC32 hash : 4FAA0C62
CRC32 hash (skip zero) : A6EDE723
AccurateRip signature : DD852867
->Track not present in AccurateRip database.
Statistics
Read error : 0
Skipped (treated as error) : 0
Edge jitter error (maybe fixed) : 0
Atom jitter error (maybe fixed) : 0
Drift error (maybe fixed) : 0
Dropped bytes error (maybe fixed) : 0
Duplicated bytes error (maybe fixed) : 0
Inconsistency in error sectors : 0
Track 02
CRC32 hash (test run) : D3FA0BD9
CRC32 hash : D3FA0BD9
CRC32 hash (skip zero) : 4CB32ED3
AccurateRip signature : 5AFF7455
->Track not present in AccurateRip database.
Statistics
Read error : 0
Skipped (treated as error) : 0
Edge jitter error (maybe fixed) : 0
Atom jitter error (maybe fixed) : 0
Drift error (maybe fixed) : 0
Dropped bytes error (maybe fixed) : 0
Duplicated bytes error (maybe fixed) : 0
Inconsistency in error sectors : 0
Track 03
CRC32 hash (test run) : 91808F62
CRC32 hash : 91808F62
CRC32 hash (skip zero) : CD1242D1
AccurateRip signature : 54B1F8B8
->Track not present in AccurateRip database.
Statistics
Read error : 0
Skipped (treated as error) : 0
Edge jitter error (maybe fixed) : 0
Atom jitter error (maybe fixed) : 0
Drift error (maybe fixed) : 0
Dropped bytes error (maybe fixed) : 0
Duplicated bytes error (maybe fixed) : 0
Inconsistency in error sectors : 0
Track 04
CRC32 hash (test run) : 60DD641E
CRC32 hash : 60DD641E
CRC32 hash (skip zero) : 9FE0B2AB
AccurateRip signature : B7AC6237
->Track not present in AccurateRip database.
Statistics
Read error : 0
Skipped (treated as error) : 0
Edge jitter error (maybe fixed) : 0
Atom jitter error (maybe fixed) : 0
Drift error (maybe fixed) : 0
Dropped bytes error (maybe fixed) : 0
Duplicated bytes error (maybe fixed) : 0
Inconsistency in error sectors : 0
Track 05
CRC32 hash (test run) : 1461ED60
CRC32 hash : 1461ED60
CRC32 hash (skip zero) : AB4A6FED
AccurateRip signature : FE093322
->Track not present in AccurateRip database.
Statistics
Read error : 0
Skipped (treated as error) : 0
Edge jitter error (maybe fixed) : 0
Atom jitter error (maybe fixed) : 0
Drift error (maybe fixed) : 0
Dropped bytes error (maybe fixed) : 0
Duplicated bytes error (maybe fixed) : 0
Inconsistency in error sectors : 0
Track 06
CRC32 hash (test run) : EAD9D503
CRC32 hash : EAD9D503
CRC32 hash (skip zero) : 6226F19A
AccurateRip signature : 1DA511FA
->Track not present in AccurateRip database.
Statistics
Read error : 0
Skipped (treated as error) : 0
Edge jitter error (maybe fixed) : 0
Atom jitter error (maybe fixed) : 0
Drift error (maybe fixed) : 0
Dropped bytes error (maybe fixed) : 0
Duplicated bytes error (maybe fixed) : 0
Inconsistency in error sectors : 0
Track 07
CRC32 hash (test run) : 4765FA1A
CRC32 hash : 4765FA1A
CRC32 hash (skip zero) : 8FA20069
AccurateRip signature : B356C185
->Track not present in AccurateRip database.
Statistics
Read error : 0
Skipped (treated as error) : 0
Edge jitter error (maybe fixed) : 0
Atom jitter error (maybe fixed) : 0
Drift error (maybe fixed) : 0
Dropped bytes error (maybe fixed) : 0
Duplicated bytes error (maybe fixed) : 0
Inconsistency in error sectors : 0
Track 08
CRC32 hash (test run) : 7509AA49
CRC32 hash : 7509AA49
CRC32 hash (skip zero) : 65656D1D
AccurateRip signature : BFBD58AC
->Track not present in AccurateRip database.
Statistics
Read error : 0
Skipped (treated as error) : 0
Edge jitter error (maybe fixed) : 0
Atom jitter error (maybe fixed) : 0
Drift error (maybe fixed) : 0
Dropped bytes error (maybe fixed) : 0
Duplicated bytes error (maybe fixed) : 0
Inconsistency in error sectors : 0
Track 09
CRC32 hash (test run) : 256CE7B4
CRC32 hash : 256CE7B4
CRC32 hash (skip zero) : AD9D7C99
AccurateRip signature : 309F003F
->Track not present in AccurateRip database.
Statistics
Read error : 0
Skipped (treated as error) : 0
Edge jitter error (maybe fixed) : 0
Atom jitter error (maybe fixed) : 0
Drift error (maybe fixed) : 0
Dropped bytes error (maybe fixed) : 0
Duplicated bytes error (maybe fixed) : 0
Inconsistency in error sectors : 0
Track 10
CRC32 hash (test run) : FEEF83F1
CRC32 hash : FEEF83F1
CRC32 hash (skip zero) : AAC11CEA
AccurateRip signature : 742654CD
->Track not present in AccurateRip database.
Statistics
Read error : 0
Skipped (treated as error) : 0
Edge jitter error (maybe fixed) : 0
Atom jitter error (maybe fixed) : 0
Drift error (maybe fixed) : 0
Dropped bytes error (maybe fixed) : 0
Duplicated bytes error (maybe fixed) : 0
Inconsistency in error sectors : 0
No errors occurred
End of status report


Disc 5
X Lossless Decoder version 20080926 (93.3)
XLD extraction logfile from 2008-09-27 19:50:29 +0100
David Oistrakh, Vladimir Yampolsky / The Complete EMI Recordings (Disc 5)
Used drive : MATSHITA DVD-R UJ-85J (revision FCQA)
Use cdparanoia mode : YES (CDParanoia III 10.2 engine)
Disable audio cache : OK for the drive with cache less than 2750KB
Make use of C2 pointers : NO
Read offset correction : 102
Max retry count : 100
TOC of the extracted CD
Track | Start | Length | Start sector | End sector
––––––––––––––––––––––––––––-
1 | 00:00:00 | 07:04:73 | 0 | 31872
2 | 07:04:73 | 07:52:68 | 31873 | 67340
3 | 14:57:66 | 06:52:72 | 67341 | 98312
4 | 21:50:63 | 08:08:43 | 98313 | 134955
5 | 29:59:31 | 07:07:35 | 134956 | 167015
6 | 37:06:66 | 04:22:74 | 167016 | 186739
7 | 41:29:65 | 08:56:40 | 186740 | 226979
8 | 50:26:30 | 05:49:37 | 226980 | 253191
9 | 56:15:67 | 03:12:52 | 253192 | 267643
10 | 59:28:44 | 06:11:25 | 267644 | 295493
All Tracks
Filename : /Users/Brunslik/Desktop/XLD/The Complete EMI Recordings (Disc 5).flac
CRC32 hash (test run) : AC9584D7
CRC32 hash : AC9584D7
CRC32 hash (skip zero) : A1BB0B8F
Statistics
Read error : 0
Skipped (treated as error) : 0
Edge jitter error (maybe fixed) : 0
Atom jitter error (maybe fixed) : 0
Drift error (maybe fixed) : 0
Dropped bytes error (maybe fixed) : 0
Duplicated bytes error (maybe fixed) : 0
Inconsistency in error sectors : 0
Track 01
CRC32 hash (test run) : F1FC08F2
CRC32 hash : F1FC08F2
CRC32 hash (skip zero) : D9595724
AccurateRip signature : 747250F0
->Track not present in AccurateRip database.
Statistics
Read error : 0
Skipped (treated as error) : 0
Edge jitter error (maybe fixed) : 0
Atom jitter error (maybe fixed) : 0
Drift error (maybe fixed) : 0
Dropped bytes error (maybe fixed) : 0
Duplicated bytes error (maybe fixed) : 0
Inconsistency in error sectors : 0
Track 02
CRC32 hash (test run) : 03908DFC
CRC32 hash : 03908DFC
CRC32 hash (skip zero) : CF3FEF14
AccurateRip signature : 8B68A354
->Track not present in AccurateRip database.
Statistics
Read error : 0
Skipped (treated as error) : 0
Edge jitter error (maybe fixed) : 0
Atom jitter error (maybe fixed) : 0
Drift error (maybe fixed) : 0
Dropped bytes error (maybe fixed) : 0
Duplicated bytes error (maybe fixed) : 0
Inconsistency in error sectors : 0
Track 03
CRC32 hash (test run) : AC3EB69B
CRC32 hash : AC3EB69B
CRC32 hash (skip zero) : 09F4A5A0
AccurateRip signature : F88B2997
->Track not present in AccurateRip database.
Statistics
Read error : 0
Skipped (treated as error) : 0
Edge jitter error (maybe fixed) : 0
Atom jitter error (maybe fixed) : 0
Drift error (maybe fixed) : 0
Dropped bytes error (maybe fixed) : 0
Duplicated bytes error (maybe fixed) : 0
Inconsistency in error sectors : 0
Track 04
CRC32 hash (test run) : FCF975EA
CRC32 hash : FCF975EA
CRC32 hash (skip zero) : 04002B82
AccurateRip signature : 9BFEAE6D
->Track not present in AccurateRip database.
Statistics
Read error : 0
Skipped (treated as error) : 0
Edge jitter error (maybe fixed) : 0
Atom jitter error (maybe fixed) : 0
Drift error (maybe fixed) : 0
Dropped bytes error (maybe fixed) : 0
Duplicated bytes error (maybe fixed) : 0
Inconsistency in error sectors : 0
Track 05
CRC32 hash (test run) : 07A99C8D
CRC32 hash : 07A99C8D
CRC32 hash (skip zero) : 463FB316
AccurateRip signature : B5BFA5E0
->Track not present in AccurateRip database.
Statistics
Read error : 0
Skipped (treated as error) : 0
Edge jitter error (maybe fixed) : 0
Atom jitter error (maybe fixed) : 0
Drift error (maybe fixed) : 0
Dropped bytes error (maybe fixed) : 0
Duplicated bytes error (maybe fixed) : 0
Inconsistency in error sectors : 0
Track 06
CRC32 hash (test run) : C973BB01
CRC32 hash : C973BB01
CRC32 hash (skip zero) : A892C7D1
AccurateRip signature : AFF0FF5F
->Track not present in AccurateRip database.
Statistics
Read error : 0
Skipped (treated as error) : 0
Edge jitter error (maybe fixed) : 0
Atom jitter error (maybe fixed) : 0
Drift error (maybe fixed) : 0
Dropped bytes error (maybe fixed) : 0
Duplicated bytes error (maybe fixed) : 0
Inconsistency in error sectors : 0
Track 07
CRC32 hash (test run) : A68A05D5
CRC32 hash : A68A05D5
CRC32 hash (skip zero) : 329DD6AE
AccurateRip signature : 6ACA3C90
->Track not present in AccurateRip database.
Statistics
Read error : 0
Skipped (treated as error) : 0
Edge jitter error (maybe fixed) : 0
Atom jitter error (maybe fixed) : 0
Drift error (maybe fixed) : 0
Dropped bytes error (maybe fixed) : 0
Duplicated bytes error (maybe fixed) : 0
Inconsistency in error sectors : 0
Track 08
CRC32 hash (test run) : 9C492094
CRC32 hash : 9C492094
CRC32 hash (skip zero) : EE0D357D
AccurateRip signature : D26EA087
->Track not present in AccurateRip database.
Statistics
Read error : 0
Skipped (treated as error) : 0
Edge jitter error (maybe fixed) : 0
Atom jitter error (maybe fixed) : 0
Drift error (maybe fixed) : 0
Dropped bytes error (maybe fixed) : 0
Duplicated bytes error (maybe fixed) : 0
Inconsistency in error sectors : 0
Track 09
CRC32 hash (test run) : FC006355
CRC32 hash : FC006355
CRC32 hash (skip zero) : B39774A7
AccurateRip signature : 52EEA0F5
->Track not present in AccurateRip database.
Statistics
Read error : 0
Skipped (treated as error) : 0
Edge jitter error (maybe fixed) : 0
Atom jitter error (maybe fixed) : 0
Drift error (maybe fixed) : 0
Dropped bytes error (maybe fixed) : 0
Duplicated bytes error (maybe fixed) : 0
Inconsistency in error sectors : 0
Track 10
CRC32 hash (test run) : D22A886A
CRC32 hash : D22A886A
CRC32 hash (skip zero) : 2FB54436
AccurateRip signature : CA18B192
->Track not present in AccurateRip database.
Statistics
Read error : 0
Skipped (treated as error) : 0
Edge jitter error (maybe fixed) : 0
Atom jitter error (maybe fixed) : 0
Drift error (maybe fixed) : 0
Dropped bytes error (maybe fixed) : 0
Duplicated bytes error (maybe fixed) : 0
Inconsistency in error sectors : 0
No errors occurred
End of status report


Disc 6
X Lossless Decoder version 20080926 (93.3)
XLD extraction logfile from 2008-09-27 20:33:47 +0100
David Oistrakh / David Oistrakh: The Complete EMI Recordings (Disc 6)
Used drive : MATSHITA DVD-R UJ-85J (revision FCQA)
Use cdparanoia mode : YES (CDParanoia III 10.2 engine)
Disable audio cache : OK for the drive with cache less than 2750KB
Make use of C2 pointers : NO
Read offset correction : 102
Max retry count : 100
TOC of the extracted CD
Track | Start | Length | Start sector | End sector
––––––––––––––––––––––––––––-
1 | 00:00:00 | 22:37:22 | 0 | 101796
2 | 22:37:22 | 09:50:17 | 101797 | 146063
3 | 32:27:39 | 08:33:19 | 146064 | 184557
4 | 41:00:58 | 16:12:68 | 184558 | 257525
5 | 57:13:51 | 08:15:23 | 257526 | 294673
6 | 65:28:74 | 08:32:71 | 294674 | 333144
All Tracks
Filename : /Users/Brunslik/Desktop/XLD/David Oistrakh: The Complete EMI Recordings (Disc 6).flac
CRC32 hash (test run) : FF7F0A1B
CRC32 hash : FF7F0A1B
CRC32 hash (skip zero) : 3E218F11
Statistics
Read error : 0
Skipped (treated as error) : 0
Edge jitter error (maybe fixed) : 0
Atom jitter error (maybe fixed) : 2
Drift error (maybe fixed) : 0
Dropped bytes error (maybe fixed) : 0
Duplicated bytes error (maybe fixed) : 0
Inconsistency in error sectors : 0
Track 01
CRC32 hash (test run) : 72D6254C
CRC32 hash : 72D6254C
CRC32 hash (skip zero) : C8E9A237
AccurateRip signature : 6303D855
->Track not present in AccurateRip database.
Statistics
Read error : 0
Skipped (treated as error) : 0
Edge jitter error (maybe fixed) : 0
Atom jitter error (maybe fixed) : 1
Drift error (maybe fixed) : 0
Dropped bytes error (maybe fixed) : 0
Duplicated bytes error (maybe fixed) : 0
Inconsistency in error sectors : 0
Track 02
CRC32 hash (test run) : 46B5191A
CRC32 hash : 46B5191A
CRC32 hash (skip zero) : 08E05CDD
AccurateRip signature : 323B8AEF
->Track not present in AccurateRip database.
Statistics
Read error : 0
Skipped (treated as error) : 0
Edge jitter error (maybe fixed) : 0
Atom jitter error (maybe fixed) : 1
Drift error (maybe fixed) : 0
Dropped bytes error (maybe fixed) : 0
Duplicated bytes error (maybe fixed) : 0
Inconsistency in error sectors : 0
Track 03
CRC32 hash (test run) : FF082686
CRC32 hash : FF082686
CRC32 hash (skip zero) : 2272751A
AccurateRip signature : 8CBC5965
->Track not present in AccurateRip database.
Statistics
Read error : 0
Skipped (treated as error) : 0
Edge jitter error (maybe fixed) : 0
Atom jitter error (maybe fixed) : 0
Drift error (maybe fixed) : 0
Dropped bytes error (maybe fixed) : 0
Duplicated bytes error (maybe fixed) : 0
Inconsistency in error sectors : 0
Track 04
CRC32 hash (test run) : B9819054
CRC32 hash : B9819054
CRC32 hash (skip zero) : B5CADE2F
AccurateRip signature : 7E70C03F
->Track not present in AccurateRip database.
Statistics
Read error : 0
Skipped (treated as error) : 0
Edge jitter error (maybe fixed) : 0
Atom jitter error (maybe fixed) : 0
Drift error (maybe fixed) : 0
Dropped bytes error (maybe fixed) : 0
Duplicated bytes error (maybe fixed) : 0
Inconsistency in error sectors : 0
Track 05
CRC32 hash (test run) : CA7E161E
CRC32 hash : CA7E161E
CRC32 hash (skip zero) : D82700A1
AccurateRip signature : 928DEE62
->Track not present in AccurateRip database.
Statistics
Read error : 0
Skipped (treated as error) : 0
Edge jitter error (maybe fixed) : 0
Atom jitter error (maybe fixed) : 0
Drift error (maybe fixed) : 0
Dropped bytes error (maybe fixed) : 0
Duplicated bytes error (maybe fixed) : 0
Inconsistency in error sectors : 0
Track 06
CRC32 hash (test run) : 049E61EC
CRC32 hash : 049E61EC
CRC32 hash (skip zero) : 32DFF502
AccurateRip signature : 4248A253
->Track not present in AccurateRip database.
Statistics
Read error : 0
Skipped (treated as error) : 0
Edge jitter error (maybe fixed) : 0
Atom jitter error (maybe fixed) : 0
Drift error (maybe fixed) : 0
Dropped bytes error (maybe fixed) : 0
Duplicated bytes error (maybe fixed) : 0
Inconsistency in error sectors : 0
No errors occurred
End of status report


Disc 7
X Lossless Decoder version 20080926 (93.3)
XLD extraction logfile from 2008-09-27 21:58:22 +0100
David Oistrakh / The Complete EMI Recordings [Disc 7]
Used drive : MATSHITA DVD-R UJ-85J (revision FCQA)
Use cdparanoia mode : YES (CDParanoia III 10.2 engine)
Disable audio cache : OK for the drive with cache less than 2750KB
Make use of C2 pointers : NO
Read offset correction : 102
Max retry count : 100
TOC of the extracted CD
Track | Start | Length | Start sector | End sector
––––––––––––––––––––––––––––-
1 | 00:00:00 | 09:10:07 | 0 | 41256
2 | 09:10:07 | 09:26:47 | 41257 | 83753
3 | 18:36:54 | 06:48:67 | 83754 | 114420
4 | 25:25:46 | 22:34:68 | 114421 | 216038
5 | 48:00:39 | 09:38:58 | 216039 | 259446
6 | 57:39:22 | 08:34:32 | 259447 | 298028
All Tracks
Filename : /Users/Brunslik/Desktop/XLD/The Complete EMI Recordings [Disc 7].flac
CRC32 hash (test run) : D4FFD3CC
CRC32 hash : D4FFD3CC
CRC32 hash (skip zero) : 71D51F8B
Statistics
Read error : 0
Skipped (treated as error) : 0
Edge jitter error (maybe fixed) : 0
Atom jitter error (maybe fixed) : 0
Drift error (maybe fixed) : 0
Dropped bytes error (maybe fixed) : 0
Duplicated bytes error (maybe fixed) : 0
Inconsistency in error sectors : 0
Track 01
CRC32 hash (test run) : 7FA2A650
CRC32 hash : 7FA2A650
CRC32 hash (skip zero) : E08DF773
AccurateRip signature : 38CC45F7
->Track not present in AccurateRip database.
Statistics
Read error : 0
Skipped (treated as error) : 0
Edge jitter error (maybe fixed) : 0
Atom jitter error (maybe fixed) : 0
Drift error (maybe fixed) : 0
Dropped bytes error (maybe fixed) : 0
Duplicated bytes error (maybe fixed) : 0
Inconsistency in error sectors : 0
Track 02
CRC32 hash (test run) : 36E42884
CRC32 hash : 36E42884
CRC32 hash (skip zero) : C57C5CDA
AccurateRip signature : E9E2A780
->Track not present in AccurateRip database.
Statistics
Read error : 0
Skipped (treated as error) : 0
Edge jitter error (maybe fixed) : 0
Atom jitter error (maybe fixed) : 0
Drift error (maybe fixed) : 0
Dropped bytes error (maybe fixed) : 0
Duplicated bytes error (maybe fixed) : 0
Inconsistency in error sectors : 0
Track 03
CRC32 hash (test run) : 1F713FE5
CRC32 hash : 1F713FE5
CRC32 hash (skip zero) : 2365E02C
AccurateRip signature : 6E1D6587
->Track not present in AccurateRip database.
Statistics
Read error : 0
Skipped (treated as error) : 0
Edge jitter error (maybe fixed) : 0
Atom jitter error (maybe fixed) : 0
Drift error (maybe fixed) : 0
Dropped bytes error (maybe fixed) : 0
Duplicated bytes error (maybe fixed) : 0
Inconsistency in error sectors : 0
Track 04
CRC32 hash (test run) : 2A52565B
CRC32 hash : 2A52565B
CRC32 hash (skip zero) : 482B7633
AccurateRip signature : DEA0B7A2
->Track not present in AccurateRip database.
Statistics
Read error : 0
Skipped (treated as error) : 0
Edge jitter error (maybe fixed) : 0
Atom jitter error (maybe fixed) : 0
Drift error (maybe fixed) : 0
Dropped bytes error (maybe fixed) : 0
Duplicated bytes error (maybe fixed) : 0
Inconsistency in error sectors : 0
Track 05
CRC32 hash (test run) : 0FE01179
CRC32 hash : 0FE01179
CRC32 hash (skip zero) : 13068CE7
AccurateRip signature : E60EE85E
->Track not present in AccurateRip database.
Statistics
Read error : 0
Skipped (treated as error) : 0
Edge jitter error (maybe fixed) : 0
Atom jitter error (maybe fixed) : 0
Drift error (maybe fixed) : 0
Dropped bytes error (maybe fixed) : 0
Duplicated bytes error (maybe fixed) : 0
Inconsistency in error sectors : 0
Track 06
CRC32 hash (test run) : 7AB0DDF2
CRC32 hash : 7AB0DDF2
CRC32 hash (skip zero) : C98D4297
AccurateRip signature : 737F31BB
->Track not present in AccurateRip database.
Statistics
Read error : 0
Skipped (treated as error) : 0
Edge jitter error (maybe fixed) : 0
Atom jitter error (maybe fixed) : 0
Drift error (maybe fixed) : 0
Dropped bytes error (maybe fixed) : 0
Duplicated bytes error (maybe fixed) : 0
Inconsistency in error sectors : 0
No errors occurred
End of status report


Disc 8
X Lossless Decoder version 20080926 (93.3)
XLD extraction logfile from 2008-09-28 18:48:45 +0100
David Oistrakh / Prokofiev: Violin Concertos #1 & 2, Violin Sonata #2
Used drive : MATSHITA DVD-R UJ-85J (revision FCQA)
Use cdparanoia mode : YES (CDParanoia III 10.2 engine)
Disable audio cache : OK for the drive with cache less than 2750KB
Make use of C2 pointers : NO
Read offset correction : 102
Max retry count : 100
TOC of the extracted CD
Track | Start | Length | Start sector | End sector
––––––––––––––––––––––––––––-
1 | 00:00:00 | 09:47:11 | 0 | 44035
2 | 09:47:11 | 03:50:35 | 44036 | 61320
3 | 13:37:46 | 07:48:24 | 61321 | 96444
4 | 21:25:70 | 11:01:30 | 96445 | 146049
5 | 32:27:25 | 10:27:39 | 146050 | 193113
6 | 42:54:64 | 06:24:32 | 193114 | 221945
7 | 49:19:21 | 07:41:10 | 221946 | 256530
8 | 57:00:31 | 04:43:70 | 256531 | 277825
9 | 61:44:26 | 03:52:10 | 277826 | 295235
10 | 65:36:36 | 07:16:48 | 295236 | 327983
All Tracks
Filename : /Users/Brunslik/Desktop/XLD/Prokofiev: Violin Concertos #1 & 2, Violin Sonata #2.flac
CRC32 hash (test run) : A89447DF
CRC32 hash : A89447DF
CRC32 hash (skip zero) : F50B0F4E
Statistics
Read error : 0
Skipped (treated as error) : 0
Edge jitter error (maybe fixed) : 0
Atom jitter error (maybe fixed) : 0
Drift error (maybe fixed) : 0
Dropped bytes error (maybe fixed) : 0
Duplicated bytes error (maybe fixed) : 0
Inconsistency in error sectors : 0
Track 01
CRC32 hash (test run) : FB52F2F8
CRC32 hash : FB52F2F8
CRC32 hash (skip zero) : F973717F
AccurateRip signature : FC210D91
->Track not present in AccurateRip database.
Statistics
Read error : 0
Skipped (treated as error) : 0
Edge jitter error (maybe fixed) : 0
Atom jitter error (maybe fixed) : 0
Drift error (maybe fixed) : 0
Dropped bytes error (maybe fixed) : 0
Duplicated bytes error (maybe fixed) : 0
Inconsistency in error sectors : 0
Track 02
CRC32 hash (test run) : 9E414F65
CRC32 hash : 9E414F65
CRC32 hash (skip zero) : 331BF016
AccurateRip signature : 09473594
->Track not present in AccurateRip database.
Statistics
Read error : 0
Skipped (treated as error) : 0
Edge jitter error (maybe fixed) : 0
Atom jitter error (maybe fixed) : 0
Drift error (maybe fixed) : 0
Dropped bytes error (maybe fixed) : 0
Duplicated bytes error (maybe fixed) : 0
Inconsistency in error sectors : 0
Track 03
CRC32 hash (test run) : 426A5B1E
CRC32 hash : 426A5B1E
CRC32 hash (skip zero) : 3CC6CE53
AccurateRip signature : 5256CB8C
->Track not present in AccurateRip database.
Statistics
Read error : 0
Skipped (treated as error) : 0
Edge jitter error (maybe fixed) : 0
Atom jitter error (maybe fixed) : 0
Drift error (maybe fixed) : 0
Dropped bytes error (maybe fixed) : 0
Duplicated bytes error (maybe fixed) : 0
Inconsistency in error sectors : 0
Track 04
CRC32 hash (test run) : 5984F943
CRC32 hash : 5984F943
CRC32 hash (skip zero) : 62497922
AccurateRip signature : 6365C95C
->Track not present in AccurateRip database.
Statistics
Read error : 0
Skipped (treated as error) : 0
Edge jitter error (maybe fixed) : 0
Atom jitter error (maybe fixed) : 0
Drift error (maybe fixed) : 0
Dropped bytes error (maybe fixed) : 0
Duplicated bytes error (maybe fixed) : 0
Inconsistency in error sectors : 0
Track 05
CRC32 hash (test run) : 040A81F3
CRC32 hash : 040A81F3
CRC32 hash (skip zero) : D7639890
AccurateRip signature : 7157D7B6
->Track not present in AccurateRip database.
Statistics
Read error : 0
Skipped (treated as error) : 0
Edge jitter error (maybe fixed) : 0
Atom jitter error (maybe fixed) : 0
Drift error (maybe fixed) : 0
Dropped bytes error (maybe fixed) : 0
Duplicated bytes error (maybe fixed) : 0
Inconsistency in error sectors : 0
Track 06
CRC32 hash (test run) : F7CD20EF
CRC32 hash : F7CD20EF
CRC32 hash (skip zero) : 81352931
AccurateRip signature : EC3BBDE3
->Track not present in AccurateRip database.
Statistics
Read error : 0
Skipped (treated as error) : 0
Edge jitter error (maybe fixed) : 0
Atom jitter error (maybe fixed) : 0
Drift error (maybe fixed) : 0
Dropped bytes error (maybe fixed) : 0
Duplicated bytes error (maybe fixed) : 0
Inconsistency in error sectors : 0
Track 07
CRC32 hash (test run) : 709E4396
CRC32 hash : 709E4396
CRC32 hash (skip zero) : 4DA7C2D7
AccurateRip signature : D5698C50
->Track not present in AccurateRip database.
Statistics
Read error : 0
Skipped (treated as error) : 0
Edge jitter error (maybe fixed) : 0
Atom jitter error (maybe fixed) : 0
Drift error (maybe fixed) : 0
Dropped bytes error (maybe fixed) : 0
Duplicated bytes error (maybe fixed) : 0
Inconsistency in error sectors : 0
Track 08
CRC32 hash (test run) : C96BDDB5
CRC32 hash : C96BDDB5
CRC32 hash (skip zero) : BA2D4F3B
AccurateRip signature : 2B6E7501
->Track not present in AccurateRip database.
Statistics
Read error : 0
Skipped (treated as error) : 0
Edge jitter error (maybe fixed) : 0
Atom jitter error (maybe fixed) : 0
Drift error (maybe fixed) : 0
Dropped bytes error (maybe fixed) : 0
Duplicated bytes error (maybe fixed) : 0
Inconsistency in error sectors : 0
Track 09
CRC32 hash (test run) : D87BEB0D
CRC32 hash : D87BEB0D
CRC32 hash (skip zero) : C16B9F3E
AccurateRip signature : 4398FB60
->Track not present in AccurateRip database.
Statistics
Read error : 0
Skipped (treated as error) : 0
Edge jitter error (maybe fixed) : 0
Atom jitter error (maybe fixed) : 0
Drift error (maybe fixed) : 0
Dropped bytes error (maybe fixed) : 0
Duplicated bytes error (maybe fixed) : 0
Inconsistency in error sectors : 0
Track 10
CRC32 hash (test run) : 9C1CA83E
CRC32 hash : 9C1CA83E
CRC32 hash (skip zero) : 68BE8E4D
AccurateRip signature : C2FB3126
->Track not present in AccurateRip database.
Statistics
Read error : 0
Skipped (treated as error) : 0
Edge jitter error (maybe fixed) : 0
Atom jitter error (maybe fixed) : 0
Drift error (maybe fixed) : 0
Dropped bytes error (maybe fixed) : 0
Duplicated bytes error (maybe fixed) : 0
Inconsistency in error sectors : 0
No errors occurred
End of status report


Disc 9
X Lossless Decoder version 20080926 (93.3)
XLD extraction logfile from 2008-09-28 17:57:03 +0100
Oistrakh David, Oistrakh Igor, Berliner Philharmoniker - Oistrakh David / David Oistrakh - Complete EMI Recordings
Used drive : MATSHITA DVD-R UJ-85J (revision FCQA)
Use cdparanoia mode : YES (CDParanoia III 10.2 engine)
Disable audio cache : OK for the drive with cache less than 2750KB
Make use of C2 pointers : NO
Read offset correction : 102
Max retry count : 100
TOC of the extracted CD
Track | Start | Length | Start sector | End sector
––––––––––––––––––––––––––––-
1 | 00:00:32 | 08:05:48 | 32 | 36454
2 | 08:06:05 | 08:38:62 | 36455 | 75366
3 | 16:44:67 | 06:00:47 | 75367 | 102413
4 | 22:45:39 | 08:17:30 | 102414 | 139718
5 | 31:02:69 | 07:50:53 | 139719 | 175021
6 | 38:53:47 | 04:58:68 | 175022 | 197439
7 | 43:52:40 | 13:25:25 | 197440 | 257839
8 | 57:17:65 | 11:57:39 | 257840 | 311653
9 | 69:15:29 | 06:11:14 | 311654 | 339492
All Tracks
Filename : /Users/Brunslik/Desktop/XLD/David Oistrakh - Complete EMI Recordings.flac
CRC32 hash (test run) : 70EECF9D
CRC32 hash : 70EECF9D
CRC32 hash (skip zero) : B6B46B5E
Statistics
Read error : 0
Skipped (treated as error) : 0
Edge jitter error (maybe fixed) : 2
Atom jitter error (maybe fixed) : 2
Drift error (maybe fixed) : 0
Dropped bytes error (maybe fixed) : 0
Duplicated bytes error (maybe fixed) : 0
Inconsistency in error sectors : 0
Track 01
CRC32 hash (test run) : B7CDEB9A
CRC32 hash : B7CDEB9A
CRC32 hash (skip zero) : 0DC94672
AccurateRip signature : FF854074
->Track not present in AccurateRip database.
Statistics
Read error : 0
Skipped (treated as error) : 0
Edge jitter error (maybe fixed) : 0
Atom jitter error (maybe fixed) : 0
Drift error (maybe fixed) : 0
Dropped bytes error (maybe fixed) : 0
Duplicated bytes error (maybe fixed) : 0
Inconsistency in error sectors : 0
Track 02
CRC32 hash (test run) : 11B470DE
CRC32 hash : 11B470DE
CRC32 hash (skip zero) : F679C6CD
AccurateRip signature : 8A593961
->Track not present in AccurateRip database.
Statistics
Read error : 0
Skipped (treated as error) : 0
Edge jitter error (maybe fixed) : 0
Atom jitter error (maybe fixed) : 0
Drift error (maybe fixed) : 0
Dropped bytes error (maybe fixed) : 0
Duplicated bytes error (maybe fixed) : 0
Inconsistency in error sectors : 0
Track 03
CRC32 hash (test run) : 80B1EA23
CRC32 hash : 80B1EA23
CRC32 hash (skip zero) : 4618DBF6
AccurateRip signature : 1DF63DF3
->Track not present in AccurateRip database.
Statistics
Read error : 0
Skipped (treated as error) : 0
Edge jitter error (maybe fixed) : 1
Atom jitter error (maybe fixed) : 1
Drift error (maybe fixed) : 0
Dropped bytes error (maybe fixed) : 0
Duplicated bytes error (maybe fixed) : 0
Inconsistency in error sectors : 0
Track 04
CRC32 hash (test run) : 1FD37823
CRC32 hash : 1FD37823
CRC32 hash (skip zero) : F232F91E
AccurateRip signature : 9186522F
->Track not present in AccurateRip database.
Statistics
Read error : 0
Skipped (treated as error) : 0
Edge jitter error (maybe fixed) : 0
Atom jitter error (maybe fixed) : 0
Drift error (maybe fixed) : 0
Dropped bytes error (maybe fixed) : 0
Duplicated bytes error (maybe fixed) : 0
Inconsistency in error sectors : 0
Track 05
CRC32 hash (test run) : B4733AB6
CRC32 hash : B4733AB6
CRC32 hash (skip zero) : DA0CB763
AccurateRip signature : 1B90BB33
->Track not present in AccurateRip database.
Statistics
Read error : 0
Skipped (treated as error) : 0
Edge jitter error (maybe fixed) : 0
Atom jitter error (maybe fixed) : 0
Drift error (maybe fixed) : 0
Dropped bytes error (maybe fixed) : 0
Duplicated bytes error (maybe fixed) : 0
Inconsistency in error sectors : 0
Track 06
CRC32 hash (test run) : 89DC3985
CRC32 hash : 89DC3985
CRC32 hash (skip zero) : A2A72779
AccurateRip signature : 3DDA74D5
->Track not present in AccurateRip database.
Statistics
Read error : 0
Skipped (treated as error) : 0
Edge jitter error (maybe fixed) : 0
Atom jitter error (maybe fixed) : 0
Drift error (maybe fixed) : 0
Dropped bytes error (maybe fixed) : 0
Duplicated bytes error (maybe fixed) : 0
Inconsistency in error sectors : 0
Track 07
CRC32 hash (test run) : 6DF1787D
CRC32 hash : 6DF1787D
CRC32 hash (skip zero) : 422196CE
AccurateRip signature : 190B9F9D
->Track not present in AccurateRip database.
Statistics
Read error : 0
Skipped (treated as error) : 0
Edge jitter error (maybe fixed) : 1
Atom jitter error (maybe fixed) : 1
Drift error (maybe fixed) : 0
Dropped bytes error (maybe fixed) : 0
Duplicated bytes error (maybe fixed) : 0
Inconsistency in error sectors : 0
Track 08
CRC32 hash (test run) : D3AB7E2B
CRC32 hash : D3AB7E2B
CRC32 hash (skip zero) : C27A3512
AccurateRip signature : 2CDE432E
->Track not present in AccurateRip database.
Statistics
Read error : 0
Skipped (treated as error) : 0
Edge jitter error (maybe fixed) : 0
Atom jitter error (maybe fixed) : 0
Drift error (maybe fixed) : 0
Dropped bytes error (maybe fixed) : 0
Duplicated bytes error (maybe fixed) : 0
Inconsistency in error sectors : 0
Track 09
CRC32 hash (test run) : 2B09BF10
CRC32 hash : 2B09BF10
CRC32 hash (skip zero) : 319EAED4
AccurateRip signature : 3F31249A
->Track not present in AccurateRip database.
Statistics
Read error : 0
Skipped (treated as error) : 0
Edge jitter error (maybe fixed) : 0
Atom jitter error (maybe fixed) : 0
Drift error (maybe fixed) : 0
Dropped bytes error (maybe fixed) : 0
Duplicated bytes error (maybe fixed) : 0
Inconsistency in error sectors : 0
No errors occurred
End of status report


Disc 10
X Lossless Decoder version 20080926 (93.3)
XLD extraction logfile from 2008-09-28 15:55:21 +0100
David Oistrakh: Berliner Philharmoniker / The Complete EMI Recordings (Disc 10)
Used drive : MATSHITA DVD-R UJ-85J (revision FCQA)
Use cdparanoia mode : YES (CDParanoia III 10.2 engine)
Disable audio cache : OK for the drive with cache less than 2750KB
Make use of C2 pointers : NO
Read offset correction : 102
Max retry count : 100
TOC of the extracted CD
Track | Start | Length | Start sector | End sector
––––––––––––––––––––––––––––-
1 | 00:00:33 | 09:24:37 | 33 | 42369
2 | 09:24:70 | 08:01:73 | 42370 | 78517
3 | 17:26:68 | 08:03:42 | 78518 | 114784
4 | 25:30:35 | 09:43:63 | 114785 | 158572
5 | 35:14:23 | 11:17:05 | 158573 | 209352
6 | 46:31:28 | 09:42:30 | 209353 | 253032
7 | 56:13:58 | 08:18:01 | 253033 | 290383
8 | 64:31:59 | 06:39:32 | 290384 | 320340
9 | 71:11:16 | 06:13:02 | 320341 | 348317
All Tracks
Filename : /Users/Brunslik/Desktop/XLD/The Complete EMI Recordings (Disc 10).flac
CRC32 hash (test run) : 48344BF6
CRC32 hash : 48344BF6
CRC32 hash (skip zero) : 42787262
Statistics
Read error : 0
Skipped (treated as error) : 0
Edge jitter error (maybe fixed) : 0
Atom jitter error (maybe fixed) : 1
Drift error (maybe fixed) : 0
Dropped bytes error (maybe fixed) : 0
Duplicated bytes error (maybe fixed) : 0
Inconsistency in error sectors : 0
Track 01
CRC32 hash (test run) : 9C42AFBA
CRC32 hash : 9C42AFBA
CRC32 hash (skip zero) : 5A114D12
AccurateRip signature : F8B1C60E
->Track not present in AccurateRip database.
Statistics
Read error : 0
Skipped (treated as error) : 0
Edge jitter error (maybe fixed) : 0
Atom jitter error (maybe fixed) : 0
Drift error (maybe fixed) : 0
Dropped bytes error (maybe fixed) : 0
Duplicated bytes error (maybe fixed) : 0
Inconsistency in error sectors : 0
Track 02
CRC32 hash (test run) : AD3FED1F
CRC32 hash : AD3FED1F
CRC32 hash (skip zero) : DF911F9D
AccurateRip signature : D11F4998
->Track not present in AccurateRip database.
Statistics
Read error : 0
Skipped (treated as error) : 0
Edge jitter error (maybe fixed) : 0
Atom jitter error (maybe fixed) : 0
Drift error (maybe fixed) : 0
Dropped bytes error (maybe fixed) : 0
Duplicated bytes error (maybe fixed) : 0
Inconsistency in error sectors : 0
Track 03
CRC32 hash (test run) : 0656E592
CRC32 hash : 0656E592
CRC32 hash (skip zero) : CF976AB1
AccurateRip signature : 50563E04
->Track not present in AccurateRip database.
Statistics
Read error : 0
Skipped (treated as error) : 0
Edge jitter error (maybe fixed) : 0
Atom jitter error (maybe fixed) : 1
Drift error (maybe fixed) : 0
Dropped bytes error (maybe fixed) : 0
Duplicated bytes error (maybe fixed) : 0
Inconsistency in error sectors : 0
Track 04
CRC32 hash (test run) : 206D0F7B
CRC32 hash : 206D0F7B
CRC32 hash (skip zero) : 85AB1FAD
AccurateRip signature : C55E0EC0
->Track not present in AccurateRip database.
Statistics
Read error : 0
Skipped (treated as error) : 0
Edge jitter error (maybe fixed) : 0
Atom jitter error (maybe fixed) : 0
Drift error (maybe fixed) : 0
Dropped bytes error (maybe fixed) : 0
Duplicated bytes error (maybe fixed) : 0
Inconsistency in error sectors : 0
Track 05
CRC32 hash (test run) : 22667D80
CRC32 hash : 22667D80
CRC32 hash (skip zero) : 4BDADF96
AccurateRip signature : 7BE34EEE
->Track not present in AccurateRip database.
Statistics
Read error : 0
Skipped (treated as error) : 0
Edge jitter error (maybe fixed) : 0
Atom jitter error (maybe fixed) : 0
Drift error (maybe fixed) : 0
Dropped bytes error (maybe fixed) : 0
Duplicated bytes error (maybe fixed) : 0
Inconsistency in error sectors : 0
Track 06
CRC32 hash (test run) : CD9B8381
CRC32 hash : CD9B8381
CRC32 hash (skip zero) : C4CF6929
AccurateRip signature : EACC8E4B
->Track not present in AccurateRip database.
Statistics
Read error : 0
Skipped (treated as error) : 0
Edge jitter error (maybe fixed) : 0
Atom jitter error (maybe fixed) : 0
Drift error (maybe fixed) : 0
Dropped bytes error (maybe fixed) : 0
Duplicated bytes error (maybe fixed) : 0
Inconsistency in error sectors : 0
Track 07
CRC32 hash (test run) : 225790C3
CRC32 hash : 225790C3
CRC32 hash (skip zero) : 339182FF
AccurateRip signature : 7C7DDD84
->Track not present in AccurateRip database.
Statistics
Read error : 0
Skipped (treated as error) : 0
Edge jitter error (maybe fixed) : 0
Atom jitter error (maybe fixed) : 0
Drift error (maybe fixed) : 0
Dropped bytes error (maybe fixed) : 0
Duplicated bytes error (maybe fixed) : 0
Inconsistency in error sectors : 0
Track 08
CRC32 hash (test run) : 04112C1D
CRC32 hash : 04112C1D
CRC32 hash (skip zero) : 6D3DE666
AccurateRip signature : 3358DFF5
->Track not present in AccurateRip database.
Statistics
Read error : 0
Skipped (treated as error) : 0
Edge jitter error (maybe fixed) : 0
Atom jitter error (maybe fixed) : 0
Drift error (maybe fixed) : 0
Dropped bytes error (maybe fixed) : 0
Duplicated bytes error (maybe fixed) : 0
Inconsistency in error sectors : 0
Track 09
CRC32 hash (test run) : F7355B1A
CRC32 hash : F7355B1A
CRC32 hash (skip zero) : 42777412
AccurateRip signature : AC5F0F04
->Track not present in AccurateRip database.
Statistics
Read error : 0
Skipped (treated as error) : 0
Edge jitter error (maybe fixed) : 0
Atom jitter error (maybe fixed) : 0
Drift error (maybe fixed) : 0
Dropped bytes error (maybe fixed) : 0
Duplicated bytes error (maybe fixed) : 0
Inconsistency in error sectors : 0
No errors occurred
End of status report


Disc 11
X Lossless Decoder version 20080926 (93.3)
XLD extraction logfile from 2008-09-28 11:38:20 +0100
David Oistrakh / The Complete EMI Recordings [Disc 11]
Used drive : MATSHITA DVD-R UJ-85J (revision FCQA)
Use cdparanoia mode : YES (CDParanoia III 10.2 engine)
Disable audio cache : OK for the drive with cache less than 2750KB
Make use of C2 pointers : NO
Read offset correction : 102
Max retry count : 100
TOC of the extracted CD
Track | Start | Length | Start sector | End sector
––––––––––––––––––––––––––––-
1 | 00:00:00 | 08:52:53 | 0 | 39952
2 | 08:52:53 | 08:36:28 | 39953 | 78680
3 | 17:29:06 | 06:36:31 | 78681 | 108411
4 | 24:05:37 | 08:48:60 | 108412 | 148071
5 | 32:54:22 | 10:53:22 | 148072 | 197068
6 | 43:47:44 | 09:15:61 | 197069 | 238754
All Tracks
Filename : /Users/Brunslik/Desktop/XLD/The Complete EMI Recordings [Disc 11].flac
CRC32 hash (test run) : 7334D1B1
CRC32 hash : 7334D1B1
CRC32 hash (skip zero) : BCB40D19
Statistics
Read error : 0
Skipped (treated as error) : 0
Edge jitter error (maybe fixed) : 0
Atom jitter error (maybe fixed) : 0
Drift error (maybe fixed) : 0
Dropped bytes error (maybe fixed) : 0
Duplicated bytes error (maybe fixed) : 0
Inconsistency in error sectors : 0
Track 01
CRC32 hash (test run) : FAEB9400
CRC32 hash : FAEB9400
CRC32 hash (skip zero) : EE2FEFA0
AccurateRip signature : E3555E09
->Track not present in AccurateRip database.
Statistics
Read error : 0
Skipped (treated as error) : 0
Edge jitter error (maybe fixed) : 0
Atom jitter error (maybe fixed) : 0
Drift error (maybe fixed) : 0
Dropped bytes error (maybe fixed) : 0
Duplicated bytes error (maybe fixed) : 0
Inconsistency in error sectors : 0
Track 02
CRC32 hash (test run) : 09402589
CRC32 hash : 09402589
CRC32 hash (skip zero) : 65BDB141
AccurateRip signature : CA579113
->Track not present in AccurateRip database.
Statistics
Read error : 0
Skipped (treated as error) : 0
Edge jitter error (maybe fixed) : 0
Atom jitter error (maybe fixed) : 0
Drift error (maybe fixed) : 0
Dropped bytes error (maybe fixed) : 0
Duplicated bytes error (maybe fixed) : 0
Inconsistency in error sectors : 0
Track 03
CRC32 hash (test run) : 80E203DE
CRC32 hash : 80E203DE
CRC32 hash (skip zero) : 737BF996
AccurateRip signature : 6AB0D26D
->Track not present in AccurateRip database.
Statistics
Read error : 0
Skipped (treated as error) : 0
Edge jitter error (maybe fixed) : 0
Atom jitter error (maybe fixed) : 0
Drift error (maybe fixed) : 0
Dropped bytes error (maybe fixed) : 0
Duplicated bytes error (maybe fixed) : 0
Inconsistency in error sectors : 0
Track 04
CRC32 hash (test run) : 4C88B4B0
CRC32 hash : 4C88B4B0
CRC32 hash (skip zero) : A32573F6
AccurateRip signature : B8F91006
->Track not present in AccurateRip database.
Statistics
Read error : 0
Skipped (treated as error) : 0
Edge jitter error (maybe fixed) : 0
Atom jitter error (maybe fixed) : 0
Drift error (maybe fixed) : 0
Dropped bytes error (maybe fixed) : 0
Duplicated bytes error (maybe fixed) : 0
Inconsistency in error sectors : 0
Track 05
CRC32 hash (test run) : CEF67E92
CRC32 hash : CEF67E92
CRC32 hash (skip zero) : 9822D8B5
AccurateRip signature : 63DFFAD2
->Track not present in AccurateRip database.
Statistics
Read error : 0
Skipped (treated as error) : 0
Edge jitter error (maybe fixed) : 0
Atom jitter error (maybe fixed) : 0
Drift error (maybe fixed) : 0
Dropped bytes error (maybe fixed) : 0
Duplicated bytes error (maybe fixed) : 0
Inconsistency in error sectors : 0
Track 06
CRC32 hash (test run) : E546734F
CRC32 hash : E546734F
CRC32 hash (skip zero) : 234B22BE
AccurateRip signature : DAEE7AB9
->Track not present in AccurateRip database.
Statistics
Read error : 0
Skipped (treated as error) : 0
Edge jitter error (maybe fixed) : 0
Atom jitter error (maybe fixed) : 0
Drift error (maybe fixed) : 0
Dropped bytes error (maybe fixed) : 0
Duplicated bytes error (maybe fixed) : 0
Inconsistency in error sectors : 0
No errors occurred
End of status report


Disc 12
X Lossless Decoder version 20080926 (93.3)
XLD extraction logfile from 2008-09-28 08:56:44 +0100
David Oistrakh / The Complete EMI Recordings [Disc 12]
Used drive : MATSHITA DVD-R UJ-85J (revision FCQA)
Use cdparanoia mode : YES (CDParanoia III 10.2 engine)
Disable audio cache : OK for the drive with cache less than 2750KB
Make use of C2 pointers : NO
Read offset correction : 102
Max retry count : 100
TOC of the extracted CD
Track | Start | Length | Start sector | End sector
––––––––––––––––––––––––––––-
1 | 00:00:00 | 08:29:30 | 0 | 38204
2 | 08:29:30 | 04:39:73 | 38205 | 59202
3 | 13:09:28 | 06:06:34 | 59203 | 86686
4 | 19:15:62 | 07:32:45 | 86687 | 120631
5 | 26:48:32 | 08:44:31 | 120632 | 159962
6 | 35:32:63 | 08:35:50 | 159963 | 198637
7 | 44:08:38 | 08:39:32 | 198638 | 237594
8 | 52:47:70 | 07:19:44 | 237595 | 270563
All Tracks
Filename : /Users/Brunslik/Desktop/XLD/The Complete EMI Recordings [Disc 12].flac
CRC32 hash (test run) : B854FF64
CRC32 hash : B854FF64
CRC32 hash (skip zero) : 00296CF4
Statistics
Read error : 0
Skipped (treated as error) : 0
Edge jitter error (maybe fixed) : 0
Atom jitter error (maybe fixed) : 0
Drift error (maybe fixed) : 0
Dropped bytes error (maybe fixed) : 0
Duplicated bytes error (maybe fixed) : 0
Inconsistency in error sectors : 0
Track 01
CRC32 hash (test run) : AAFF9E15
CRC32 hash : AAFF9E15
CRC32 hash (skip zero) : 2415E046
AccurateRip signature : 41303394
->Track not present in AccurateRip database.
Statistics
Read error : 0
Skipped (treated as error) : 0
Edge jitter error (maybe fixed) : 0
Atom jitter error (maybe fixed) : 0
Drift error (maybe fixed) : 0
Dropped bytes error (maybe fixed) : 0
Duplicated bytes error (maybe fixed) : 0
Inconsistency in error sectors : 0
Track 02
CRC32 hash (test run) : 04764AC5
CRC32 hash : 04764AC5
CRC32 hash (skip zero) : A6F4300B
AccurateRip signature : 80FC24F9
->Track not present in AccurateRip database.
Statistics
Read error : 0
Skipped (treated as error) : 0
Edge jitter error (maybe fixed) : 0
Atom jitter error (maybe fixed) : 0
Drift error (maybe fixed) : 0
Dropped bytes error (maybe fixed) : 0
Duplicated bytes error (maybe fixed) : 0
Inconsistency in error sectors : 0
Track 03
CRC32 hash (test run) : 739AE86B
CRC32 hash : 739AE86B
CRC32 hash (skip zero) : A101BC93
AccurateRip signature : 962CAB45
->Track not present in AccurateRip database.
Statistics
Read error : 0
Skipped (treated as error) : 0
Edge jitter error (maybe fixed) : 0
Atom jitter error (maybe fixed) : 0
Drift error (maybe fixed) : 0
Dropped bytes error (maybe fixed) : 0
Duplicated bytes error (maybe fixed) : 0
Inconsistency in error sectors : 0
Track 04
CRC32 hash (test run) : 963B05EF
CRC32 hash : 963B05EF
CRC32 hash (skip zero) : 32EC14C0
AccurateRip signature : B4710BD8
->Track not present in AccurateRip database.
Statistics
Read error : 0
Skipped (treated as error) : 0
Edge jitter error (maybe fixed) : 0
Atom jitter error (maybe fixed) : 0
Drift error (maybe fixed) : 0
Dropped bytes error (maybe fixed) : 0
Duplicated bytes error (maybe fixed) : 0
Inconsistency in error sectors : 0
Track 05
CRC32 hash (test run) : 7B4CD78C
CRC32 hash : 7B4CD78C
CRC32 hash (skip zero) : F969EF5C
AccurateRip signature : 1AD67E1E
->Track not present in AccurateRip database.
Statistics
Read error : 0
Skipped (treated as error) : 0
Edge jitter error (maybe fixed) : 0
Atom jitter error (maybe fixed) : 0
Drift error (maybe fixed) : 0
Dropped bytes error (maybe fixed) : 0
Duplicated bytes error (maybe fixed) : 0
Inconsistency in error sectors : 0
Track 06
CRC32 hash (test run) : 9B6FA2EC
CRC32 hash : 9B6FA2EC
CRC32 hash (skip zero) : F8C5CCF2
AccurateRip signature : EE2CE9AC
->Track not present in AccurateRip database.
Statistics
Read error : 0
Skipped (treated as error) : 0
Edge jitter error (maybe fixed) : 0
Atom jitter error (maybe fixed) : 0
Drift error (maybe fixed) : 0
Dropped bytes error (maybe fixed) : 0
Duplicated bytes error (maybe fixed) : 0
Inconsistency in error sectors : 0
Track 07
CRC32 hash (test run) : ECDADCB3
CRC32 hash : ECDADCB3
CRC32 hash (skip zero) : 5E3126A4
AccurateRip signature : 9BF0B0E2
->Track not present in AccurateRip database.
Statistics
Read error : 0
Skipped (treated as error) : 0
Edge jitter error (maybe fixed) : 0
Atom jitter error (maybe fixed) : 0
Drift error (maybe fixed) : 0
Dropped bytes error (maybe fixed) : 0
Duplicated bytes error (maybe fixed) : 0
Inconsistency in error sectors : 0
Track 08
CRC32 hash (test run) : B6C919A5
CRC32 hash : B6C919A5
CRC32 hash (skip zero) : E8EF4328
AccurateRip signature : 1807F48E
->Track not present in AccurateRip database.
Statistics
Read error : 0
Skipped (treated as error) : 0
Edge jitter error (maybe fixed) : 0
Atom jitter error (maybe fixed) : 0
Drift error (maybe fixed) : 0
Dropped bytes error (maybe fixed) : 0
Duplicated bytes error (maybe fixed) : 0
Inconsistency in error sectors : 0
No errors occurred
End of status report


Disc 13
X Lossless Decoder version 20080926 (93.3)
XLD extraction logfile from 2008-09-28 03:22:46 +0100
David Oistrakh / The Complete EMI Recordings [Disc 13]
Used drive : MATSHITA DVD-R UJ-85J (revision FCQA)
Use cdparanoia mode : YES (CDParanoia III 10.2 engine)
Disable audio cache : OK for the drive with cache less than 2750KB
Make use of C2 pointers : NO
Read offset correction : 102
Max retry count : 100
TOC of the extracted CD
Track | Start | Length | Start sector | End sector
––––––––––––––––––––––––––––-
1 | 00:00:00 | 11:17:12 | 0 | 50786
2 | 11:17:12 | 06:34:10 | 50787 | 80346
3 | 17:51:22 | 12:57:74 | 80347 | 138695
4 | 30:49:21 | 05:06:45 | 138696 | 161690
5 | 35:55:66 | 14:07:30 | 161691 | 225245
6 | 50:03:21 | 12:03:04 | 225246 | 279474
7 | 62:06:25 | 09:26:08 | 279475 | 321932
All Tracks
Filename : /Users/Brunslik/Desktop/XLD/The Complete EMI Recordings [Disc 13].flac
CRC32 hash (test run) : 480D43E0
CRC32 hash : 480D43E0
CRC32 hash (skip zero) : 062501C1
Statistics
Read error : 0
Skipped (treated as error) : 0
Edge jitter error (maybe fixed) : 0
Atom jitter error (maybe fixed) : 0
Drift error (maybe fixed) : 0
Dropped bytes error (maybe fixed) : 0
Duplicated bytes error (maybe fixed) : 0
Inconsistency in error sectors : 0
Track 01
CRC32 hash (test run) : F062F8A9
CRC32 hash : F062F8A9
CRC32 hash (skip zero) : 95D002A1
AccurateRip signature : 942A56E4
->Track not present in AccurateRip database.
Statistics
Read error : 0
Skipped (treated as error) : 0
Edge jitter error (maybe fixed) : 0
Atom jitter error (maybe fixed) : 0
Drift error (maybe fixed) : 0
Dropped bytes error (maybe fixed) : 0
Duplicated bytes error (maybe fixed) : 0
Inconsistency in error sectors : 0
Track 02
CRC32 hash (test run) : C29EC11C
CRC32 hash : C29EC11C
CRC32 hash (skip zero) : 6E3D5DCB
AccurateRip signature : 1691C810
->Track not present in AccurateRip database.
Statistics
Read error : 0
Skipped (treated as error) : 0
Edge jitter error (maybe fixed) : 0
Atom jitter error (maybe fixed) : 0
Drift error (maybe fixed) : 0
Dropped bytes error (maybe fixed) : 0
Duplicated bytes error (maybe fixed) : 0
Inconsistency in error sectors : 0
Track 03
CRC32 hash (test run) : 86A55F89
CRC32 hash : 86A55F89
CRC32 hash (skip zero) : CCFB72A1
AccurateRip signature : ECADB4BC
->Track not present in AccurateRip database.
Statistics
Read error : 0
Skipped (treated as error) : 0
Edge jitter error (maybe fixed) : 0
Atom jitter error (maybe fixed) : 0
Drift error (maybe fixed) : 0
Dropped bytes error (maybe fixed) : 0
Duplicated bytes error (maybe fixed) : 0
Inconsistency in error sectors : 0
Track 04
CRC32 hash (test run) : EAD82A2D
CRC32 hash : EAD82A2D
CRC32 hash (skip zero) : 263E94BF
AccurateRip signature : B1E1EF42
->Track not present in AccurateRip database.
Statistics
Read error : 0
Skipped (treated as error) : 0
Edge jitter error (maybe fixed) : 0
Atom jitter error (maybe fixed) : 0
Drift error (maybe fixed) : 0
Dropped bytes error (maybe fixed) : 0
Duplicated bytes error (maybe fixed) : 0
Inconsistency in error sectors : 0
Track 05
CRC32 hash (test run) : 18B722D6
CRC32 hash : 18B722D6
CRC32 hash (skip zero) : A1329A0F
AccurateRip signature : AA611398
->Track not present in AccurateRip database.
Statistics
Read error : 0
Skipped (treated as error) : 0
Edge jitter error (maybe fixed) : 0
Atom jitter error (maybe fixed) : 0
Drift error (maybe fixed) : 0
Dropped bytes error (maybe fixed) : 0
Duplicated bytes error (maybe fixed) : 0
Inconsistency in error sectors : 0
Track 06
CRC32 hash (test run) : F66D7B31
CRC32 hash : F66D7B31
CRC32 hash (skip zero) : 51FABA6E
AccurateRip signature : F0169BEC
->Track not present in AccurateRip database.
Statistics
Read error : 0
Skipped (treated as error) : 0
Edge jitter error (maybe fixed) : 0
Atom jitter error (maybe fixed) : 0
Drift error (maybe fixed) : 0
Dropped bytes error (maybe fixed) : 0
Duplicated bytes error (maybe fixed) : 0
Inconsistency in error sectors : 0
Track 07
CRC32 hash (test run) : 761DAC74
CRC32 hash : 761DAC74
CRC32 hash (skip zero) : 883F13D0
AccurateRip signature : 8770E458
->Track not present in AccurateRip database.
Statistics
Read error : 0
Skipped (treated as error) : 0
Edge jitter error (maybe fixed) : 0
Atom jitter error (maybe fixed) : 0
Drift error (maybe fixed) : 0
Dropped bytes error (maybe fixed) : 0
Duplicated bytes error (maybe fixed) : 0
Inconsistency in error sectors : 0
No errors occurred
End of status report


Disc 14
X Lossless Decoder version 20080926 (93.3)
XLD extraction logfile from 2008-09-28 01:28:49 +0100
David Oistrakh / The Complete EMI Recordings (Disc 14)
Used drive : MATSHITA DVD-R UJ-85J (revision FCQA)
Use cdparanoia mode : YES (CDParanoia III 10.2 engine)
Disable audio cache : OK for the drive with cache less than 2750KB
Make use of C2 pointers : NO
Read offset correction : 102
Max retry count : 100
TOC of the extracted CD
Track | Start | Length | Start sector | End sector
––––––––––––––––––––––––––––-
1 | 00:00:00 | 07:16:26 | 0 | 32725
2 | 07:16:26 | 05:40:57 | 32726 | 58282
3 | 12:57:08 | 08:19:37 | 58283 | 95744
4 | 21:16:45 | 14:52:11 | 95745 | 162655
5 | 36:08:56 | 06:33:52 | 162656 | 192182
6 | 42:42:33 | 06:17:52 | 192183 | 220509
7 | 49:00:10 | 08:45:36 | 220510 | 259920
8 | 57:45:46 | 07:13:71 | 259921 | 292466
9 | 64:59:42 | 06:25:05 | 292467 | 321346
All Tracks
Filename : /Users/Brunslik/Desktop/XLD/The Complete EMI Recordings (Disc 14).flac
CRC32 hash (test run) : ED63EEF8
CRC32 hash : ED63EEF8
CRC32 hash (skip zero) : 6990C34C
Statistics
Read error : 0
Skipped (treated as error) : 0
Edge jitter error (maybe fixed) : 0
Atom jitter error (maybe fixed) : 0
Drift error (maybe fixed) : 0
Dropped bytes error (maybe fixed) : 0
Duplicated bytes error (maybe fixed) : 0
Inconsistency in error sectors : 0
Track 01
CRC32 hash (test run) : 712A4065
CRC32 hash : 712A4065
CRC32 hash (skip zero) : B40E0EFC
AccurateRip signature : E6EB49EC
->Track not present in AccurateRip database.
Statistics
Read error : 0
Skipped (treated as error) : 0
Edge jitter error (maybe fixed) : 0
Atom jitter error (maybe fixed) : 0
Drift error (maybe fixed) : 0
Dropped bytes error (maybe fixed) : 0
Duplicated bytes error (maybe fixed) : 0
Inconsistency in error sectors : 0
Track 02
CRC32 hash (test run) : 96178059
CRC32 hash : 96178059
CRC32 hash (skip zero) : 009F79F5
AccurateRip signature : 36A97B04
->Track not present in AccurateRip database.
Statistics
Read error : 0
Skipped (treated as error) : 0
Edge jitter error (maybe fixed) : 0
Atom jitter error (maybe fixed) : 0
Drift error (maybe fixed) : 0
Dropped bytes error (maybe fixed) : 0
Duplicated bytes error (maybe fixed) : 0
Inconsistency in error sectors : 0
Track 03
CRC32 hash (test run) : DE7128EF
CRC32 hash : DE7128EF
CRC32 hash (skip zero) : 5B0F1FAC
AccurateRip signature : 41F7288A
->Track not present in AccurateRip database.
Statistics
Read error : 0
Skipped (treated as error) : 0
Edge jitter error (maybe fixed) : 0
Atom jitter error (maybe fixed) : 0
Drift error (maybe fixed) : 0
Dropped bytes error (maybe fixed) : 0
Duplicated bytes error (maybe fixed) : 0
Inconsistency in error sectors : 0
Track 04
CRC32 hash (test run) : 17E69042
CRC32 hash : 17E69042
CRC32 hash (skip zero) : 901867CE
AccurateRip signature : EDA4846B
->Track not present in AccurateRip database.
Statistics
Read error : 0
Skipped (treated as error) : 0
Edge jitter error (maybe fixed) : 0
Atom jitter error (maybe fixed) : 0
Drift error (maybe fixed) : 0
Dropped bytes error (maybe fixed) : 0
Duplicated bytes error (maybe fixed) : 0
Inconsistency in error sectors : 0
Track 05
CRC32 hash (test run) : 0E607801
CRC32 hash : 0E607801
CRC32 hash (skip zero) : 849CA243
AccurateRip signature : C694B8BE
->Track not present in AccurateRip database.
Statistics
Read error : 0
Skipped (treated as error) : 0
Edge jitter error (maybe fixed) : 0
Atom jitter error (maybe fixed) : 0
Drift error (maybe fixed) : 0
Dropped bytes error (maybe fixed) : 0
Duplicated bytes error (maybe fixed) : 0
Inconsistency in error sectors : 0
Track 06
CRC32 hash (test run) : C73AB36C
CRC32 hash : C73AB36C
CRC32 hash (skip zero) : 5BA4D0E2
AccurateRip signature : D8A8D935
->Track not present in AccurateRip database.
Statistics
Read error : 0
Skipped (treated as error) : 0
Edge jitter error (maybe fixed) : 0
Atom jitter error (maybe fixed) : 0
Drift error (maybe fixed) : 0
Dropped bytes error (maybe fixed) : 0
Duplicated bytes error (maybe fixed) : 0
Inconsistency in error sectors : 0
Track 07
CRC32 hash (test run) : 70D1A8D0
CRC32 hash : 70D1A8D0
CRC32 hash (skip zero) : 017D6B34
AccurateRip signature : EEEF4779
->Track not present in AccurateRip database.
Statistics
Read error : 0
Skipped (treated as error) : 0
Edge jitter error (maybe fixed) : 0
Atom jitter error (maybe fixed) : 0
Drift error (maybe fixed) : 0
Dropped bytes error (maybe fixed) : 0
Duplicated bytes error (maybe fixed) : 0
Inconsistency in error sectors : 0
Track 08
CRC32 hash (test run) : 3113FD84
CRC32 hash : 3113FD84
CRC32 hash (skip zero) : 8CB227F5
AccurateRip signature : 0F6C765A
->Track not present in AccurateRip database.
Statistics
Read error : 0
Skipped (treated as error) : 0
Edge jitter error (maybe fixed) : 0
Atom jitter error (maybe fixed) : 0
Drift error (maybe fixed) : 0
Dropped bytes error (maybe fixed) : 0
Duplicated bytes error (maybe fixed) : 0
Inconsistency in error sectors : 0
Track 09
CRC32 hash (test run) : 1762442E
CRC32 hash : 1762442E
CRC32 hash (skip zero) : 40FA9D1C
AccurateRip signature : EDEF8117
->Track not present in AccurateRip database.
Statistics
Read error : 0
Skipped (treated as error) : 0
Edge jitter error (maybe fixed) : 0
Atom jitter error (maybe fixed) : 0
Drift error (maybe fixed) : 0
Dropped bytes error (maybe fixed) : 0
Duplicated bytes error (maybe fixed) : 0
Inconsistency in error sectors : 0
No errors occurred
End of status report


Disc 15
X Lossless Decoder version 20080926 (93.3)
XLD extraction logfile from 2008-09-27 23:42:22 +0100
David Oistrakh / Vladimir Yampolsky(Piano) / The Complete EMI Recordings [Disc 15]
Used drive : MATSHITA DVD-R UJ-85J (revision FCQA)
Use cdparanoia mode : YES (CDParanoia III 10.2 engine)
Disable audio cache : OK for the drive with cache less than 2750KB
Make use of C2 pointers : NO
Read offset correction : 102
Max retry count : 100
TOC of the extracted CD
Track | Start | Length | Start sector | End sector
––––––––––––––––––––––––––––-
1 | 00:00:00 | 09:50:59 | 0 | 44308
2 | 09:50:59 | 06:33:61 | 44309 | 73844
3 | 16:24:45 | 05:32:12 | 73845 | 98756
4 | 21:56:57 | 06:08:03 | 98757 | 126359
5 | 28:04:60 | 04:18:72 | 126360 | 145781
6 | 32:23:57 | 07:27:22 | 145782 | 179328
7 | 39:51:04 | 04:46:17 | 179329 | 200795
8 | 44:37:21 | 04:40:41 | 200796 | 221836
9 | 49:17:62 | 02:59:46 | 221837 | 235307
10 | 52:17:33 | 05:28:57 | 235308 | 259964
11 | 57:46:15 | 09:51:37 | 259965 | 304326
All Tracks
Filename : /Users/Brunslik/Desktop/XLD/The Complete EMI Recordings [Disc 15].flac
CRC32 hash (test run) : 1D10EFF3
CRC32 hash : 1D10EFF3
CRC32 hash (skip zero) : 857E0B94
Statistics
Read error : 0
Skipped (treated as error) : 0
Edge jitter error (maybe fixed) : 0
Atom jitter error (maybe fixed) : 0
Drift error (maybe fixed) : 0
Dropped bytes error (maybe fixed) : 0
Duplicated bytes error (maybe fixed) : 0
Inconsistency in error sectors : 0
Track 01
CRC32 hash (test run) : E02BA9CE
CRC32 hash : E02BA9CE
CRC32 hash (skip zero) : AE67157F
AccurateRip signature : B7F2BC94
->Track not present in AccurateRip database.
Statistics
Read error : 0
Skipped (treated as error) : 0
Edge jitter error (maybe fixed) : 0
Atom jitter error (maybe fixed) : 0
Drift error (maybe fixed) : 0
Dropped bytes error (maybe fixed) : 0
Duplicated bytes error (maybe fixed) : 0
Inconsistency in error sectors : 0
Track 02
CRC32 hash (test run) : 8DB7458A
CRC32 hash : 8DB7458A
CRC32 hash (skip zero) : FCD6F287
AccurateRip signature : 622FEFF1
->Track not present in AccurateRip database.
Statistics
Read error : 0
Skipped (treated as error) : 0
Edge jitter error (maybe fixed) : 0
Atom jitter error (maybe fixed) : 0
Drift error (maybe fixed) : 0
Dropped bytes error (maybe fixed) : 0
Duplicated bytes error (maybe fixed) : 0
Inconsistency in error sectors : 0
Track 03
CRC32 hash (test run) : E223B069
CRC32 hash : E223B069
CRC32 hash (skip zero) : D2090823
AccurateRip signature : 405E69ED
->Track not present in AccurateRip database.
Statistics
Read error : 0
Skipped (treated as error) : 0
Edge jitter error (maybe fixed) : 0
Atom jitter error (maybe fixed) : 0
Drift error (maybe fixed) : 0
Dropped bytes error (maybe fixed) : 0
Duplicated bytes error (maybe fixed) : 0
Inconsistency in error sectors : 0
Track 04
CRC32 hash (test run) : 48CDC469
CRC32 hash : 48CDC469
CRC32 hash (skip zero) : 5F1A4480
AccurateRip signature : 3ACF144D
->Track not present in AccurateRip database.
Statistics
Read error : 0
Skipped (treated as error) : 0
Edge jitter error (maybe fixed) : 0
Atom jitter error (maybe fixed) : 0
Drift error (maybe fixed) : 0
Dropped bytes error (maybe fixed) : 0
Duplicated bytes error (maybe fixed) : 0
Inconsistency in error sectors : 0
Track 05
CRC32 hash (test run) : D861A6EB
CRC32 hash : D861A6EB
CRC32 hash (skip zero) : B4852384
AccurateRip signature : 8482A1BF
->Track not present in AccurateRip database.
Statistics
Read error : 0
Skipped (treated as error) : 0
Edge jitter error (maybe fixed) : 0
Atom jitter error (maybe fixed) : 0
Drift error (maybe fixed) : 0
Dropped bytes error (maybe fixed) : 0
Duplicated bytes error (maybe fixed) : 0
Inconsistency in error sectors : 0
Track 06
CRC32 hash (test run) : 4ED983E4
CRC32 hash : 4ED983E4
CRC32 hash (skip zero) : 18341C08
AccurateRip signature : 3343451F
->Track not present in AccurateRip database.
Statistics
Read error : 0
Skipped (treated as error) : 0
Edge jitter error (maybe fixed) : 0
Atom jitter error (maybe fixed) : 0
Drift error (maybe fixed) : 0
Dropped bytes error (maybe fixed) : 0
Duplicated bytes error (maybe fixed) : 0
Inconsistency in error sectors : 0
Track 07
CRC32 hash (test run) : EE5B5181
CRC32 hash : EE5B5181
CRC32 hash (skip zero) : 0AAA2C8F
AccurateRip signature : 84059D5F
->Track not present in AccurateRip database.
Statistics
Read error : 0
Skipped (treated as error) : 0
Edge jitter error (maybe fixed) : 0
Atom jitter error (maybe fixed) : 0
Drift error (maybe fixed) : 0
Dropped bytes error (maybe fixed) : 0
Duplicated bytes error (maybe fixed) : 0
Inconsistency in error sectors : 0
Track 08
CRC32 hash (test run) : 1EABFF98
CRC32 hash : 1EABFF98
CRC32 hash (skip zero) : C3A5F2E2
AccurateRip signature : 9C0F6B81
->Track not present in AccurateRip database.
Statistics
Read error : 0
Skipped (treated as error) : 0
Edge jitter error (maybe fixed) : 0
Atom jitter error (maybe fixed) : 0
Drift error (maybe fixed) : 0
Dropped bytes error (maybe fixed) : 0
Duplicated bytes error (maybe fixed) : 0
Inconsistency in error sectors : 0
Track 09
CRC32 hash (test run) : 7F05CCD2
CRC32 hash : 7F05CCD2
CRC32 hash (skip zero) : 935D1EEB
AccurateRip signature : F873CCD5
->Track not present in AccurateRip database.
Statistics
Read error : 0
Skipped (treated as error) : 0
Edge jitter error (maybe fixed) : 0
Atom jitter error (maybe fixed) : 0
Drift error (maybe fixed) : 0
Dropped bytes error (maybe fixed) : 0
Duplicated bytes error (maybe fixed) : 0
Inconsistency in error sectors : 0
Track 10
CRC32 hash (test run) : B0BCC4F8
CRC32 hash : B0BCC4F8
CRC32 hash (skip zero) : F65951B0
AccurateRip signature : 983D288A
->Track not present in AccurateRip database.
Statistics
Read error : 0
Skipped (treated as error) : 0
Edge jitter error (maybe fixed) : 0
Atom jitter error (maybe fixed) : 0
Drift error (maybe fixed) : 0
Dropped bytes error (maybe fixed) : 0
Duplicated bytes error (maybe fixed) : 0
Inconsistency in error sectors : 0
Track 11
CRC32 hash (test run) : 83CE2425
CRC32 hash : 83CE2425
CRC32 hash (skip zero) : 64ABC521
AccurateRip signature : F37F506A
->Track not present in AccurateRip database.
Statistics
Read error : 0
Skipped (treated as error) : 0
Edge jitter error (maybe fixed) : 0
Atom jitter error (maybe fixed) : 0
Drift error (maybe fixed) : 0
Dropped bytes error (maybe fixed) : 0
Duplicated bytes error (maybe fixed) : 0
Inconsistency in error sectors : 0
No errors occurred
End of status report


ЕАС Disc 16
X Lossless Decoder version 20080926 (93.3)
XLD extraction logfile from 2008-09-27 22:55:07 +0100
David Oistrakh / Oistrakh Complete EMI recordings [Disc 16]
Used drive : MATSHITA DVD-R UJ-85J (revision FCQA)
Use cdparanoia mode : YES (CDParanoia III 10.2 engine)
Disable audio cache : OK for the drive with cache less than 2750KB
Make use of C2 pointers : NO
Read offset correction : 102
Max retry count : 100
TOC of the extracted CD
Track | Start | Length | Start sector | End sector
––––––––––––––––––––––––––––-
1 | 00:00:00 | 10:47:64 | 0 | 48588
2 | 10:47:64 | 10:41:11 | 48589 | 96674
3 | 21:29:00 | 06:48:20 | 96675 | 127294
4 | 28:17:20 | 08:35:16 | 127295 | 165935
5 | 36:52:36 | 07:05:16 | 165936 | 197826
6 | 43:57:52 | 06:34:53 | 197827 | 227429
7 | 50:32:30 | 05:41:26 | 227430 | 253030
8 | 56:13:56 | 02:48:26 | 253031 | 265656
9 | 59:02:07 | 02:50:60 | 265657 | 278466
10 | 61:52:67 | 05:12:23 | 278467 | 301889
11 | 67:05:15 | 02:56:25 | 301890 | 315114
All Tracks
Filename : /Users/Brunslik/Desktop/XLD/Oistrakh Complete EMI recordings [Disc 16].flac
CRC32 hash (test run) : 13DA9B47
CRC32 hash : 13DA9B47
CRC32 hash (skip zero) : 21B47D98
Statistics
Read error : 0
Skipped (treated as error) : 0
Edge jitter error (maybe fixed) : 0
Atom jitter error (maybe fixed) : 0
Drift error (maybe fixed) : 0
Dropped bytes error (maybe fixed) : 0
Duplicated bytes error (maybe fixed) : 0
Inconsistency in error sectors : 0
Track 01
CRC32 hash (test run) : 3316C232
CRC32 hash : 3316C232
CRC32 hash (skip zero) : 16078958
AccurateRip signature : 84C15DA1
->Track not present in AccurateRip database.
Statistics
Read error : 0
Skipped (treated as error) : 0
Edge jitter error (maybe fixed) : 0
Atom jitter error (maybe fixed) : 0
Drift error (maybe fixed) : 0
Dropped bytes error (maybe fixed) : 0
Duplicated bytes error (maybe fixed) : 0
Inconsistency in error sectors : 0
Track 02
CRC32 hash (test run) : 97649E10
CRC32 hash : 97649E10
CRC32 hash (skip zero) : FA681D03
AccurateRip signature : 7D4768DD
->Track not present in AccurateRip database.
Statistics
Read error : 0
Skipped (treated as error) : 0
Edge jitter error (maybe fixed) : 0
Atom jitter error (maybe fixed) : 0
Drift error (maybe fixed) : 0
Dropped bytes error (maybe fixed) : 0
Duplicated bytes error (maybe fixed) : 0
Inconsistency in error sectors : 0
Track 03
CRC32 hash (test run) : 55CBD46A
CRC32 hash : 55CBD46A
CRC32 hash (skip zero) : DE91C19F
AccurateRip signature : 10009C05
->Track not present in AccurateRip database.
Statistics
Read error : 0
Skipped (treated as error) : 0
Edge jitter error (maybe fixed) : 0
Atom jitter error (maybe fixed) : 0
Drift error (maybe fixed) : 0
Dropped bytes error (maybe fixed) : 0
Duplicated bytes error (maybe fixed) : 0
Inconsistency in error sectors : 0
Track 04
CRC32 hash (test run) : 142929EC
CRC32 hash : 142929EC
CRC32 hash (skip zero) : 3739C14E
AccurateRip signature : 9A4ACF3E
->Track not present in AccurateRip database.
Statistics
Read error : 0
Skipped (treated as error) : 0
Edge jitter error (maybe fixed) : 0
Atom jitter error (maybe fixed) : 0
Drift error (maybe fixed) : 0
Dropped bytes error (maybe fixed) : 0
Duplicated bytes error (maybe fixed) : 0
Inconsistency in error sectors : 0
Track 05
CRC32 hash (test run) : 059A7867
CRC32 hash : 059A7867
CRC32 hash (skip zero) : DC84D500
AccurateRip signature : 17B697E1
->Track not present in AccurateRip database.
Statistics
Read error : 0
Skipped (treated as error) : 0
Edge jitter error (maybe fixed) : 0
Atom jitter error (maybe fixed) : 0
Drift error (maybe fixed) : 0
Dropped bytes error (maybe fixed) : 0
Duplicated bytes error (maybe fixed) : 0
Inconsistency in error sectors : 0
Track 06
CRC32 hash (test run) : E25568E1
CRC32 hash : E25568E1
CRC32 hash (skip zero) : 175C2DC0
AccurateRip signature : 5DA2A32F
->Track not present in AccurateRip database.
Statistics
Read error : 0
Skipped (treated as error) : 0
Edge jitter error (maybe fixed) : 0
Atom jitter error (maybe fixed) : 0
Drift error (maybe fixed) : 0
Dropped bytes error (maybe fixed) : 0
Duplicated bytes error (maybe fixed) : 0
Inconsistency in error sectors : 0
Track 07
CRC32 hash (test run) : 7C46C670
CRC32 hash : 7C46C670
CRC32 hash (skip zero) : BDB6D2B8
AccurateRip signature : 4107C2FC
->Track not present in AccurateRip database.
Statistics
Read error : 0
Skipped (treated as error) : 0
Edge jitter error (maybe fixed) : 0
Atom jitter error (maybe fixed) : 0
Drift error (maybe fixed) : 0
Dropped bytes error (maybe fixed) : 0
Duplicated bytes error (maybe fixed) : 0
Inconsistency in error sectors : 0
Track 08
CRC32 hash (test run) : 46570E4A
CRC32 hash : 46570E4A
CRC32 hash (skip zero) : AFBF8D2D
AccurateRip signature : 38ECFA7A
->Track not present in AccurateRip database.
Statistics
Read error : 0
Skipped (treated as error) : 0
Edge jitter error (maybe fixed) : 0
Atom jitter error (maybe fixed) : 0
Drift error (maybe fixed) : 0
Dropped bytes error (maybe fixed) : 0
Duplicated bytes error (maybe fixed) : 0
Inconsistency in error sectors : 0
Track 09
CRC32 hash (test run) : 511D68AD
CRC32 hash : 511D68AD
CRC32 hash (skip zero) : EA3D8FD1
AccurateRip signature : 3E4A29C1
->Track not present in AccurateRip database.
Statistics
Read error : 0
Skipped (treated as error) : 0
Edge jitter error (maybe fixed) : 0
Atom jitter error (maybe fixed) : 0
Drift error (maybe fixed) : 0
Dropped bytes error (maybe fixed) : 0
Duplicated bytes error (maybe fixed) : 0
Inconsistency in error sectors : 0
Track 10
CRC32 hash (test run) : 0BAD30E7
CRC32 hash : 0BAD30E7
CRC32 hash (skip zero) : A0F53D97
AccurateRip signature : AFB6A804
->Track not present in AccurateRip database.
Statistics
Read error : 0
Skipped (treated as error) : 0
Edge jitter error (maybe fixed) : 0
Atom jitter error (maybe fixed) : 0
Drift error (maybe fixed) : 0
Dropped bytes error (maybe fixed) : 0
Duplicated bytes error (maybe fixed) : 0
Inconsistency in error sectors : 0
Track 11
CRC32 hash (test run) : 2637DDDA
CRC32 hash : 2637DDDA
CRC32 hash (skip zero) : 0F46F514
AccurateRip signature : EEF508B6
->Track not present in AccurateRip database.
Statistics
Read error : 0
Skipped (treated as error) : 0
Edge jitter error (maybe fixed) : 0
Atom jitter error (maybe fixed) : 0
Drift error (maybe fixed) : 0
Dropped bytes error (maybe fixed) : 0
Duplicated bytes error (maybe fixed) : 0
Inconsistency in error sectors : 0
No errors occurred
End of status report


CD17
X Lossless Decoder version 20080926 (93.3)
XLD extraction logfile from 2008-09-27 15:06:26 +0100
David Oistrakh, Peter Bondarenko (V), Mikhail Terian (Viola), Sviatoslav Knushevitzky (Cello), Vladimir Sorokin (Clarinet), Joseph Gertovich (Double Bass), Joseph Stidel (Bassoon), Jacov Shapiro (Horn) / The Complete EMI Recordings [Disc 17]
Used drive : MATSHITA DVD-R UJ-85J (revision FCQA)
Use cdparanoia mode : YES (CDParanoia III 10.2 engine)
Disable audio cache : OK for the drive with cache less than 2750KB
Make use of C2 pointers : NO
Read offset correction : 102
Max retry count : 100
TOC of the extracted CD
Track | Start | Length | Start sector | End sector
––––––––––––––––––––––––––––-
1 | 00:00:00 | 11:57:12 | 0 | 53786
2 | 11:57:12 | 12:35:34 | 53787 | 110445
3 | 24:32:46 | 06:00:66 | 110446 | 137511
4 | 30:33:37 | 12:18:12 | 137512 | 192873
5 | 42:51:49 | 07:30:52 | 192874 | 226675
6 | 50:22:26 | 09:37:46 | 226676 | 269996
All Tracks
Filename : /Users/Brunslik/Desktop/XLD/The Complete EMI Recordings [Disc 17].flac
CRC32 hash (test run) : FDF13309
CRC32 hash : FDF13309
CRC32 hash (skip zero) : 900396B3
Statistics
Read error : 0
Skipped (treated as error) : 0
Edge jitter error (maybe fixed) : 0
Atom jitter error (maybe fixed) : 0
Drift error (maybe fixed) : 0
Dropped bytes error (maybe fixed) : 0
Duplicated bytes error (maybe fixed) : 0
Inconsistency in error sectors : 0
Track 01
CRC32 hash (test run) : FA7791AB
CRC32 hash : FA7791AB
CRC32 hash (skip zero) : B7FD4FE8
AccurateRip signature : 5DBA5195
->Track not present in AccurateRip database.
Statistics
Read error : 0
Skipped (treated as error) : 0
Edge jitter error (maybe fixed) : 0
Atom jitter error (maybe fixed) : 0
Drift error (maybe fixed) : 0
Dropped bytes error (maybe fixed) : 0
Duplicated bytes error (maybe fixed) : 0
Inconsistency in error sectors : 0
Track 02
CRC32 hash (test run) : 8A5ADA75
CRC32 hash : 8A5ADA75
CRC32 hash (skip zero) : 5C2DFD71
AccurateRip signature : D8F52EF0
->Track not present in AccurateRip database.
Statistics
Read error : 0
Skipped (treated as error) : 0
Edge jitter error (maybe fixed) : 0
Atom jitter error (maybe fixed) : 0
Drift error (maybe fixed) : 0
Dropped bytes error (maybe fixed) : 0
Duplicated bytes error (maybe fixed) : 0
Inconsistency in error sectors : 0
Track 03
CRC32 hash (test run) : AF6DF5DB
CRC32 hash : AF6DF5DB
CRC32 hash (skip zero) : 84E6825F
AccurateRip signature : 3B1DB191
->Track not present in AccurateRip database.
Statistics
Read error : 0
Skipped (treated as error) : 0
Edge jitter error (maybe fixed) : 0
Atom jitter error (maybe fixed) : 0
Drift error (maybe fixed) : 0
Dropped bytes error (maybe fixed) : 0
Duplicated bytes error (maybe fixed) : 0
Inconsistency in error sectors : 0
Track 04
CRC32 hash (test run) : 0C5752A1
CRC32 hash : 0C5752A1
CRC32 hash (skip zero) : 467D74AE
AccurateRip signature : DDD7F0EC
->Track not present in AccurateRip database.
Statistics
Read error : 0
Skipped (treated as error) : 0
Edge jitter error (maybe fixed) : 0
Atom jitter error (maybe fixed) : 0
Drift error (maybe fixed) : 0
Dropped bytes error (maybe fixed) : 0
Duplicated bytes error (maybe fixed) : 0
Inconsistency in error sectors : 0
Track 05
CRC32 hash (test run) : 31FE8CDE
CRC32 hash : 31FE8CDE
CRC32 hash (skip zero) : C5B193B6
AccurateRip signature : 84DC22D1
->Track not present in AccurateRip database.
Statistics
Read error : 0
Skipped (treated as error) : 0
Edge jitter error (maybe fixed) : 0
Atom jitter error (maybe fixed) : 0
Drift error (maybe fixed) : 0
Dropped bytes error (maybe fixed) : 0
Duplicated bytes error (maybe fixed) : 0
Inconsistency in error sectors : 0
Track 06
CRC32 hash (test run) : 8EF3DD22
CRC32 hash : 8EF3DD22
CRC32 hash (skip zero) : 4F7FE88E
AccurateRip signature : E2931DC9
->Track not present in AccurateRip database.
Statistics
Read error : 0
Skipped (treated as error) : 0
Edge jitter error (maybe fixed) : 0
Atom jitter error (maybe fixed) : 0
Drift error (maybe fixed) : 0
Dropped bytes error (maybe fixed) : 0
Duplicated bytes error (maybe fixed) : 0
Inconsistency in error sectors : 0
No errors occurred
End of status report


Thanks to the original ripper.