Tags
Language
Tags

David Chesky - The Fantasies For Solo Piano (1996) {Chesky Records}

Posted By: tiburon
David Chesky - The Fantasies For Solo Piano (1996) {Chesky Records}

David Chesky - The Fantasies For Solo Piano (1996) {Chesky Records}
EAC 0.99pb5 | FLAC Image | Cue+Log | Full Scans 300dpi | 316MB + 5% Recovery
MP3 CBR 320 Kbps | 167MB + 5% Recovery
Genre: Classical, Jazz
David Chesky - The Fantasies For Solo Piano (1996) {Chesky Records}

Composer-pianist David Chesky has written seven new pieces that draw their inspiration from the Fantasia form. The Fantasia has evolved from its Renaissance roots and has become a vehicle for a composer's freedom of expression, utilizing rhythm, harmony, and improvisatory skill. And David Chesky brilliantly succeeds, not only in remaining faithful to the original concept of Fantasia, but also in creating a new genre of music with these works.
Track List
01. Fantasy No.1
02. Fantasy No.2
03. Choro No.20
04. Fantasy No.3
05. Fantasy No.4
06. Choro No.21
07. Fantasy No.5

David Chesky - piano

Recorded by Bob Katz

This album was made with the purest audio path, using the very best microphones, mic preamps, analog-to-digital converters, recorders, and cables with careful attention to detail to produce the most transparent and natural sound available today.

Produced by David Chesky


Exact Audio Copy V0.99 prebeta 5 from 4. May 2009

Отчёт EAC об извлечении, выполненном 14. октября 2010, 22:13

David Chesky / The Fantasies

Дисковод: HL-DT-STDVDRAM GSA-T40N Adapter: 0 ID: 0

Режим чтения : Достоверность
Использование точного потока : Да
Отключение кэша аудио : Да
Использование указателей C2 : Нет

Коррекция смещения при чтении : 667
Способность читать области Lead-in и Lead-out : Нет
Заполнение пропущенных сэмплов тишиной : Да
Удаление блоков с тишиной в начале и конце : Нет
При вычислениях CRC использовались нулевые сэмплы : Да
Интерфейс : Установленный внешний ASPI-интерфейс

Выходной формат : Внутренние WAV-операции
Формат сэмплов : 44.100 Гц; 16 бит; стерео


TOC извлечённого CD

Трек | Старт | Длительность | Начальный сектор | Конечный сектор
––––––––––––––––––––––––––––––––––-
1 | 0:00.00 | 9:52.52 | 0 | 44451
2 | 9:52.52 | 12:13.73 | 44452 | 99499
3 | 22:06.50 | 7:17.57 | 99500 | 132331
4 | 29:24.32 | 11:12.35 | 132332 | 182766
5 | 40:36.67 | 9:53.60 | 182767 | 227301
6 | 50:30.52 | 5:56.20 | 227302 | 254021
7 | 56:26.72 | 12:37.38 | 254022 | 310834


Характеристики диапазона извлечения и сообщения об ошибках

Выбранный диапазон

Имя файла D:\Кино\David Chesky - The Fantasies for Solo Piano (1996)[Chesky Records JD139]\David Chesky - The Fantasies.wav

Пиковый уровень 99.9 %
Качество диапазона 100.0 %
CRC теста 928BC0A1
CRC копии 928BC0A1
Копирование… OK

Ошибок не произошло


AccurateRip: сводка

Трек 1 точное извлечение (доверие 4) [8BC588B0]
Трек 2 точное извлечение (доверие 4) [2B26B968]
Трек 3 точное извлечение (доверие 4) [DF2A6B55]
Трек 4 точное извлечение (доверие 4) [B3432BCE]
Трек 5 точное извлечение (доверие 4) [F4513C5C]
Трек 6 точное извлечение (доверие 4) [B5BF7861]
Трек 7 точное извлечение (доверие 4) [2C55FE33]

Все треки извлечены точно

Конец отчёта


––––––––––––––––––––––––––––––––––––––––
Analyzed: David Chesky / The Fantasies
––––––––––––––––––––––––––––––––––––––––

DR Peak RMS Duration Track
––––––––––––––––––––––––––––––––––––––––
DR14 -1.47 dB -22.52 dB 9:53 01-Fantasy No. 1
DR15 -0.01 dB -21.16 dB 12:14 02-Fantasy No. 2
DR15 -14.02 dB -34.24 dB 7:18 03-Choro No. 20
DR16 -0.01 dB -22.47 dB 11:12 04-Fantasy No. 3
DR16 -0.49 dB -21.77 dB 9:54 05-Fantasy No. 4
DR15 -13.29 dB -33.50 dB 5:56 06-Choro No. 21
DR15 -0.16 dB -20.55 dB 12:38 07-Fantasy No. 5
––––––––––––––––––––––––––––––––––––––––

Number of tracks: 7
Official DR value: DR15

Samplerate: 44100 Hz
Channels: 2
Bits per sample: 16
Bitrate: 622 kbps
Codec: FLAC
================================================================================

David Chesky - The Fantasies For Solo Piano (1996) {Chesky Records}
David Chesky - The Fantasies For Solo Piano (1996) {Chesky Records}


Thanks to the original ripper