Subcategories

David T. Chastain - Instrumental Variations (1987) [Japanese Ed.]

Posted By: Andi_Deris
David T. Chastain - Instrumental Variations (1987) [Japanese Ed.]

David T. Chastain - Instrumental Variations (1987) [Japanese Ed.]
EAC Rip | FLAC: Image+Cue+Log | 230 Mb | MP3 CBR 320 kbps | 84 Mb | Scans | Time: 34:52
Genre: Neo-Classical Metal, Instrumental Rock, Shred | Label: Leviathan Records/Mercury | Cat.#: 32PD-493

Instrumental Variations is the first solo album by electric guitar player David T. Chastain. Chastain plays every instrument on the album except for the drums; which are played by Ken Mary who is featured on many of Chastain's albums. In 1987 Leviathan released CHASTAIN's 3rd album "The 7th Of Never" and David's first instrumental cd "Instrumental Variations". David was able to license these titles to many different labels throughout the world including Mercury Records in Japan.

Wikipedia | Amazon

David T. Chastain - Instrumental Variations (1987) [Japanese Ed.]


Track Listing

1. Now or Never (4:03)
2. Capriccio in E Minor (3:46)
3. 18th Century Inamorata (3:56)
4. Wild and Truly Diminished (2:18)
5. Horizons (4:38)
6. Spontaneous Combustion (3:38)
7. It Doesn't Have to Be (4:04)
8. Project 107: Code 3X (4:14)
9. The Oracle Within (4:15)

Produced by David T. Chastain

Line-up

David T. Chastain - Guitar, Bass, Keyboards, Kurzweil Synthesizer
Ken Mary - Drums

• Audio Mixer: Terry Date

Exact Audio Copy V1.0 beta 3 from 29. August 2011

Отчёт EAC об извлечении, выполненном 5. декабря 2011, 11:34

David T. Chastain / Instrumental Variations [32PD-493]

Дисковод: Optiarc DVD RW AD-7200A Adapter: 1 ID: 0

Режим чтения : Достоверность
Использование точного потока : Да
Отключение кэша аудио : Да
Использование указателей C2 : Нет

Коррекция смещения при чтении : 48
Способность читать области Lead-in и Lead-out : Нет
Заполнение пропущенных сэмплов тишиной : Да
Удаление блоков с тишиной в начале и конце : Нет
При вычислениях CRC использовались нулевые сэмплы : Да
Интерфейс : Встроенный Win32-интерфейс для Win NT/2000

Выходной формат : Пользовательский кодировщик
Выбранный битрейт : 32 kBit/s
Качество : Высокий
Добавление ID3-тега : Нет
Утилита сжатия : C:\Program Files\Exact Audio Copy\Flac\flac.exe
Дополнительные параметры : -V -8 -T "Date=%year%" -T "Genre=%genre%" %source%


TOC извлечённого CD

Трек | Старт | Длительность | Начальный сектор | Конечный сектор
––––––––––––––––––––––––––––––––––-
1 | 0:00.00 | 4:03.40 | 0 | 18264
2 | 4:03.40 | 3:46.27 | 18265 | 35241
3 | 7:49.67 | 3:56.30 | 35242 | 52971
4 | 11:46.22 | 2:18.13 | 52972 | 63334
5 | 14:04.35 | 4:38.22 | 63335 | 84206
6 | 18:42.57 | 3:38.65 | 84207 | 100621
7 | 22:21.47 | 4:04.00 | 100622 | 118921
8 | 26:25.47 | 4:14.40 | 118922 | 138011
9 | 30:40.12 | 4:15.25 | 138012 | 157161


Характеристики диапазона извлечения и сообщения об ошибках

Выбранный диапазон

Имя файла Y:\Музыка\David T. Chastain\1987 Instrumental Variations\David T. Chastain - Instrumental Variations [32PD-493].wav

Пиковый уровень 100.0 %
Скорость извлечения 3.4 X
Качество диапазона 100.0 %
CRC теста A9E9A1C6
CRC копии A9E9A1C6
Копирование… OK

Ошибок не произошло


AccurateRip: сводка

Трек 1 : извлечено точно (доверие 1) [3ACEBC00] (AR v1)
Трек 2 : извлечено точно (доверие 1) [A6C9E9DE] (AR v1)
Трек 3 : извлечено точно (доверие 1) [A561C193] (AR v1)
Трек 4 : извлечено точно (доверие 1) [BAEB55AA] (AR v1)
Трек 5 : извлечено точно (доверие 1) [DC5B79DD] (AR v1)
Трек 6 : извлечено точно (доверие 1) [210622EE] (AR v1)
Трек 7 : извлечено точно (доверие 1) [4AF576C1] (AR v1)
Трек 8 : извлечено точно (доверие 1) [12AC16D8] (AR v1)
Трек 9 : извлечено точно (доверие 1) [5ECAAAC2] (AR v1)

Все треки извлечены точно

Конец отчёта

==== Контрольная сумма отчёта 2D43463C4694E091D4630943A2F496E4C7FAF359A9948A5F91E0A701D235F452 ====


Many thanks to the original uploader: ikebana