Subcategories

Davie Allan & The Arrows - Blues Theme (1967) Repost

Posted By: v3122
Davie Allan & The Arrows - Blues Theme (1967) Repost

Davie Allan & The Arrows - Blues Theme (1967)
EAC Rip | Flac(Image) + Cue + Log & iPod M4A(Tracks) & MP3 CBR 320Kbps
Scans Included | 2005 | Sundazed Music | SC 6218 | ~ 108 or 108 or 84 Mb
Surf Rock / Instrumental Rock

"Blues Theme" is arguably the most famous track by Davie Allan & the Arrows. It was recorded quickly on Mike Curb's Tower label for the soundtrack to the move Wild Angels – Peter Fonda's first biker flick and just before Easy Rider. With wild, screaming fuzz guitar and a surf beat, it signifies the sound of the L.A. Strip in 1967 and embodies – in its two-minutes-and-ten-seconds – all the cultural elements of its soundtrack – the waning surf scene that traveled it, the muscle cars that roared through its lanes, the dawn of acid-crazed hippies floating down it, and the speed-drenched outlaw biker tribes who haunted it. The rest of the album is a literal pastiche of tracks that were issued under other names, slightly doctored for and from other soundtracks – there were seven between the Arrows' first album, Apache '65, and Blues Theme – or simply renamed. These include "King Fuzz," an instrumental remake of "The Twirl" by Harley Hatcher; "Theme from the Unknown," which had several names in earlier releases on 45 rpm's, and "Fuzz Theme," that was later re-titled "The Young World," for the soundtrack to Teen Rebellion.

~ Thom Jurek
Davie Allan & The Arrows - Blues Theme (1967) Repost

Davie Allan:

Active: '60s, '80s, '90s, 2000s
Genres: Rock
Instrument: Guitar
Representative Albums: "King Fuzz", "The Cycle Breed", "Devil's Rumble: The Davie Allan & the Arrows Anthology"
Representative Songs: "Blues' Theme", "Chopper", "Cycle-Delic"

Providing the soundtrack to numerous biker and teen exploitation movies in the mid- and late '60s, Davie Allan & the Arrows bridged the surf and psychedelic eras. Their driving, basic instrumentals featured loads and loads of fuzz guitar, as well as generous dollops of tremolo bar waggling and wah-wah. The guitarist and his band first made their mark with the minor hit "Apache '65," a version of the Shadows/Jorgen Ingmann's instrumental classic "Apache." Hooking up with notorious exploitation movie producer Mike Curb, the Arrows provided the soundtracks to numerous B-movies on the Tower and Sidewalk labels; their greatest success, "Blues Theme" (from The Wild Angels starring Peter Fonda), made the Top 40 in 1967. Curb abandoned racy movies for the Osmonds and purged MGM Records of their psychedelic acts, but the Arrows continued to play and record for various labels during the '80s and '90s. A slew of reissues during the new millennium broadened the group's appeal, and they returned in 2003 with Restless in L.A.

~ Richie Unterberger, Rovi

Davie Allan & The Arrows - Blues Theme (1967):

Davie Allan & The Arrows - Blues Theme (1967) Repost

Tracklist:

01. Blues Theme
02. King Fuzz
03. Theme From Thunderball
04. William Tell 1967
05. Action On The Street
06. Theme From The Wild Angels
07. Theme From The Unknown
08. Fuzz Theme
09. Sorry 'Bout That
10. Ghost Riders In The Sky
11. Runaway
12. High Noon
13. Theme From A Summer Place

Exact Audio Copy V0.99 prebeta 5 from 4. May 2009

Отчёт EAC об извлечении, выполненном 11. сентября 2010, 21:36

Davie Allan & The Arrows / Blues Theme

Дисковод: Optiarc DVD RW AD-7203A Adapter: 1 ID: 0

Режим чтения : Достоверность
Использование точного потока : Да
Отключение кэша аудио : Да
Использование указателей C2 : Нет

Коррекция смещения при чтении : 48
Способность читать области Lead-in и Lead-out : Нет
Заполнение пропущенных сэмплов тишиной : Да
Удаление блоков с тишиной в начале и конце : Нет
При вычислениях CRC использовались нулевые сэмплы : Да
Интерфейс : Встроенный Win32-интерфейс для Win NT/2000
Обработка зазоров : Добавлено к предыдущему треку

Выходной формат : Пользовательский кодировщик
Выбранный битрейт : 128 kBit/s
Качество : Высокий
Добавление ID3-тэга : Нет
Утилита сжатия : C:\Program Files\Exact Audio Copy\Flac\flac.exe
Дополнительные параметры : -8 -V -T "ARTIST=%a" -T "TITLE=%t" -T "ALBUM=%g" -T "DATE=%y" -T "TRACKNUMBER=%n" -T "GENRE=%m" -T "COMMENT=EAC FLAC -8" %s


TOC извлечённого CD

Трек | Старт | Длительность | Начальный сектор | Конечный сектор
––––––––––––––––––––––––––––––––––-
1 | 0:00.00 | 2:13.32 | 0 | 10006
2 | 2:13.32 | 1:56.65 | 10007 | 18771
3 | 4:10.22 | 1:51.08 | 18772 | 27104
4 | 6:01.30 | 1:58.27 | 27105 | 35981
5 | 7:59.57 | 1:43.00 | 35982 | 43706
6 | 9:42.57 | 1:35.50 | 43707 | 50881
7 | 11:18.32 | 1:48.15 | 50882 | 58996
8 | 13:06.47 | 1:34.40 | 58997 | 66086
9 | 14:41.12 | 2:04.38 | 66087 | 75424
10 | 16:45.50 | 2:03.27 | 75425 | 84676
11 | 18:49.02 | 1:58.13 | 84677 | 93539
12 | 20:47.15 | 2:14.22 | 93540 | 103611
13 | 23:01.37 | 1:46.68 | 103612 | 111629


Трек 1

Имя файла C:\EAC\01.Davie Allan & The Arrows-Blues Theme.wav

Длина предзазора 0:00:02.00

Пиковый уровень 96.6 %
Качество трека 100.0 %
CRC теста 6D643A17
CRC копии 6D643A17
Трек не обнаружен в базе AccurateRip
Копирование… OK

Трек 2

Имя файла C:\EAC\02.Davie Allan & The Arrows-King Fuzz.wav

Длина предзазора 0:00:02.73

Пиковый уровень 98.8 %
Качество трека 99.9 %
CRC теста 5EAC0177
CRC копии 5EAC0177
Трек не обнаружен в базе AccurateRip
Копирование… OK

Трек 3

Имя файла C:\EAC\03.Davie Allan & The Arrows-Theme From Thunderball.wav

Длина предзазора 0:00:02.73

Пиковый уровень 88.2 %
Качество трека 100.0 %
CRC теста 1B0B09B6
CRC копии 1B0B09B6
Трек не обнаружен в базе AccurateRip
Копирование… OK

Трек 4

Имя файла C:\EAC\04.Davie Allan & The Arrows-William Tell 1967.wav

Длина предзазора 0:00:02.73

Пиковый уровень 90.1 %
Качество трека 100.0 %
CRC теста 799DFD6A
CRC копии 799DFD6A
Трек не обнаружен в базе AccurateRip
Копирование… OK

Трек 5

Имя файла C:\EAC\05.Davie Allan & The Arrows-Action On The Street.wav

Длина предзазора 0:00:02.73

Пиковый уровень 89.1 %
Качество трека 100.0 %
CRC теста D17322D0
CRC копии D17322D0
Трек не обнаружен в базе AccurateRip
Копирование… OK

Трек 6

Имя файла C:\EAC\06.Davie Allan & The Arrows-Theme From The Wild Angels.wav

Длина предзазора 0:00:02.73

Пиковый уровень 98.8 %
Качество трека 100.0 %
CRC теста E7586B37
CRC копии E7586B37
Трек не обнаружен в базе AccurateRip
Копирование… OK

Трек 7

Имя файла C:\EAC\07.Davie Allan & The Arrows-Theme From The Unknown.wav

Длина предзазора 0:00:02.73

Пиковый уровень 87.7 %
Качество трека 100.0 %
CRC теста E904FB99
CRC копии E904FB99
Трек не обнаружен в базе AccurateRip
Копирование… OK

Трек 8

Имя файла C:\EAC\08.Davie Allan & The Arrows-Fuzz Theme.wav

Длина предзазора 0:00:02.73

Пиковый уровень 87.8 %
Качество трека 100.0 %
CRC теста BA12FD14
CRC копии BA12FD14
Трек не обнаружен в базе AccurateRip
Копирование… OK

Трек 9

Имя файла C:\EAC\09.Davie Allan & The Arrows-Sorry 'Bout That.wav

Длина предзазора 0:00:02.73

Пиковый уровень 86.8 %
Качество трека 99.9 %
CRC теста 1D1B7780
CRC копии 1D1B7780
Трек не обнаружен в базе AccurateRip
Копирование… OK

Трек 10

Имя файла C:\EAC\10.Davie Allan & The Arrows-Ghost Riders In The Sky.wav

Длина предзазора 0:00:02.73

Пиковый уровень 98.8 %
Качество трека 100.0 %
CRC теста 8F518BEB
CRC копии 8F518BEB
Трек не обнаружен в базе AccurateRip
Копирование… OK

Трек 11

Имя файла C:\EAC\11.Davie Allan & The Arrows-Runaway.wav

Длина предзазора 0:00:02.73

Пиковый уровень 95.5 %
Качество трека 100.0 %
CRC теста 4C9CA8A1
CRC копии 4C9CA8A1
Трек не обнаружен в базе AccurateRip
Копирование… OK

Трек 12

Имя файла C:\EAC\12.Davie Allan & The Arrows-High Noon.wav

Длина предзазора 0:00:02.73

Пиковый уровень 99.0 %
Качество трека 100.0 %
CRC теста 4DAA2522
CRC копии 4DAA2522
Трек не обнаружен в базе AccurateRip
Копирование… OK

Трек 13

Имя файла C:\EAC\13.Davie Allan & The Arrows-Theme From A Summer Place.wav

Длина предзазора 0:00:02.73

Пиковый уровень 96.6 %
Качество трека 99.9 %
CRC теста E85E368F
CRC копии E85E368F
Трек не обнаружен в базе AccurateRip
Копирование… OK


Ни одного трека нет в базе AccurateRip

Ошибок не произошло

Конец отчёта

[Verification date: 07.10.2010 4:11:06]
[Disc ID: 000be887-007686ed-a305d00d]
Disk not present in database.

Track [ CRC32 ] [W/O NULL] [ LOG ]
– [0AFD0174] [008124E5]
01 [6D643A17] [D4F9CB4E] CRC32
02 [5EAC0177] [47D5C0A1] CRC32
03 [1B0B09B6] [980D04D9] CRC32
04 [799DFD6A] [F5EC7207] CRC32
05 [D17322D0] [F68D44DC] CRC32
06 [E7586B37] [81ED280E] CRC32
07 [E904FB99] [1F799A61] CRC32
08 [BA12FD14] [978FE516] CRC32
09 [1D1B7780] [809063C5] CRC32
10 [8F518BEB] [493DDCA5] CRC32
11 [4C9CA8A1] [B8268BB5] CRC32
12 [4DAA2522] [51938A15] CRC32
13 [E85E368F] [4CECFDAB] CRC32

Davie Allan & The Arrows - Blues Theme (1967) Repost

All thanks go to Gera1957

Download Davie Allan & The Arrows - Blues Theme (1967):