Subcategories

Dawn - Loneliness (2007)

Posted By: v3122
Dawn - Loneliness (2007)

Dawn - Loneliness (2007)
Symphonic Prog/Progressive Rock | EAC Rip | Flac(Image) + Cue + Log | MP3 CBR 320Kbps | 6 Tracks
Scans(600dpi) Included | Quadrifonic Dawn, DP768101 | ~323 + 126 Mb | FSonic, FServe, Uploaded

I guess retro-prog's growth has now grown well outside Scandinavia's frontiers (it had spread to the US with Discipline, Maxwell's Demon and Deadwood Forest) and it is now building a nest (chalet?) in the Swiss Jura Mountains with Dawn's debut album. Lead by singing guitarist Decoumois and keyboardist Gerber (the songwriters), the group has an unspecified (that's a change for a retro-prog group) array of vintage instruments to sound like the golden decade, but it doesn't restrict itself to the typical 70's symphonic style as it delves into dissonant improvs once in a while.
Opening on the eponymous track, a synth ostinato hovers over and around a pulsing bass, before Ducoumois' opening verse trigger the mellotron and the melancholic floodgates are widely opened. The almost 8-mins Rain On The Moon is slightly more neo-sounding than its retro-sounding predecessor, but it is nothing scandalous (a little pique to my neo-loving collabs, here) and you should survive it no problems. The 11-mins+ Brook is a melancholic (and bucolic) develops a Crimson-ian atmosphere even if the filtered spoken vocals is a little cheesy, the track meandering wildly between heard-elsewhere moments and original passages. The title track is definitely a melancholic track that fits quite well in the album's mould, with again so Crimson-oid influences, worn a little too loud on their sleeves.

Obviously you're all waiting for the album's foundation stone, the 18-mins Story Of Nobody, a slow-starting monster track with a slightly dissonant piano and tom-drum rolls that could easily be from Floyd, but past that intriguing intro, the track jumps straight into a retro/neo- like verse and chorus, softened by trons of melo, where the organ fills up the space left by an absent guitar. The track then veers spacey/cosmic with a (finally-present) wailing guitar soaring over the near-whispering voice and a great second solo, before going back to the retro/neo-sounding passage previously heard. However goods this Nobody's Story may be, the track doesn't escape a few lengths, especially in the "Mr Nobody"-yelling moments. The closing Dusk is mainly a keyboard (piano and melotron) track where Ducoumois is reminiscent of Harmonium's Fiori timbre and is a great finale to a robust and emotional album.

With a spatial artwork that could've been easily enhanced, Loneliness should occupy you for a few hours/days if you are indeed suffering from that predicament, but in the end, your mileage of this album will probably dwindle as years go by, but in the meantime, you're likely to love it. Dawn's debut is pleasant enough for most prospecting progheads to investigate and maybe invest.

~ Sean Trane, progarchives
Dawn - Loneliness (2007)

Dawn:

DAWN are Julien Vuataz (bass), Nicolas Gerber (keyboards) and Rene Degoumois (vocals, guitars). This line-up also includes Patrick Dufresne now replaced by Manu Linder (drums) and Jean-Georges Linsig (guitar) recently replaced on stage by Christophe Dony (keyboards, guitar, vocals).

DAWN creates a symphonic prog with a vintage sound, inspired by the British bands of the seventies. Between 2005 and 2008, DAWN plays several live performances: opening for KANSAS and FISH, playing at the "Montreux Prog Nights" festival they created, at the Progsol (Switzerland) and Prog Sud (France) festivals.

Recorded in November 2007, "Loneliness" is DAWN's first studio effort after a promising demo. This album is about life: dawn and dusk, ups and downs. This record is well balanced, featuring short tracks as well as longer ones. In a nutshell, it's a gem. All CAMEL lovers will recognize Latimer's typical fluid guitars. Add other ingredients such as vintage keyboards (Hammond organ, Mellotron, old Korg), GENESIS touches and forget a rather misleading cover which certainly corresponds to the lyrics but not to the welcome seventies touches and you'll have a giant first step. Renй Degoumois, Nicolas Gerber, Julien Vuataz and Patrick Dufresne could create their own sound forgetting the too evident influences of the beginning and boost the vocals. Privately (and well) produced, this melancholy and delicate disc really deserves your attention. A dawn of a new prog era in Switzerland after the roaring eighties (FLAME DREAM and co)? For sure, hoping they won't be alone on their planet! Hurry, it seems this record is already sold out!

~ Progarchives

Dawn - Loneliness (2007):

Dawn - Loneliness (2007)

Tracklist:

1. Dawn (5:10)
2. Rain on the Moon (7:44)
3. The Brook (11:21)
4. Loneliness (4:09)
5. The Story of Nobody (17:53)
6. Dusk (4:20)

Personnel:

- René Degoumois / vocals & guitars
- Nicolas Gerber / keyboards
- Julien Vuataz / bass
- Manu Linder / drums

Guest musicians:
- Jean-Georges Linsing / guitars (on stage)
- Patrick Dufresne / drums (on "Loneliness" album)

Exact Audio Copy V0.99 prebeta 4 from 23. January 2008

Отчёт EAC об извлечении, выполненном 21. декабря 2010, 15:11

Dawn / Loneliness

Дисковод: HL-DT-STDVD-RAM GH22NP20 Adapter: 1 ID: 0

Режим чтения : Достоверность
Использование точного потока : Да
Отключение кэша аудио : Да
Использование указателей C2 : Нет

Коррекция смещения при чтении : 102
Способность читать области Lead-in и Lead-out : Нет
Заполнение пропущенных сэмплов тишиной : Да
Удаление блоков с тишиной в начале и конце : Нет
При вычислениях CRC использовались нулевые сэмплы : Да
Интерфейс : Встроенный Win32-интерфейс для Win NT/2000

Выходной формат : Пользовательский кодировщик
Выбранный битрейт : 1024 kBit/s
Качество : Высокий
Добавление ID3-тэга : Да
Утилита сжатия : C:\Program Files\Exact Audio Copy\FLAC\FLAC.EXE
Дополнительные параметры : -6 -V -T "ARTIST=%a" -T "TITLE=%t" -T "ALBUM=%g" -T "DATE=%y" -T "TRACKNUMBER=%n" -T "GENRE=%m" -T "COMMENT=%e" %s -o %d


TOC извлечённого CD

Трек | Старт | Длительность | Начальный сектор | Конечный сектор
––––––––––––––––––––––––––––––––––-
1 | 0:00.00 | 5:10.54 | 0 | 23303
2 | 5:10.54 | 7:43.62 | 23304 | 58090
3 | 12:54.41 | 11:20.70 | 58091 | 109160
4 | 24:15.36 | 4:09.18 | 109161 | 127853
5 | 28:24.54 | 17:52.46 | 127854 | 208299
6 | 46:17.25 | 4:20.09 | 208300 | 227808


Характеристики диапазона извлечения и сообщения об ошибках

Выбранный диапазон

Имя файла D:\mydoc\My Music\Dawn\Dawn - Loneliness.wav

Пиковый уровень 100.0 %
Качество диапазона 100.0 %
CRC копии 3DDAC8AC
Копирование… OK

Ошибок не произошло


AccurateRip: сводка

Трек 1 точное извлечение (доверие 4) [A4F5E881]
Трек 2 точное извлечение (доверие 4) [7C1193E4]
Трек 3 точное извлечение (доверие 4) [434CEB25]
Трек 4 точное извлечение (доверие 4) [AAF41A20]
Трек 5 точное извлечение (доверие 4) [48D9D371]
Трек 6 точное извлечение (доверие 4) [9558B721]

Все треки извлечены точно

Конец отчёта

AUDIOCHECKER v2.0 beta (build 457) - by Dester - opdester@freemail.hu
~~~~~~~~~~~~~~~~~~~~~~~~~~~~~~~~~~
-=== DO NOT EDIT THIS FILE! ===-

Path: …\Dawn - 2007 - Loneliness

1 -=- Dawn - Loneliness.flac -=- CDDA (99%)

42262740

[Verification date: 09.03.2011 17:16:39]
[Disc ID: 000b8357-003f30cb-540bdd06]
Track [ CRC ] Status
01 [a4f5e881] (04/04) Accurately ripped as in pressing(s) #1
02 [7c1193e4] (04/04) Accurately ripped as in pressing(s) #1
03 [434ceb25] (04/04) Accurately ripped as in pressing(s) #1
04 [aaf41a20] (04/04) Accurately ripped as in pressing(s) #1
05 [48d9d371] (04/04) Accurately ripped as in pressing(s) #1
06 [9558b721] (04/04) Accurately ripped as in pressing(s) #1

Track [ CRC32 ] [W/O NULL] [ LOG ]
– [3DDAC8AC] [5EA42CE6] CRC32
01 [061EB568] [DF1773F5]
02 [55EC5B64] [1686FF68]
03 [AE6609CC] [1645F71A]
04 [5D561218] [BC70DBBB]
05 [CCAB5F84] [F9FE1105]
06 [1E42E5E6] [3831B1B5]

Dawn - Loneliness (2007)


Download Dawn - Loneliness (2007):

FileSonic: Lossless | MP3
FileServe: Lossless | MP3
Uploaded: Lossless | MP3

In case you encounter dead links, please send me a private message.

All thanks go to parsrecar