Subcategories
Tags
Language
Tags

Deep Purple - Burn (1974) [1989, EMI CDP 7 92611 2, UK] Repost

Posted By: v3122
Deep Purple - Burn (1974) [1989, EMI CDP 7 92611 2, UK] Repost

Deep Purple - Burn (1974)
EAC | Flac(Image) + Cue + Log & MP3 CBR 320Kbps
EMI CDP 7 92611 2 | ~ 285 or 102 Mb | Scans(jpg) -> 22 Mb
Hard Rock

Although it shook the band's fan base to its core, the acrimonious departure of vocalist Ian Gillan and bassist Roger Glover served to rejuvenate Deep Purple in time for 1973's aptly named Burn album, which unquestionably showed huge improvement over their lackluster previous effort, Who Do We Think We Are. And in an interesting twist rarely attempted before or since, new recruits David Coverdale (vocals) and Glenn Hughes (bass and vocals, ex-Trapeze) traded lead singing duties on virtually every one of its songs – an enviable tag team, as both possessed exceptional pipes. The phenomenal title track started things off at full throttle, actually challenging the seminal "Highway Star" for the honor of best opener to any Deep Purple album, while showcasing the always impressive drumming of Ian Paice. Up next, the intro to the equally timeless "Might Just Take Your Life," however simple from a technical perspective, remains one of organist Jon Lord's signature moments; and the downright nasty "Lay Down, Stay Down" roared behind wildly careening starts and stops and a fantastic Ritchie Blackmore guitar solo which left no doubt as to who was the band's primal force, regardless of lineup. Moving right along, though it was rarely included in later-day greatest hits sets, "What's Going on Here" was about as good a single as Purple ever wrote; "You Fool No One" was compelling for its sheer intensity; and the funky "Sail Away" was a sign of the band's direction in years to come. Lastly, the fantastic slow-boiling blues of "Mistreated" closed the album proper (let's ignore the record's only throw-away track – boring final instrumental "A 200") with a command solo performance from Coverdale, as nuanced and sensitive as it was devastating. So impassioned was the singer's delivery, in fact, that the song would remain his personal, in-concert trademark with Whitesnake, long after his tenure with Deep Purple came to a close. Like the vast majority of Burn this song's greatness qualifies it for the highest echelons of hard rock achievement, and therefore ranks as an essential item in the discography of any self-respecting music fan.

by Eduardo Rivadavia, allmusic
Deep Purple - Burn (1974):

Deep Purple - Burn (1974) [1989, EMI CDP 7 92611 2, UK] Repost

Tracklist:

01. Burn - 6:05
02. Might Just Take Your Life - 4:40
03. Lay Down, Stay Down - 4:20
04. Sail Away - 5:53
05. You Fool No One - 4:47
06. What's Goin' On Here - 5:00
07. Mistreated - 7:28
08. 'A' 200 - 4:04

Exact Audio Copy V1.0 beta 3 from 29. August 2011

EAC extraction logfile from 1. February 2014, 12:12

Deep Purple / Burn

Used drive : PLEXTOR DVDR PX-L890SA Adapter: 1 ID: 0

Read mode : Secure
Utilize accurate stream : Yes
Defeat audio cache : Yes
Make use of C2 pointers : No

Read offset correction : 6
Overread into Lead-In and Lead-Out : No
Fill up missing offset samples with silence : Yes
Delete leading and trailing silent blocks : No
Null samples used in CRC calculations : Yes
Used interface : Native Win32 interface for Win NT & 2000

Used output format : User Defined Encoder
Selected bitrate : 768 kBit/s
Quality : High
Add ID3 tag : No
Command line compressor : G:\Program Files\Exact Audio Copy\FLAC\FLAC.EXE
Additional command line options : -V -8 -T "Date=%year%" -T "Genre=%genre%" %source%


TOC of the extracted CD

Track | Start | Length | Start sector | End sector
––––––––––––––––––––––––––––-
1 | 0:00.33 | 6:04.52 | 33 | 27384
2 | 6:05.10 | 4:39.70 | 27385 | 48379
3 | 10:45.05 | 4:19.43 | 48380 | 67847
4 | 15:04.48 | 5:52.72 | 67848 | 94319
5 | 20:57.45 | 4:46.40 | 94320 | 115809
6 | 25:44.10 | 4:59.73 | 115810 | 138307
7 | 30:44.08 | 7:27.55 | 138308 | 171887
8 | 38:11.63 | 4:04.35 | 171888 | 190222


Range status and errors

Selected range

Filename H:\MUSIC\Deep Purple\1974. Deep Purple - Burn (EMI 7 92611 2, UK)\Deep Purple - Burn.wav

Peak level 100.0 %
Extraction speed 5.4 X
Range quality 100.0 %
Test CRC D2BEA61A
Copy CRC D2BEA61A
Copy OK

No errors occurred


AccurateRip summary

Track 1 accurately ripped (confidence 51) [4D9EB72C] (AR v2)
Track 2 accurately ripped (confidence 50) [58BB80E9] (AR v2)
Track 3 accurately ripped (confidence 50) [3F374C3B] (AR v2)
Track 4 accurately ripped (confidence 50) [786DC04C] (AR v2)
Track 5 accurately ripped (confidence 51) [45F460CF] (AR v2)
Track 6 accurately ripped (confidence 50) [BCD24FFF] (AR v2)
Track 7 accurately ripped (confidence 50) [8B6D98F8] (AR v2)
Track 8 accurately ripped (confidence 51) [971AB622] (AR v2)

All tracks accurately ripped

End of status report

–– CUETools DB Plugin V2.1.3

[CTDB TOCID: oWfBwGmFJbhashQskzjk1mEmgKY-] found, Submit result: discs with pregaps not supported in this protocol version
[3355dc24] (106/106) Differs in 0 samples @
You can use CUETools to repair this rip.


==== Log checksum 6E0077B57A7828F4BC3DB6C780008400BB712F2B33BC6F5F003CC5784ECD75C5 ====


[CUETools log; Date: 01.02.2014 20:45:41; Version: 2.1.2a]
Pregap length 00:00:33.
[CTDB TOCID: oWfBwGmFJbhashQskzjk1mEmgKY-] found.
[ CTDBID ] Status
[3355dc24] (106/106) Differs in 0 samples @
[AccurateRip ID: 000d08b3-0056de86-7609e808] found.
Track [ CRC ] Status
01 [227ff545] (084/165) Accurately ripped
02 [1294b19f] (084/162) Accurately ripped
03 [737d5227] (085/163) Accurately ripped
04 [e5393533] (085/164) Accurately ripped
05 [f6060905] (084/162) Accurately ripped
06 [d8f9e329] (083/162) Accurately ripped
07 [3d62cb5c] (084/163) Accurately ripped
08 [14bb893a] (084/162) Accurately ripped
AccurateRip v2:
01 [4d9eb72c] (051/165) Accurately ripped
02 [58bb80e9] (050/162) Accurately ripped
03 [3f374c3b] (050/163) Accurately ripped
04 [786dc04c] (050/164) Accurately ripped
05 [45f460cf] (051/162) Accurately ripped
06 [bcd24fff] (050/162) Accurately ripped
07 [8b6d98f8] (050/163) Accurately ripped
08 [971ab622] (051/162) Accurately ripped
Offsetted by 2029:
01 [492c6046] (016/165) Accurately ripped
02 [5d6e87d0] (014/162) Accurately ripped
03 [2ef61f8b] (014/163) Accurately ripped
04 [acab975f] (015/164) Accurately ripped
05 [b59eaa40] (014/162) Accurately ripped
06 [708e856b] (015/162) Accurately ripped
07 [f07e590f] (015/163) Accurately ripped
08 [b0cd8175] (014/162) Accurately ripped

Track Peak [ CRC32 ] [W/O NULL] [ LOG ]
– 100,0 [D2BEA61A] [1C98518A] CRC32
01 93,8 [368CC1FC] [6AAADE57]
02 95,5 [9A8FCB17] [6130FB4D]
03 98,7 [77EEAB21] [D4C49BCC]
04 100,0 [EB0CCDAD] [ABA90B6A]
05 96,6 [EB88423D] [73FA2F9D]
06 87,5 [94386AD8] [911EF19B]
07 100,0 [7C6FF0A7] [9F25175C]
08 83,0 [695E9D60] [72872841]


Deep Purple - Burn (1974) [1989, EMI CDP 7 92611 2, UK] Repost

All thanks go to snakesharmer

Deep Purple or Deep Purple in my Blog

Download Deep Purple - Burn (1974):