Tags
Language
Tags

Margarita Shrayner, Artem Ovcharenko, Bolshoi Ballet - Leo Delibes: Coppelia (2019) [BDRip]

Posted By:
Margarita Shrayner, Artem Ovcharenko, Bolshoi Ballet -  Leo Delibes: Coppelia (2019) [BDRip]

Margarita Shrayner, Artem Ovcharenko, Bolshoi Ballet - Léo Delibes: Coppélia (2019) [BDRip]
BluRay-rip | AVC | MKV 1920x1080 / 6215 kbps / 29,97 fps | 99 min | 5,36 Gb
Audio: DTS / 6ch / 48.0 KHz / 24 bits
Classical | Bel Air Classiques

Léo Delibess Coppélia is not only a collection of fine dances. It is primarily an abrasive and sardonic comedy, which is somewhat unusual in the world of classical ballet. But most importantly, it is a comedy for which excellent music was composed. Pyotr Ilyich Tchaikovskys assessment of Delibess ballet scores, allegedly capable of overshadowing the choreography itself, is well known: What beauty, what elegance, what richness of melody, rhythm and harmony! It is not fortuitous that music from this ballet should be performed, for its own merits, during concerts. Funnily enough, the main theme of this light-hearted ballet is taken from E.T.A. Hoffmanns anything but joyful novellas mainly from The Sandman. In Hoffmanns tale, the young mans infatuation with the doll ends tragically, while in the ballet, the lively and energetic Swanilda (Frantzs fiancée) is able to over wit the old Coppélius, the cunning inventor of the Girl with the enamel eyes and free her lover from the dolls poisonous charm. Coppélia was premiered in 1870 at the Paris Opera on choreographer Arthur Saint-Léons initiative. A virtuoso dancer, Saint-Léon was Marius Petipas predecessor as Head of the Petersburg Ballet. His interest in folk culture, music and dance, is mainly responsible for the appearance in the music score of such a rich selection of dance melodies based on folklore, and especially Slavic and Eastern European themes. A few years later, Marius Petipa and Enrico Cecchetti brought the ballet back to the Russia that had proved such a vivid source of inspiration for its librettist, and adapted the choreography for the Russian stage. However, this new version fell out of interest during the 20th century, until Sergey Vikharev and Pavel Gershenzons revival in 2009. It is here interpreted by the Bolshoi Ballets finest dancers: Margarita Shrayner is the witty Swanilda, and Artem Ovcharenko the love-sick Frantz.

Cast:
Swanilda - Margarita Shrayner
Frantz - Artem Ovcharenko
Coppelius - Alexei Loparevich
Friends - Xenia Averina, Bruna Cantanhede Gaglianone, Svetlana Pavlova, Yulia Skvortsova
Coppélia (Automaton) - Nadezhda Blagova
Lord of Manor - Alexander Fadeyechev
Burgomaster - Yuri Ostrovsky
Chronos - Nikolay Mayorov
Corps de Ballet, Orchestra & Chorus of the State Academic Bolshoi Theatre
Conductor - Pavel Sorokin
Sergey Vikharev, choreographer (after Marius Petipa and Enrico Cecchetti)


General
Unique ID : 208284337747037585735298755272784316566 (0x9CB21AB37EEC411E845948D545D18896)
Complete name : C:\COPPELIA.mkv
Format : Matroska
Format version : Version 2
File size : 5.37 GiB
Duration : 1h 39mn
Overall bit rate : 7 759 Kbps
Movie name : COPPELIA
Encoded date : UTC 2020-05-10 14:23:34
Writing application : DVDFab 9.1.6.8
Writing library : libebml v0.7.8 + libmatroska v0.8.1

Video
ID : 1
Format : AVC
Format/Info : Advanced Video Codec
Format profile : High@L4.1
Format settings, CABAC : Yes
Format settings, ReFrames : 2 frames
Codec ID : V_MPEG4/ISO/AVC
Duration : 1h 39mn
Bit rate : 6 215 Kbps
Width : 1 920 pixels
Height : 1 080 pixels
Display aspect ratio : 16:9
Frame rate mode : Constant
Frame rate : 29.970 fps
Color space : YUV
Chroma subsampling : 4:2:0
Bit depth : 8 bits
Scan type : Progressive
Bits/(Pixel*Frame) : 0.100
Stream size : 4.22 GiB (79%)
Writing library : x264 core 142
Encoding settings : cabac=1 / ref=1 / deblock=1:-1:-1 / analyse=0x3:0 / me=hex / subme=5 / psy=0 / mixed_ref=0 / me_range=16 / chroma_me=1 / trellis=0 / 8x8dct=1 / cqm=0 / deadzone=21,11 / fast_pskip=1 / chroma_qp_offset=0 / threads=8 / lookahead_threads=2 / sliced_threads=0 / nr=0 / decimate=1 / interlaced=0 / bluray_compat=0 / constrained_intra=0 / bframes=2 / b_pyramid=0 / b_adapt=1 / b_bias=0 / direct=1 / weightb=1 / open_gop=0 / weightp=0 / keyint=24 / keyint_min=13 / scenecut=40 / intra_refresh=0 / rc=abr / mbtree=0 / bitrate=6215 / ratetol=1.0 / qcomp=0.60 / qpmin=0 / qpmax=69 / qpstep=4 / ip_ratio=1.40 / pb_ratio=1.30 / aq=1:1.00
Default : Yes
Forced : No
Color primaries : BT.709
Transfer characteristics : BT.709
Matrix coefficients : BT.709
Color range : Limited

Audio
ID : 2
Format : DTS
Format/Info : Digital Theater Systems
Mode : 16
Format settings, Endianness : Big
Codec ID : A_DTS
Duration : 1h 39mn
Bit rate mode : Constant
Bit rate : 1 509 Kbps
Channel(s) : 6 channels
Channel positions : Front: L C R, Side: L R, LFE
Sampling rate : 48.0 KHz
Bit depth : 24 bits
Compression mode : Lossy
Stream size : 1.04 GiB (19%)
Default : Yes
Forced : No

Menu
00:00:00.000 : en:Chapter 01
00:03:33.646 : en:Chapter 02
00:06:53.846 : en:Chapter 03
00:10:20.219 : en:Chapter 04
00:14:33.138 : en:Chapter 05
00:16:10.269 : en:Chapter 06
00:18:58.804 : en:Chapter 07
00:26:45.704 : en:Chapter 08
00:31:19.410 : en:Chapter 09
00:36:32.657 : en:Chapter 10
00:38:37.982 : en:Chapter 11
00:40:23.888 : en:Chapter 12
00:42:46.130 : en:Chapter 13
00:44:45.983 : en:Chapter 14
00:48:26.370 : en:Chapter 15
00:51:22.312 : en:Chapter 16
00:55:19.249 : en:Chapter 17
00:58:56.533 : en:Chapter 18
01:00:32.895 : en:Chapter 19
01:02:12.261 : en:Chapter 20
01:04:44.947 : en:Chapter 21
01:07:31.680 : en:Chapter 22
01:11:41.030 : en:Chapter 23
01:14:36.538 : en:Chapter 24
01:17:31.446 : en:Chapter 25
01:19:07.509 : en:Chapter 26
01:20:51.413 : en:Chapter 27
01:25:49.511 : en:Chapter 28
01:27:23.638 : en:Chapter 29
01:28:52.493 : en:Chapter 30
01:31:22.410 : en:Chapter 31
01:35:04.198 : en:Chapter 32

Margarita Shrayner, Artem Ovcharenko, Bolshoi Ballet -  Leo Delibes: Coppelia (2019) [BDRip]