Tags
Language
Tags

Derek And The Dominos - Layla And Other Assorted Love Songs (1970) {2020, 50th Anniversary Deluxe Edition}

Posted By: popsakov
Derek And The Dominos - Layla And Other Assorted Love Songs (1970) {2020, 50th Anniversary Deluxe Edition}

Derek And The Dominos - Layla And Other Assorted Love Songs (1970) {2020, 50th Anniversary Deluxe Edition}
2CD | EAC Rip | FLAC (Img) + Cue + Log ~ 930 Mb | MP3 CBR320 ~ 327 Mb
Full Scans ~ 30 Mb | 01:17:20 + 00:58:34 | RAR 5% Recovery
Blues Rock | Polydor #0602507274788

Layla and Other Assorted Love Songs is the only studio album by Anglo-American blues rock band Derek and the Dominos. Released in November 1970, the double album is best known for its title track, "Layla", and is often regarded as Eric Clapton's greatest musical achievement. The other band members were Bobby Whitlock on keyboards and vocals, Jim Gordon on drums, Carl Radle on bass, and special guest performer Duane Allman on lead and slide guitar on 11 of the 14 songs. In 2000, the album was inducted into the Grammy Hall of Fame. In 2003, television network VH1 named Layla and Other Assorted Love Songs the 89th-greatest album of all time, and Rolling Stone ranked it number 117 on its list of "The 500 Greatest Albums of All Time". Critic Robert Christgau ranked Layla the third greatest album of the 1970s.

50th Anniversary Deluxe Edition contains the original album and a bonus disc containing out-takes, both sides of a rare non-LP single produced by Phil Spector and the band’s complete performance on The Johnny Cash Show from November 1970 (featuring guest appearances from Cash and Carl Perkins on Perkins’ own “Matchbox”). The rest of the disc is devoted to sessions from the group’s aborted second LP, newly remixed for this edition.

***************

Track List CD1 - The Original Album:

01. I Looked Away [3:09]
02. Bell Bottom Blues [5:05]
03. Keep On Growing [6:24]
04. Nobody Knows You When You’re Down And Out [5:01]
05. I Am Yours [3:38]
06. Anyday [6:37]
07. Key To The Highway [9:41]
08. Tell The Truth [6:42]
09. Why Does Love Got To Be So Sad? [4:45]
10. Have You Ever Loved A Woman [6:55]
11. Little Wing [5:37]
12. It’s Too Late [3:53]
13. Layla [7:07]
14. Thorn Tree In The Garden [2:54]

Exact Audio Copy V1.3 from 2. September 2016

EAC extraction logfile from 2. January 2021, 23:27

Derek and the Dominos / Layla And Other Assorted Love Songs CD1

Used drive : ATAPI iHAS122 C Adapter: 1 ID: 0

Read mode : Secure
Utilize accurate stream : Yes
Defeat audio cache : Yes
Make use of C2 pointers : No

Read offset correction : 6
Overread into Lead-In and Lead-Out : No
Fill up missing offset samples with silence : Yes
Delete leading and trailing silent blocks : No
Null samples used in CRC calculations : Yes
Used interface : Native Win32 interface for Win NT & 2000

Used output format : Internal WAV Routines
Sample format : 44.100 Hz; 16 Bit; Stereo


TOC of the extracted CD

Track | Start | Length | Start sector | End sector
––––––––––––––––––––––––––––-
1 | 0:00.00 | 3:08.01 | 0 | 14100
2 | 3:08.01 | 5:04.38 | 14101 | 36938
3 | 8:12.39 | 6:23.02 | 36939 | 65665
4 | 14:35.41 | 5:00.07 | 65666 | 88172
5 | 19:35.48 | 3:37.31 | 88173 | 104478
6 | 23:13.04 | 6:36.66 | 104479 | 134244
7 | 29:49.70 | 9:40.43 | 134245 | 177787
8 | 39:30.38 | 6:41.63 | 177788 | 207925
9 | 46:12.26 | 4:44.35 | 207926 | 229260
10 | 50:56.61 | 6:54.29 | 229261 | 260339
11 | 57:51.15 | 5:36.25 | 260340 | 285564
12 | 63:27.40 | 3:52.58 | 285565 | 303022
13 | 67:20.23 | 7:06.42 | 303023 | 335014
14 | 74:26.65 | 2:53.01 | 335015 | 347990


Range status and errors

Selected range

Filename C:\Users\LondonW1\Desktop\Derek and the Dominos - Layla And Other Assorted Love Songs CD1.wav

Peak level 100.0 %
Extraction speed 3.8 X
Range quality 100.0 %
Test CRC 75BC1A15
Copy CRC 75BC1A15
Copy OK

No errors occurred


AccurateRip summary

Track 1 not present in database
Track 2 not present in database
Track 3 not present in database
Track 4 not present in database
Track 5 not present in database
Track 6 not present in database
Track 7 not present in database
Track 8 not present in database
Track 9 not present in database
Track 10 not present in database
Track 11 not present in database
Track 12 not present in database
Track 13 not present in database
Track 14 not present in database

None of the tracks are present in the AccurateRip database

End of status report

–– CUETools DB Plugin V2.1.6

[CTDB TOCID: KcOQoxKlTCW0d_hT7.r6VFnAxcw-] found
Submit result: already submitted
Track | CTDB Status
1 | (12/12) Accurately ripped
2 | (12/12) Accurately ripped
3 | (12/12) Accurately ripped
4 | (12/12) Accurately ripped
5 | (12/12) Accurately ripped
6 | (12/12) Accurately ripped
7 | (12/12) Accurately ripped
8 | (12/12) Accurately ripped
9 | (12/12) Accurately ripped
10 | (12/12) Accurately ripped
11 | (12/12) Accurately ripped
12 | (12/12) Accurately ripped
13 | (12/12) Accurately ripped
14 | (12/12) Accurately ripped


==== Log checksum 3E818879D8A57F052AFDE6DC5502B147CA8F2B3C0923E7AECD638304B21F0E72 ====

foobar2000 1.4 / Dynamic Range Meter 1.1.1
log date: 2021-01-04 11:56:28

––––––––––––––––––––––––––––––––––––––––
Analyzed: Derek and the Dominos / Layla And Other Assorted Love Songs CD1
––––––––––––––––––––––––––––––––––––––––

DR Peak RMS Duration Track
––––––––––––––––––––––––––––––––––––––––
DR8 -0.99 dB -10.27 dB 3:08 01-I Looked Away
DR5 -1.43 dB -8.90 dB 5:05 02-Bell Bottom Blues
DR7 -1.67 dB -9.86 dB 6:23 03-Keep On Growing
DR6 -0.97 dB -9.08 dB 5:00 04-Nobody Knows You When You’re Down And Out
DR11 -1.90 dB -15.43 dB 3:37 05-I Am Yours
DR6 -0.67 dB -8.74 dB 6:37 06-Anyday
DR6 -1.07 dB -8.81 dB 9:41 07-Key To The Highway
DR5 -0.51 dB -7.11 dB 6:42 08-Tell The Truth
DR7 0.00 dB -8.90 dB 4:44 09-Why Does Love Got To Be So Sad?
DR6 -0.24 dB -8.78 dB 6:54 10-Have You Ever Loved A Woman
DR5 -0.75 dB -6.81 dB 5:36 11-Little Wing
DR5 -0.90 dB -8.30 dB 3:53 12-It’s Too Late
DR5 -0.60 dB -7.02 dB 7:07 13-Layla
DR11 -1.29 dB -16.45 dB 2:53 14-Thorn Tree In The Garden
––––––––––––––––––––––––––––––––––––––––

Number of tracks: 14
Official DR value: DR7

Samplerate: 44100 Hz
Channels: 2
Bits per sample: 16
Bitrate: 939 kbps
Codec: FLAC
================================================================================

[CUETools log; Date: 04.01.2021 11:56:32; Version: 2.1.6]
[CTDB TOCID: KcOQoxKlTCW0d_hT7.r6VFnAxcw-] found.
Track | CTDB Status
1 | (12/12) Accurately ripped
2 | (12/12) Accurately ripped
3 | (12/12) Accurately ripped
4 | (12/12) Accurately ripped
5 | (12/12) Accurately ripped
6 | (12/12) Accurately ripped
7 | (12/12) Accurately ripped
8 | (12/12) Accurately ripped
9 | (12/12) Accurately ripped
10 | (12/12) Accurately ripped
11 | (12/12) Accurately ripped
12 | (12/12) Accurately ripped
13 | (12/12) Accurately ripped
14 | (12/12) Accurately ripped
[AccurateRip ID: 00278730-01ad4f70-de121f0e] disk not present in database.

Track Peak [ CRC32 ] [W/O NULL] [ LOG ]
– 100,0 [75BC1A15] [4B4F3A07] CRC32
01 89,2 [39BFBD8A] [886A3C49]
02 84,8 [806C74B9] [F8AAAC84]
03 82,4 [A1D06123] [BA430480]
04 89,4 [17E8B6B5] [9B1E093B]
05 80,3 [8B23BA0D] [1555492D]
06 92,5 [1AFF6A2C] [5B241A10]
07 88,4 [72025F78] [8AA8AD61]
08 94,3 [61A7A6BD] [66D81043]
09 100,0 [9BBD6FAE] [2E07231F]
10 97,2 [0BFF6EE0] [487B53A5]
11 91,7 [522314D1] [EDEF54BE]
12 90,1 [D6B3F116] [0A6E3D95]
13 93,2 [5D6A9EBD] [048D51B3]
14 86,1 [55511F4D] [C85AB6DF]

Track List CD2 - Bonus Disc:

01. Mean Old World [3:52]
02. Roll It Over [4:33]
03. Tell the Truth [3:25]
04. It’s Too Late (live on The Johnny Cash TV Show, 5 November, 1970) [4:13]
05. Got to Get Better in a Little While (live on The Johnny Cash TV Show, 5 Novem… [6:35]
06. Matchbox (live on The Johnny Cash TV Show, 5 November, 1970) [3:57]
07. Blues Power (live on The Johnny Cash TV Show, 5 November, 1970) [6:34]
08. Snake Lake Blues [3:34]
09. Evil [4:36]
10. Mean Old Frisco [4:08]
11. One More Chance [3:18]
12. Got to Get Better in a Little While Jam [3:46]
13. Got to Get Better in a Little While [6:08]

Exact Audio Copy V1.3 from 2. September 2016

EAC extraction logfile from 3. January 2021, 20:08

Derek and the Dominos / Layla And Other Assorted Love Songs CD2

Used drive : ATAPI iHAS122 C Adapter: 1 ID: 0

Read mode : Secure
Utilize accurate stream : Yes
Defeat audio cache : Yes
Make use of C2 pointers : No

Read offset correction : 6
Overread into Lead-In and Lead-Out : No
Fill up missing offset samples with silence : Yes
Delete leading and trailing silent blocks : No
Null samples used in CRC calculations : Yes
Used interface : Native Win32 interface for Win NT & 2000

Used output format : Internal WAV Routines
Sample format : 44.100 Hz; 16 Bit; Stereo


TOC of the extracted CD

Track | Start | Length | Start sector | End sector
––––––––––––––––––––––––––––-
1 | 0:00.00 | 3:51.02 | 0 | 17326
2 | 3:51.02 | 4:32.65 | 17327 | 37791
3 | 8:23.67 | 3:24.43 | 37792 | 53134
4 | 11:48.35 | 4:12.07 | 53135 | 72041
5 | 16:00.42 | 6:34.50 | 72042 | 101641
6 | 22:35.17 | 3:56.67 | 101642 | 119408
7 | 26:32.09 | 6:33.30 | 119409 | 148913
8 | 33:05.39 | 3:33.45 | 148914 | 164933
9 | 36:39.09 | 4:35.69 | 164934 | 185627
10 | 41:15.03 | 4:07.51 | 185628 | 204203
11 | 45:22.54 | 3:17.49 | 204204 | 219027
12 | 48:40.28 | 3:45.18 | 219028 | 235920
13 | 52:25.46 | 6:07.47 | 235921 | 263492


Range status and errors

Selected range

Filename C:\Users\LondonW1\Desktop\Derek and the Dominos - Layla And Other Assorted Love Songs CD2.wav

Peak level 100.0 %
Extraction speed 8.6 X
Range quality 99.9 %
Test CRC 1CBBD837
Copy CRC 1CBBD837
Copy OK

No errors occurred


AccurateRip summary

Track 1 not present in database
Track 2 not present in database
Track 3 not present in database
Track 4 not present in database
Track 5 not present in database
Track 6 not present in database
Track 7 not present in database
Track 8 not present in database
Track 9 not present in database
Track 10 not present in database
Track 11 not present in database
Track 12 not present in database
Track 13 not present in database

None of the tracks are present in the AccurateRip database

End of status report

–– CUETools DB Plugin V2.1.6

[CTDB TOCID: HXRImMCM_WerWjzbZWyVHkEBvxM-] found
Submit result: already submitted
Track | CTDB Status
1 | (11/11) Accurately ripped
2 | (11/11) Accurately ripped
3 | (11/11) Accurately ripped
4 | (11/11) Accurately ripped
5 | (11/11) Accurately ripped
6 | (11/11) Accurately ripped
7 | (11/11) Accurately ripped
8 | (11/11) Accurately ripped
9 | (11/11) Accurately ripped
10 | (11/11) Accurately ripped
11 | (11/11) Accurately ripped
12 | (11/11) Accurately ripped
13 | (11/11) Accurately ripped


==== Log checksum CD57783A06DCA4F143559BF2A38D05434BE781B3AD028417B595D37A896AA5F2 ====

foobar2000 1.4 / Dynamic Range Meter 1.1.1
log date: 2021-01-04 11:59:42

––––––––––––––––––––––––––––––––––––––––
Analyzed: Derek and the Dominos / Layla And Other Assorted Love Songs CD2
––––––––––––––––––––––––––––––––––––––––

DR Peak RMS Duration Track
––––––––––––––––––––––––––––––––––––––––
DR10 -0.70 dB -12.85 dB 3:51 01-Mean Old World
DR7 -0.31 dB -8.08 dB 4:33 02-Roll It Over
DR6 0.00 dB -7.09 dB 3:25 03-Tell the Truth
DR9 0.00 dB -9.98 dB 4:12 04-It’s Too Late (live on The Johnny Cash TV Show, 5 November, 1970)
DR8 0.00 dB -9.51 dB 6:35 05-Got to Get Better in a Little While (live on The Johnny Cash TV Show, 5 Novem…
DR7 -0.88 dB -9.24 dB 6:33 07-Blues Power (live on The Johnny Cash TV Show, 5 November, 1970)
DR9 -0.79 dB -11.12 dB 3:34 08-Snake Lake Blues
DR9 0.00 dB -10.06 dB 4:36 09-Evil
DR9 -0.24 dB -10.58 dB 4:08 10-Mean Old Frisco
DR10 0.00 dB -11.62 dB 3:18 11-One More Chance
DR9 -0.87 dB -11.10 dB 3:45 12-Got to Get Better in a Little While Jam
DR8 0.00 dB -9.04 dB 6:08 13-Got to Get Better in a Little While
––––––––––––––––––––––––––––––––––––––––

Number of tracks: 12
Official DR value: DR8

Samplerate: 44100 Hz
Channels: 2
Bits per sample: 16
Bitrate: 873 kbps
Codec: FLAC
================================================================================

foobar2000 1.4 / Dynamic Range Meter 1.1.1
log date: 2021-01-04 11:59:31

––––––––––––––––––––––––––––––––––––––––
Statistics for: 06-Matchbox (live on The Johnny Cash TV Show, 5 November, 1970)
Number of samples: 10446996
Duration: 3:57
––––––––––––––––––––––––––––––––––––––––

Left Right

Peak Value: -1.47 dB –- -1.46 dB
Avg RMS: -9.90 dB –- -10.24 dB
DR channel: 6.24 dB –- 6.33 dB
––––––––––––––––––––––––––––––––––––––––

Official DR Value: DR6

Samplerate: 44100 Hz
Channels: 2
Bits per sample: 16
Bitrate: 873 kbps
Codec: FLAC
================================================================================

[CUETools log; Date: 04.01.2021 11:59:21; Version: 2.1.6]
[CTDB TOCID: HXRImMCM_WerWjzbZWyVHkEBvxM-] found.
Track | CTDB Status
1 | (11/11) Accurately ripped
2 | (11/11) Accurately ripped
3 | (11/11) Accurately ripped
4 | (11/11) Accurately ripped
5 | (11/11) Accurately ripped
6 | (11/11) Accurately ripped
7 | (11/11) Accurately ripped
8 | (11/11) Accurately ripped
9 | (11/11) Accurately ripped
10 | (11/11) Accurately ripped
11 | (11/11) Accurately ripped
12 | (11/11) Accurately ripped
13 | (11/11) Accurately ripped
[AccurateRip ID: 001bd2ed-0117ad75-af0db90d] disk not present in database.

Track Peak [ CRC32 ] [W/O NULL] [ LOG ]
– 100,0 [1CBBD837] [6681240A] CRC32
01 92,3 [67AC7626] [A1ACCCCE]
02 96,5 [DAE8B72A] [4A267725]
03 100,0 [7B994841] [1251C1C1]
04 100,0 [D4CD5313] [4BE59E66]
05 100,0 [C2AEC195] [631F2768]
06 84,5 [B6CEDFE4] [BB4A8D5B]
07 90,3 [00CCFB88] [3DFF2B22]
08 91,2 [E7889BAB] [7B3344C0]
09 100,0 [65FB856D] [756BB78F]
10 97,2 [5DE44D9B] [882EAE57]
11 100,0 [20E41F0A] [059B335B]
12 90,4 [712DB03F] [F54EEAF5]
13 100,0 [2426ED0F] [5D6FCC31]

Derek And The Dominos - Layla And Other Assorted Love Songs (1970) {2020, 50th Anniversary Deluxe Edition}


See also:

Derek And The Dominos - Lay...) {1989, Japanese Edition}

Derek And The Dominos - Lay...astered, Japanese Reissue}

All thanks go to London

>>> Eric Clapton in my Blog <<<

DOWNLOAD: