Subcategories

Destruction - Thrash Anthems II (2017)

Posted By: Andi_Deris
Destruction - Thrash Anthems II (2017)

Destruction - Thrash Anthems II (2017)
EAC Rip | FLAC: Image+Cue+Log | 435 Mb | MP3 CBR 320 kbps | 135 Mb | Scans | 41 Mb | 53:26
Nuclear Blast Records | NB 4127-2 27361 41272
Thrash Metal

In 2007, DESTRUCTION proved how successful re-recording some of their timeless classics and reimagining history could be. The follow-up to 2007's »Thrash Anthems« is ready to rock the metal world and shows how fans can be part of both a band's history and future. For »Thrash Anthems II«, DESTRUCTION called upon on their loyal fans through PledgeMusic to help them create the record and contribute to the band's epic history.

Destruction - Thrash Anthems II (2017)




Track Listing

01. Confused Mind (05:51)
02. Black Mass (04:00)
03. Frontbeast (02:01)
04. Dissatisfied Existence (04:34)
05. United By Hatred (04:37)
06. The Ritual (04:40)
07. Black Death (06:40)
08. The Antichrist (03:12)
09. Confound Games (04:52)
10. Rippin' You Off Blind (05:31)
11. Satan's Vengeance (03:23)
12. Holiday In Cambodia (Dead Kennedys cover) (Bonus Track) (04:07)

Produced by Destruction & V.O. Pulver

The Band

• Marcel "Schmier" Schirmer - Vocals, Bass
• Mike Sifringer - Guitars
• Wawrzyniec "Vaaver" Dramowicz - Drums, Backing Vocals

Exact Audio Copy V1.3 from 2. September 2016

EAC extraction logfile from 2. November 2017, 18:12

Destruction / Thrash Anthems II

Used drive : ATAPI iHAS122 W Adapter: 2 ID: 0

Read mode : Secure
Utilize accurate stream : Yes
Defeat audio cache : Yes
Make use of C2 pointers : No

Read offset correction : 48
Overread into Lead-In and Lead-Out : No
Fill up missing offset samples with silence : Yes
Delete leading and trailing silent blocks : No
Null samples used in CRC calculations : Yes
Used interface : Installed external ASPI interface

Used output format : User Defined Encoder
Selected bitrate : 1024 kBit/s
Quality : High
Add ID3 tag : No
Command line compressor : C:\Program Files\FLAC\flac.exe
Additional command line options : -V -8 -T "Date=%year%" -T "Genre=%genre%" -T"COMMENT=Ripped by Ilijan" -8 -V %source%


TOC of the extracted CD

Track | Start | Length | Start sector | End sector
––––––––––––––––––––––––––––-
1 | 0:00.00 | 5:50.47 | 0 | 26296
2 | 5:50.47 | 3:59.61 | 26297 | 44282
3 | 9:50.33 | 2:01.00 | 44283 | 53357
4 | 11:51.33 | 4:34.14 | 53358 | 73921
5 | 16:25.47 | 4:36.39 | 73922 | 94660
6 | 21:02.11 | 4:40.17 | 94661 | 115677
7 | 25:42.28 | 6:39.48 | 115678 | 145650
8 | 32:22.01 | 3:11.40 | 145651 | 160015
9 | 35:33.41 | 4:51.35 | 160016 | 181875
10 | 40:25.01 | 5:30.70 | 181876 | 206695
11 | 45:55.71 | 3:22.43 | 206696 | 221888
12 | 49:18.39 | 4:06.41 | 221889 | 240379


Range status and errors

Selected range

Filename D:\VkniSHIT\Destruction - Thrash Anthems II.wav

Peak level 99.0 %
Extraction speed 3.1 X
Range quality 100.0 %
Test CRC 12CADB7A
Copy CRC 12CADB7A
Copy OK

No errors occurred


AccurateRip summary

Track 1 accurately ripped (confidence 1) [3EEB5A36] (AR v2)
Track 2 accurately ripped (confidence 1) [08F6E417] (AR v2)
Track 3 accurately ripped (confidence 1) [87E34ACC] (AR v2)
Track 4 accurately ripped (confidence 1) [F94DADDB] (AR v2)
Track 5 accurately ripped (confidence 1) [FC64328C] (AR v2)
Track 6 accurately ripped (confidence 1) [6477A167] (AR v2)
Track 7 accurately ripped (confidence 1) [10DFDE61] (AR v2)
Track 8 accurately ripped (confidence 1) [C75B2387] (AR v2)
Track 9 accurately ripped (confidence 1) [1FA7F167] (AR v2)
Track 10 accurately ripped (confidence 1) [F2A8D2BC] (AR v2)
Track 11 accurately ripped (confidence 1) [B115F0EB] (AR v2)
Track 12 accurately ripped (confidence 1) [D2E1FD91] (AR v2)

All tracks accurately ripped

End of status report

–– CUETools DB Plugin V2.1.6

[CTDB TOCID: PQ3937N78e3kGJM3SyaK8PYTYXo-] found
Submit result: PQ3937N78e3kGJM3SyaK8PYTYXo- has been confirmed
Track | CTDB Status
1 | (1/1) Accurately ripped
2 | (1/1) Accurately ripped
3 | (1/1) Accurately ripped
4 | (1/1) Accurately ripped
5 | (1/1) Accurately ripped
6 | (1/1) Accurately ripped
7 | (1/1) Accurately ripped
8 | (1/1) Accurately ripped
9 | (1/1) Accurately ripped
10 | (1/1) Accurately ripped
11 | (1/1) Accurately ripped
12 | (1/1) Accurately ripped


==== Log checksum C26193D7485573A04A71CA27108B0365B69F37FFE8D7E11C834224B238F8D497 ====


Many thanks to the original uploader: Ilijan

SEE also:
Destruction 2012 Spiritual Genocide [Limited Edition Digibook]



Password: pass