Subcategories
Tags
Language
Tags

Deutsche Harmonia Mundi - 100 Great Recordings, Part 2 (2017)

Posted By: ArlegZ
Deutsche Harmonia Mundi - 100 Great Recordings, Part 2 (2017)

Deutsche Harmonia Mundi - 100 Great Recordings, Part 2 (2017)
EAC | FLAC | Image (Cue & Log) ~ 7,49 Gb | Scans included
Classical | Label: Deutsche Harmonia Mundi | # 19075800702 | Recorded: 1960-2013

Since it's founding in Freiburg in 1958, Deutsche Harmonia Mundi has been one of the most important and ambitious labels for period performances. Over decades, globally-acclaimed recordings were created with outstanding musicians. The limited edition "Deutsche Harmonia Mundi: 100 Great Recordings" contains 100 outstanding DHM recordings with some of the most important and best artists in their field: Nuria Rial, Dorothee Mields, Al Ayre Espanol, Hille Perl, Concentus Musicus Wien, Nikolaus Harnoncourt, the Freiburger Barockorchester, Skip Sempé, Capriccio Stravagante, La Petite Bande, Gustav Leonhardt, Andrew Lawrence-King, Frieder Bernius, the Balthasar-Neumann-Chor, Thomas Hengelbrock and many others.

Contents:
CD 26: Frescobaldi - Canzoni da sonare
Musica Fiata · Wilson
CD 27: Cristobal Galán - Fire & Ice
Accentus Austria
CD 28: Geminiani - Concerti grossi
La Petite Bande · Kuijken
CD 29: Francisco Guerrero - The Angel’s Voice
La Sestina
CD 30–32: Händel - Concerti grossi op. 6 · Concerto · “Alexanderfest”
Collegium Aureum · Maier
CD 33–35: Händel - Rodelinda
Schlick · Prégardien · La Stagione · Schneider
CD 36: Händel - Water Music
English Baroque Soloists · Gardiner
CD 37-38: Händel - Woodwind Sonatas
Camerata Köln
CD 39: Haydn - Cello Concertos
Suzuki · La Petite Bande · Kuijken
CD 40-41: Haydn - The Creation
Kermes · Mields Balthasar-Neumann-Ensemble · Hengelbrock
CD 42: Haydn - London Symphonies
La Petite Bande · Kuijken
CD 43: Haydn - 3 Paris Symphonies
Collegium Aureum · Maier
CD 44 Literes - Acis y Galatea
Al Ayre Español · Banzo
CD 45: Locatelli - 6 Introduttioni Teatrali op. 4
Freiburger Barockorchester · Hengelbrock
CD 46: Lully - Divertissements
Capriccio Stravagante · Sempé
CD 47: Marianna Martines - Il primo amore
Rial · La Floridiana · Paraschivescu
CD 48: Philippo Martino - Lute Trios
The Age of Passions
CD 49: Mozart - Trio Sonatas K.10–15 · Divertimento K.254
Mozart Trio
CD 50-51: Mozart - Zaide
Concentus Musicus Wien · Harnoncourt


CD 26: Frescobaldi - Canzoni da sonare
01 Canzon A 8
02 Canzon Prima Basso Solo
03 Canzon Quinta A 3, Due Canti E Basso
04 Canzon Quinta A 4, Canto, Alto, Tenor, Basso
05 Toccata Decima (secondo Libro)
06 Canzona Terza, Detta "La Donatina"
07 Canzona Terza A 2 Bassi
08 Canzon Seconda A 4, Due Canti E Due Bassi
09 Toccata Per Spinettina E Violino
10 Canzona Decimanova, Detta "La Capriola", Canto E Basso
11 Canzona Nona, Detta "La Gualterina" A Due Canti
12 Canzona Decima, Detta "L'Henricuccia" A Due Canti
13 Capriccio Sopra La Bassa Fiamenga
14 Canzona Vigesima, Detta "La Lipparella"
15 Canzona Sesta, Detta "L'Altera"
16 Canzon Terza A Due Canti
17 Toccata Undecima (libro Primo)
18 Canzona Decimasettima Detta "La Diodata" A Due Bassi
19 Canzona Seconda Detta "La Bernadinia", Canto Solo
20 Canzona Trigesimaprima Detta "L'Arnolfinia", Due Canti E Due Bassi
CD 27: Cristobal Galán - Fire & Ice
01 Vuele, Vuele Feliz Mariposa - Villancico Al Sanitisimo Sacramento
02 Atención Al Retrato De Filis - Solo Humano
03 Fuentecillas Lisonjeras - Duo De Maestro Galán
04 O Qué Mal Vamos Amor - Villancico A 4 De Ynstrumentos
05 Humano Ardour - Al Santisimo / Duo Con Ynstrumentos
06 Pintar Quiero Una Imagen - Duo Para Un Velo
07 Mariposa No Corras Al Fuego - Tonada Solo Al Sanitisimo Sacramento
08 Pajarillo Que Cantas Ausente - Tono Humano
09 Ay, Ay, Cruel Delito - A Christo Cruçificado
10 Pajarillo Que Al Alba Saludas - Solo Y A 4
11 Ya Los Caballos De Jazmín Y Rosa - Tonada Humana
12 Que Ha De Tener Llegaré - Duo Al Santissimo Sacramento
CD 28: Geminiani - Concerti grossi
Concerto Grosso Op. 3 No.3 In E Minor
01 I. Grave · Allegro Moderato
02 II. Andante · Allegro
Concerto Grosso Op. 2 No.6 In A Major
03 I. Andante
04 II. (Allegro) · Grave
05 III. Allegro
Concerto Grosso Op. 7 No.2 In D Minor
06 I. Grave
07 II. Allegro Assai
08 III. Andante
09 IV. Allegro
10 Concerto Grosso No.6 In D Minor / Thema And 23 Variations On 'La Folia' Op. 5 No.12 From Corelli
Concerto Grosso No.5 In G Minor
11 I. Adagio
12 II. Vivace · Adagio
13 III. Adagio
14 IV. Allegro
Concerto Grosso Op. 2 No.5 In C Minor
15 I. Andante Moderato
16 II. Presto
17 III. Andante
18 IV. Allegro
CD 29: Francisco Guerrero - The Angel’s Voice
01 Gabriel Archangelus - Motet A 4
Missa L'homme Armé A 4
02 Kyrie
03 Gloria
04 In Illo Tempore - Motet A 4
Missa L'homme Armé A 4
05 Credo
06 ¡Qué Buen Año!
07 Ojos Claros, Serenos - Canción A 4
08 Vana Sperança - Canción A 4
09 Acabe De Matarme - Canción A 4
10 O Virgen, Quand'os Miro - Canción A 3
11 Es Menester Que Se Açierte - Villanesca A 3
12 Adiós, Verde Ribera - Canción A 4
13 Virgo Prudentissima - Motet A 4
Missa L'homme Armé A 4
14 Sanctus - Benedictus
15 Agnus Dei
16 Sancta Et Immaculata - Motet A 4
CD 30–32: Händel - Concerti grossi op. 6 · Concerto · “Alexanderfest”
Concerto Grosso In G Major, Op. 6 No. 1, HWV 319
01 I. A Tempo Giusto
02 II. Allegro
03 III. Adagio
04 IV. Allegro
05 V. Allegro
Concerto Grosso In F Major, Op. 6 No. 2, HWV 320
06 I. Andante Larghetto
07 II. Allegro
08 III. Largo: Larghetto Andante E Piano
09 IV. Allegro Ma Non Troppo
Concerto Grosso In E Minor, Op. 6 No. 3, HWV 321
10 I. Larghetto
11 II. Andante
12 III. Allegro
13 IV. Polonaise: Andante
14 V. Allegro Ma Non Troppo
Concerto Grosso In A Minor, Op. 6 No. 4, HWV 322
15 I. Larghetto Affettuoso
16 II. Allegro
17 III. Largo
18 IV. Allegro
Concerto Grosso In D Major, Op. 6 No. 5, HWV 323
19 I. Larghetto E Staccato
20 II. Allegro
21 III. Presto
22 IV. Largo
23 V. Allegro
24 VI. Menuet: Un Poco Larghetto
CD 31:
Concerto Grosso In G Minor, Op. 6 No. 6, HWV 324
01 I. Largo Affettuoso
02 II. A Tempo Giusto
03 III. Musette: Larghetto
04 IV. Allegretto
05 V. Allegro
Concerto Grosso In B-Flat Major, Op. 6 No. 7, HWV 325
06 I. Largo
07 II. Allegro
08 III. Largo
09 IV. Andante
10 V. Hornpipe
Concerto Grosso In C Minor, Op. 6 No. 8, HWV 326
11 I. Allemande
12 II. Grave
13 III. Andante Allegro
14 IV. Adagio
15 V. Siciliana: Andante
16 VI. Allegro
Concerto Grosso In F Major, Op. 6 No. 9, HWV 327
17 I. Largo
18 II. Allegro
19 III. Larghetto
20 IV. Allegro
21 V. Menuet
22 VI. Gigue
CD 32:
Concerto Grosso In D Minor, Op. 6 No. 10, HWV 328
01 I. Ouverture
02 II. Allegro
03 III. Air: Lentement
04 IV. Allegro
05 V. Allegro
06 VI. Allegro Moderato
Concerto Grosso In A Major, Op. 6 No. 11, HWV 329
07 I. Andante Larghetto E Staccato
08 II. Allegro
09 III. Largo E Staccato
10 IV. Andante
11 V. Allegro
Concerto Grosso In B Minor, Op. 6 No. 12, HWV 330
12 I. Largo
13 II. Allegro
14 III. Aria: Larghetto E Piano
15 IV. Largo
16 V. Allegro
Concerto Grosso In C Major, HWV 318, 'Alexanderfest'
17 I. Allegro
18 II. Largo
19 III. Allegro
Concerto Grosso "Alexanderfest"
20 Andante Non Presto
CD 33–35: Händel - Rodelinda
01 Act 1: Ouverture
02 Act 1: Menuet
03 Act 1: Hò Perduto Il Caro Sposo
04 Act 1: Regina!'
05 Act 1: L'empio Rigor Del Fato
06 Act 1: Duca, Vedesti Mai
07 Act 1: E Tanto Da Che Sei Rè
08 Act 1: Io Già T'amai, Ritrosa
09 Act 1: E Tu Dice D'amarmi?
10 Act 1: Lo Farò, Dirò Spietato
11 Act 1: Eduige, T'inganni
12 Act 1: Di Cupido Impiego I Vanni
13 Act 1: Pompe Vane Di Morte! - Dove Sei, Amato Bene!
14 Act 1: Mà Giunge Unulfo
15 Act 1: Ombre, Piante, Urne Funeste!
16 Act 1: Baci Inutili E Vani
17 Act 1: Morrai Sì, L'empia
18 Act 1: E Ben, Duca, Poss'io
19 Act 1: Se Per Te Giungo A Godere
20 Act 1: Unulfo, Oh Dio!
21 Act 1: Sono I Colpi Della Sorte
22 Act 1: Sì, L'infida Consorte
23 Act 1: Confusa Si Miri
CD 34:
01 Act 2: Recitativo 'Già Perdesti, Oh Signora'
02 Act 2: Recitativo 'Rodelinda, Si Mesta Ritorni'
03 Act 2: Aria 'De'miei Scherni' (Eduige)
04 Act 2: Recitativo 'Rodelinda, è Pur Ver?'
05 Act 2: Aria 'Spietati, Io Vi Giurai' (Rodelinda)
06 Act 2: Recitativo 'Unulfo, Garibaldo'
07 Act 2: Aria 'Prigioniera Hó L'alma' (Grimoaldo)
08 Act 2: Recitativo 'Massime Così Indegne'
09 Act 2: Aria 'Tirannia Gli Diede Il Regno' (Garibaldo)
10 Act 2: Recitativo 'Sì, Sì Fellon, T'intendo'
11 Act 2: Aria 'Frà Tempeste Funeste' (Unulfo)
12 Act 2: Aria 'Con Rauco Mormorio' (Bertarido)
13 Act 2: Recitativo 'Ah, Nò; Che Non M'inganna'
14 Act 2: Aria 'Scacciata Dal Suo Nido' (Bertarido)
15 Act 2: Recitativo 'Vive Il Mio Sposo?'
16 Act 2: Aria 'Ritorna, Oh Caro E Dolce' (Rodelinda)
17 Act 2: Recitativo 'Ah! Sì, Ecco Lo Sposo'
18 Act 2: Aria 'Tuo Drudo è Mio Rivale' (Grimoaldo)
19 Act 2: Recitativo 'Non Ti Bastò, Consorte'
20 Act 2: Duetto 'Io T'abbraccio'
CD 35:
01 Act3: Recitativio 'Del German Nel Periglio'
02 Act3: Aria 'Un Zeffiro Spirò' (Unulfo)
03 Act3: Recitativio 'Con Opra Giusta'
04 Act3: Aria 'Quanto Più Fiera Tempesta' (Eduige)
05 Act3: Recitativio 'O Falso è Bertarido'
06 Act3: Aria 'Trà Sospetti, Affetti' (Grimoaldo)
07 Act3: Recitatavio & Aria 'Chi Di Voi Fù Più Infedele' - 'Mà Non Che Sò Dal Remoto' (Bertarido)
08 Act3: Recitativio 'Non Temere, Signore!'
09 Act3: Aria 'Se'l Mio Duo' (Rodelinda)
10 Act3: Recitativio 'Fatto Inferno è Ll Mio'
11 Act3: Aria 'Pastorello D'un Povero' (Grimoaldo)
12 Act3: Recitativio 'Che Miro? Amica Sorte'
13 Act3: Recitativio 'Tu Morrai, Traditor!'
14 Act3: Aria 'Vivi Tiranno!' (Bertarido)
15 Act3: Recitativio 'Dunque Sei Ertarido?'
16 Act3: Recitativio 'Ecco Ti Innanzi Il Reo'
17 Act3: Aria 'Mio Caro Bene!' (Rodelinda)
18 Act3: Recitativio 'Sposa, Figlio, Sorella'
19 Act3: Coro 'Dopo La Notte Oscura'
CD 36: Händel - Water Music
Suite In F Major, HWV 348
01 Allegro (Variations No. 1-11)
02 Overture: Largo Allegro
03 Adagio E Staccato
04 (Minuet)
05 Andante
06 Minuet (reprise)
07 Passepied
08 Air
09 Minuet
10 Bourrée
11 Hornpipe
12 (Andante)
13 Alla Hornpipe (Variation No. 12)
Suite In G Major, HWV 349
14 (Minuet)
15 Rigaudon I & II
16 Minuet I & II
17 (Gigue I & II)
Suite In D Major, HWV 350
18 (Allegro)
19 Alla Hornpipe
20 Minuet
21 Lentement
22 Bourrée
CD 37-38: Händel - Woodwind Sonatas
Sonata In D Major For Transverse Flute
01 I. Largo
02 II. Allegro
03 III. Adagio
04 IV. Allegro
Sonata In B-flat Major For Oboe
05 I. Andante
06 II. Grave
07 III. Allegro
Sonata In B Minor For Transverse Flute, Op. 1 No. 9
08 I. Largo
09 II. Vivace
10 III. Presto
11 IV. Adagio
12 V. Alla Breve
13 VI. Andante
14 VII. A Tempo Di Minuet
Sonata In G Minor For Oboe, Op. 1 No. 6
15 I. Larghetto
16 II. Allegro
17 III. Adagio
18 IV. Allegro
Sonata In E Minor For Transverse Flute, Op. 1 No. 1b
19 I. Grave
20 II. Allegro
21 III. Adagio
22 IV. Allegro
Sonata In C Minor For Oboe, Op. 1 No. 8
23 I. (Larghetto)
24 II. Allegro
25 III. Adagio
26 IV. Allegro (Bourée Angloise)
Sonata In G Major For Transverse Flute, Op. 1 No. 5
27 I. Adagio
28 II. Allegro
29 III. Adagio
30 IV. Bourée
31 V. Menuetto
Sonata In F Major For Oboe
32 I. Adagio
33 II. Allegro
34 III. Adagio
35 IV. Bourée
36 V. Menuetto
CD 38:
01 Sonata In D Minor For Recorder & B. C.
02 Sonata In B-flat Major For Recorder & B. C.
03 Sonata In G Minor For Recorder & B. C., Op. 1 No. 2
04 Sonata In A Minor For Recorder & B. C., Op. 1 No. 4
05 Sonata In C Major For Recorder & B. C., Op. 1 No. 7
06 Sonata In F Major For Recorder & B. C., Op. 1 No. 11
07 Sonata In G Major For Recorder & B. C.
08 Trio In F Major For 2 Recorders & B. C.
CD 39: Haydn - Cello Concertos
Cello Concerto No. 1 In C Major
01 Moderato
02 Adagio
03 Allegro Molto
Cello Concerto No. 2 In D Major
04 Allegro Moderato
05 Adagio
06 Allegro
Sinfonia Concertante
07 Allegro
08 Andante
09 Allegro Con Spirito
CD 40-41: Haydn - Die Schöpfung, Hob. XXI:2
Part I
01 Die Vorstellung Des Chaos
02 Im Anfange Schuf Gott Himmel Und Erde (Rec. Acc.)
03 Nun Schwanden Vor Dem Heiligen Strahle (Aria)
04 Und Gott Machte Das Firmament (Rec.)
05 Mit Staunen Sieht Das Wunderwerk
06 Und Gott Sprach: Es Sammle Sich Das Wasser (Rec.)
07 Rollend In Schäumenden Wellen (Aria)
08 Und Gott Sprach: Es Bringe Die Erde Gras Hervor (Rec.)
09 Nun Beut Die Flur Das Frische GRÜN (Aria)
10 Und Die Himmlischen Heerscharen Verkündigten Den Dritten Tag (Rec.)
11 Stimmt An Die Saiten, Ergreift Die Leyer
12 Und Gott Sprach: Es Seyn Lichter An Der Feste Des Himmels (Rec.)
13 In Vollem Glanze Steiget Jetzt Die Sonne Strahlend Auf (Rec. Acc.)
14 Die Himmel Erzählen Die Ehre Gottes… Dem Kommenden Tage Sagt Es Der Tag
Part II
15 Und Gott Sprach: Es Bringe Das Wasser In Der Fülle Hervor (Rec. Acc.)
16 Auf Starkem Fittiche Schwinget Sich (Aria)
17 Und Gott Schuf Große Walfische (Rec.)
18 Und Die Engel Rührten Ihr' Unsterblichen Harfen (Rec.)
19 In Holder Anmut Steh'n, Mit Jungem GRÜN Geschmückt… Der Herr Ist Groß In Seiner Macht
20 Und Gott Sprach: Es Bringe Die Erde Hervor (Rec.)
21 Gleich Öffnet Sich Der Erde Schoß (Rec. Acc.)
22 Nun Scheint In Vollem Glanze Der Himmel (Aria)
23 Und Gott Schuf Den Menschen Nach Seinem Ebenbilde (Rec.)
24 Mit WÜRD' Und Hoheit Angetan (Aria)
25 Und Gott Sah Jedes Ding, Was Er Gemacht Hatte (Rec.)
26 Vollendet Ist Das Große Werk… Zu Dir, O Herr, Blickt Alles Auf
CD 41:
Part III
01 Aus Rosenwolken Bricht, Geweckt Durch Süßen Klang (Rec. Acc.)
02 Von Deiner Güt', O Herr Und Gott… Gesegnet Sei Des Herren Macht!
03 Nun Ist Die Erste Pflicht Erfüllt (Rec.)
04 Holde Gattin! Dir Zur Seite (Duet)
05 O Glücklich Paar! Und Glücklich Immerfort! (Rec.)
06 Singt Dem Herren, Alle Stimmen
CD 42: Haydn - London Symphonies
Symphony No. 96 In D Major, H. 1/96, "Miracle"
01 Adagio - Allegro
02 Andante
03 Menuetto - Trio
04 Finale. Vivace Assai
Symphony No. 97 In C Major, H. 1/97
05 Adagio - Vivace
06 Adagio Ma Non Troppo
07 Menuetto. Allegretto - Trio
08 Finale. Spirituoso
Symphony No. 98 In B Flat Major, H. 1/98
09 Adagio - Allegro
10 Adagio Cantabile
11 Menuetto - Trio
12 Finale. Presto
CD 43: Haydn - 3 Paris Symphonies
Symphony No. 85 In B Flat Major, H. 1/85 "La Reine"
01 Adagio. Vivace
02 Romanze: Allegretto
03 Menuetto
04 Finale: Presto
Symphony No. 83 In G Minor, H. 1/83 "La Poule"
05 Allegro
06 Andante
07 Menuet
08 Finale: Vivace
Symphony No. 82 In C Major, H.1/82 "L'ours"
09 Vivace
10 Allegretto
11 Menuet
12 Finale: Vivace Assai
CD 44 Literes - Acis y Galatea
01 No Hay Otras Iras Que Deban Temerse
02 ¡Ay De Aquel Que Desprecia!
03 Suspende Las Iras
04 Sientan Los Que Sienten
05 Muda Copia
06 Pues Que Polifemo
07 Confiado Jilguerillo
08 Divina Galatea
09 Joven Galán
10 ¿Con Que En Tu Nobleza…?
11 Al Aire De Los Suspiros
12 Estrafalaria Deidad
13 Ayer, Cuando La Tarde
14 Dulce Galatea
15 Estos Dulces Cánticos
16 ¡Ten El Acento!
17 Al Ameno Silencio
18 Qué Poco A Asustar Llega
19 Aunque Contra Mí Indignado
20 Huid De Las Iras Del Monstruo Indegnado
21 ¿Que Demonios Es Esto?
22 Queda En Paz
23 Nùmenes Del Mar Sagrado!
24 Acis Dichoso
25 Viva Quien Hace Siglos De Dichas Sus Años
CD 45: Locatelli - 6 Introduttioni Teatrali op. 4
01 Introduttione 1 D-Dur
02 Introduttione 2 F-Dur
03 Sonate D-Dur Op8 No2 1 Adagio
04 Sonate D-Dur Op8 No2 2 Allegro
05 Sonate D-Dur Op8 No2 3 Presto-Lento-Presto
06 Introduttione 3 B-Dur
07 Introduttione 4 G-Dur
Sonata E-Moll Op5 No2
08 1 Largo-Andante
09 2 Allegro
10 3 Allegro
11 Introduttione 5 D-Dur
Sonate A-Dur Op8 No10
12 1 Cantabile
13 2 Allegro
14 3 Vivace
15 Introduttione 6 C-Dur
CD 46: Lully - Divertissements
Divertissement I
01 Ouverture D'Amadis
02 Répands Charmante Nuit
03 Récit D'Orphée
04 Entrée Pour Bacchus Et Ariadne
05 Rochers Vous êtes Sourds
06 Plainte De Vénus Sur La Mort D'Adonis
07 Dieu Des Enfers
Divertissement II
08 Ouverture De Psyché
09 Plainte Italienne
10 Chaconne D'Amadis
11 Entrée D'Apollon
12 Si L'amour Vous Soumet
13 Enfin Il Est En Ma Puissance
14 Air Pour Les Démons Et Les Monstres
15 Passacaille D'Armide
CD 47: Marianna Martines - Il primo amore
Ouverture In C Major
01 I. Allegro Con Spirito
02 II. Andante Ma Non Troppo
03 III. Allegro Spiritoso
Cantata 'Il Primo Amore'
04 I. Recitativo: Ah Troppo è Ver!
05 II. Aria: Sol Che Un Istante
06 III. Recitativo: Nè Sol, Quando La Miro
07 IV. Aria: Bella Fiamma Del Mio Core
Concerto Per Cembalo In E Major
08 I. Allegro
09 II. Andante
10 III. Allegro
Sonata Per Cembalo In A Major
11 I. Allegro
12 II. Adagio
13 III. Tempo Di Minuetto
Scelta D'Arie Composte Per Suo Diletto Da Marianna Martines, Aria 'Berenice, Ah Che Fai'
14 I. Recitativo: Berenice, Ah Che Fai
15 II. Aria: Non Partir, Bell'idol Moi
16 III. Recitativo: Me Infelice!
17 IV. Aria: Perché, Se Tanti Siete
CD 48: Philippo Martino - Lute Trios
Trio I
01 I. Poco Vivace
02 II. Siciliana
03 III. Menuet
04 IV. Arietta Allegretto
Trio II
05 I. Entrée
06 II. Ballo
07 III. Siciliano Arioso
08 IV. Menuet
Trio III
09 I. Andante
10 II. Aria Adagio
11 III. Menuet
12 IV. Allegro
Trio IV
13 I. Capricio
14 II. Scherzo
15 III. Menuet
16 IV. Areitta
Trio V
17 I. Andante
18 II. Vivace
19 III. Menuet
20 IV. Arietta
Trio VI
21 I. Allemande
22 II. Siciliana
23 III. Menuet
24 IV. Vivace Arioso
Notturno No. 1
25 I. Allegrino
26 II. Grazioso
Mozart - Sonatas K.10–15 Divertimento K.254
CD 49: Mozart - Trio Sonatas K.10–15 · Divertimento K.254
Trio Sonate In B/B-flat, KV 10
01 Allegro
02 Andante
03 Menuetto I
04 Menuetto II
Trio Sonata In G, KV 11
05 Andante
06 Allegro
07 Menuetto
Trio Sonata In A, KV 12
08 Andante
09 Allegro
Trio Sonata In F, KV 13
10 Allegro
11 Andante
12 Menuetto I & II
Trio Sonata In C, KV 14
13 Allegro
14 Allegro
15 Menuetto I & II En Carillon
Trio Sonate In B/B-flat, KV 15
16 Andante Maestoso
17 Allegro Grazioso
Divertimento à 3 In B/B-flat, KV 254
18 Allegro Assai
19 Adagio
20 Rondeau: Tempo Di Minuetto
CD 50-51 Mozart - Zaide
01 Ouvertüre: Sinfonia In E-flat Major, KV 184
02 Einleitung: Jetzt Hören Sie Doch Auf (Erzähler)
03 Chor Der Vier Sklaven: Brüder Lasst Uns Lustig Sein
04 Melalogo: Unerforschliche Fügung (Gomatz)
05 Zwischentext: Dieser Ohnmächtige, Kraftlose, Matte Gomatz (Erzähler)
06 Aria: Ruhe Sanft, Mein Holdes Leben (Zaide)
07 Aria: Rase, Schicksal, Wüte Immer (Gomatz)
08 Zwischentext: Zaide Hat Ihn Natürlich Heimlich Beobacht (Erzähler)
09 Duetto: Meine Seele Hüpft Vor Freuden (Zaide, Gomatz)
10 Zwischentext: Die Beiden Haben Ein Glück (Erzähler)
11 Aria: Herr Und Freund, Wie Dank' Ich Dir! (Gomatz)
12 Zwischentext: Und In Allazim Entbrennt Nun Auch Ein Kampf (Erzähler)
13 Aria: Nur Mutig, Mein Herze (Allazim)
14 Zwischentext: Zaide Ist Jetzt Wieder Dazugekommen (Erzähler)
15 Terzetto: O Selige Wonne (Zaide, Gomatz, Allazim)
CD 51:
01 Zwischentext: Und Wie's Der Teufel Halt So Will (Erzähler)
02 Melalogo Ed Aria: Zaide Entflohen (Soliman)
03 Zwischentext: Natürlich Ist Auch Soliman, Wie Alle Reichen (Erzähler)
04 Aria: Wie Hungrig Bei Der Tafel Sitzt (Osmin)
05 Zwischentext: Für Soliman Ist Der Fall Klar (Erzähler)
06 Aria: Ich Bin So Bös' Als Gut (Soliman)
07 Zwischentext: Jetzt Wird Es Eng Für Zaide (Erzähler)
08 Aria: Treulos Schluchzet Philomele (Zaide)
09 Zwischentext: Jetzt Dreht Sich’s Um: Zaide Weint, Schluchzt, Klagt (Erzähler)
10 Aria: Tiger! Wetze Nur Die Klauen (Zaide)
11 Zwischentext: Allazim Stößt Ins Gleiche Horn (Erzähler)
12 Aria: Ihr Mächtigen Seht Ungerührt (Allazim)
13 Zwischentext: Das Letzte Quartett (Erzähler)
14 Quartetto: Freundin, Stille Deine Tränen (Gomatz, Allazim, Soliman, Zaide)
15 Schluss: Und Hier, Am Tiefsten Punkt Des Konflikts (Erzähler)



Exact Audio Copy V1.5 from 20. February 2020

EAC extraction logfile from 18. October 2020, 19:04

Musica Fiata, Roland Wilson / DHM - 100 Great Recordings (CD26) Frescobaldi - Canzoni da Sonare

Used drive : ATAPI iHAS124 F Adapter: 1 ID: 0

Read mode : Secure
Utilize accurate stream : Yes
Defeat audio cache : Yes
Make use of C2 pointers : No

Read offset correction : 6
Overread into Lead-In and Lead-Out : No
Fill up missing offset samples with silence : Yes
Delete leading and trailing silent blocks : No
Null samples used in CRC calculations : Yes
Used interface : Native Win32 interface for Win NT & 2000

Used output format : User Defined Encoder
Selected bitrate : 1024 kBit/s
Quality : High
Add ID3 tag : No
Command line compressor : C:\Program Files (x86)\Exact Audio Copy\FLAC\FLAC.EXE
Additional command line options : -6 -V -T "ARTIST=%artist%" -T "TITLE=%title%" -T "ALBUM=%albumtitle%" -T "DATE=%year%" -T "TRACKNUMBER=%tracknr%" -T "GENRE=%genre%" -T "COMMENT=%comment%" -T "BAND=%albuminterpret%" -T "ALBUMARTIST=%albuminterpret%" -T "COMPOSER=%composer%" %haslyrics%–tag-from-file=LYRICS="%lyricsfile%"%haslyrics% -T "DISCNUMBER=%cdnumber%" -T "TOTALDISCS=%totalcds%" -T "TOTALTRACKS=%numtracks%" %hascover%–picture="%coverfile%"%hascover% %source% -o %dest%


TOC of the extracted CD

Track | Start | Length | Start sector | End sector
––––––––––––––––––––––––––––-
1 | 0:00.00 | 2:04.27 | 0 | 9326
2 | 2:04.27 | 4:08.60 | 9327 | 27986
3 | 6:13.12 | 3:07.50 | 27987 | 42061
4 | 9:20.62 | 3:09.00 | 42062 | 56236
5 | 12:29.62 | 4:08.28 | 56237 | 74864
6 | 16:38.15 | 2:34.72 | 74865 | 86486
7 | 19:13.12 | 4:04.50 | 86487 | 104836
8 | 23:17.62 | 3:45.00 | 104837 | 121711
9 | 27:02.62 | 3:22.00 | 121712 | 136861
10 | 30:24.62 | 3:17.00 | 136862 | 151636
11 | 33:41.62 | 2:59.00 | 151637 | 165061
12 | 36:40.62 | 2:50.28 | 165062 | 177839
13 | 39:31.15 | 4:32.60 | 177840 | 198299
14 | 44:04.00 | 2:51.62 | 198300 | 211186
15 | 46:55.62 | 4:38.13 | 211187 | 232049
16 | 51:34.00 | 3:54.62 | 232050 | 249661
17 | 55:28.62 | 5:27.00 | 249662 | 274186
18 | 60:55.62 | 4:32.00 | 274187 | 294586
19 | 65:27.62 | 3:01.00 | 294587 | 308161
20 | 68:28.62 | 1:51.13 | 308162 | 316499


Range status and errors

Selected range

Filename C:\EACRip\DHM - 100 GREAT RECORDINGS (100CDs, DHM) (2017)\CD-026 - Frescobaldi\DHM - 100 Great Recordings (CD26) Frescobaldi - Canzoni da Sonare - Musica Fiata, Roland Wilson.wav

Peak level 64.1 %
Extraction speed 9.0 X
Range quality 100.0 %
Test CRC 07E688C4
Copy CRC 07E688C4
Copy OK

No errors occurred


AccurateRip summary

Track 1 accurately ripped (confidence 14) [64D74733] (AR v2)
Track 2 accurately ripped (confidence 14) [07BE0746] (AR v2)
Track 3 accurately ripped (confidence 14) [C5D31974] (AR v2)
Track 4 accurately ripped (confidence 14) [8360B78D] (AR v2)
Track 5 accurately ripped (confidence 14) [8937114B] (AR v2)
Track 6 accurately ripped (confidence 14) [715011DD] (AR v2)
Track 7 accurately ripped (confidence 14) [36AB92B2] (AR v2)
Track 8 accurately ripped (confidence 14) [4E80BB60] (AR v2)
Track 9 accurately ripped (confidence 14) [F607C9BC] (AR v2)
Track 10 accurately ripped (confidence 14) [5DA73FB4] (AR v2)
Track 11 accurately ripped (confidence 14) [C537044A] (AR v2)
Track 12 accurately ripped (confidence 13) [BC9FBD1F] (AR v2)
Track 13 accurately ripped (confidence 14) [F6A98464] (AR v2)
Track 14 accurately ripped (confidence 14) [C949F06F] (AR v2)
Track 15 accurately ripped (confidence 13) [A258F8BB] (AR v2)
Track 16 accurately ripped (confidence 14) [9616A604] (AR v2)
Track 17 accurately ripped (confidence 14) [EF626A8E] (AR v2)
Track 18 accurately ripped (confidence 14) [E9721B9F] (AR v2)
Track 19 accurately ripped (confidence 14) [164561A8] (AR v2)
Track 20 accurately ripped (confidence 14) [51BEF1D6] (AR v2)

All tracks accurately ripped

End of status report

–– CUETools DB Plugin V2.1.6

[CTDB TOCID: wP2GCEONjBpBQFq9bWl5YhGu9IM-] found
Submit result: wP2GCEONjBpBQFq9bWl5YhGu9IM- has been confirmed
Track | CTDB Status
1 | (72/72) Accurately ripped
2 | (72/72) Accurately ripped
3 | (72/72) Accurately ripped
4 | (72/72) Accurately ripped
5 | (72/72) Accurately ripped
6 | (72/72) Accurately ripped
7 | (72/72) Accurately ripped
8 | (72/72) Accurately ripped
9 | (72/72) Accurately ripped
10 | (72/72) Accurately ripped
11 | (72/72) Accurately ripped
12 | (72/72) Accurately ripped
13 | (72/72) Accurately ripped
14 | (72/72) Accurately ripped
15 | (72/72) Accurately ripped
16 | (71/72) Accurately ripped
17 | (72/72) Accurately ripped
18 | (72/72) Accurately ripped
19 | (72/72) Accurately ripped
20 | (71/72) Accurately ripped


==== Log checksum 060E848936F00005D96ABE24C7A4A5FF90C036B01CA813D7043418A3AEA1DF00 ====


Exact Audio Copy V1.5 from 20. February 2020

EAC extraction logfile from 19. October 2020, 8:52

Accentus Austria, Thomas Wimmer / DHM - 100 Great Recordings (CD27) Cristobal Galan - Fire & Ice

Used drive : ATAPI iHAS124 F Adapter: 1 ID: 0

Read mode : Secure
Utilize accurate stream : Yes
Defeat audio cache : Yes
Make use of C2 pointers : No

Read offset correction : 6
Overread into Lead-In and Lead-Out : No
Fill up missing offset samples with silence : Yes
Delete leading and trailing silent blocks : No
Null samples used in CRC calculations : Yes
Used interface : Native Win32 interface for Win NT & 2000

Used output format : User Defined Encoder
Selected bitrate : 1024 kBit/s
Quality : High
Add ID3 tag : No
Command line compressor : C:\Program Files (x86)\Exact Audio Copy\FLAC\FLAC.EXE
Additional command line options : -6 -V -T "ARTIST=%artist%" -T "TITLE=%title%" -T "ALBUM=%albumtitle%" -T "DATE=%year%" -T "TRACKNUMBER=%tracknr%" -T "GENRE=%genre%" -T "COMMENT=%comment%" -T "BAND=%albuminterpret%" -T "ALBUMARTIST=%albuminterpret%" -T "COMPOSER=%composer%" %haslyrics%–tag-from-file=LYRICS="%lyricsfile%"%haslyrics% -T "DISCNUMBER=%cdnumber%" -T "TOTALDISCS=%totalcds%" -T "TOTALTRACKS=%numtracks%" %hascover%–picture="%coverfile%"%hascover% %source% -o %dest%


TOC of the extracted CD

Track | Start | Length | Start sector | End sector
––––––––––––––––––––––––––––-
1 | 0:00.00 | 7:31.11 | 0 | 33835
2 | 7:31.11 | 2:37.06 | 33836 | 45616
3 | 10:08.17 | 6:03.56 | 45617 | 72897
4 | 16:11.73 | 4:53.45 | 72898 | 94917
5 | 21:05.43 | 5:32.68 | 94918 | 119885
6 | 26:38.36 | 4:03.43 | 119886 | 138153
7 | 30:42.04 | 3:34.06 | 138154 | 154209
8 | 34:16.10 | 3:58.17 | 154210 | 172076
9 | 38:14.27 | 5:07.05 | 172077 | 195106
10 | 43:21.32 | 6:41.65 | 195107 | 225246
11 | 50:03.22 | 1:47.04 | 225247 | 233275
12 | 51:50.26 | 4:18.09 | 233276 | 252634


Range status and errors

Selected range

Filename C:\EACRip\DHM - 100 GREAT RECORDINGS (100CDs, DHM) (2017)\CD-027 - Cristobal Galan\DHM - 100 Great Recordings (CD27) Cristobal Galan - Fire & Ice - Accentus Austria, Thomas Wimmer.wav

Peak level 100.0 %
Extraction speed 8.1 X
Range quality 99.9 %
Test CRC F5D76233
Copy CRC F5D76233
Copy OK

No errors occurred


AccurateRip summary

Track 1 accurately ripped (confidence 12) [9997E5A6] (AR v2)
Track 2 accurately ripped (confidence 12) [64E44102] (AR v2)
Track 3 accurately ripped (confidence 12) [BFEDCEF1] (AR v2)
Track 4 accurately ripped (confidence 12) [2A423E33] (AR v2)
Track 5 accurately ripped (confidence 12) [D891A0CB] (AR v2)
Track 6 accurately ripped (confidence 12) [13F3EB92] (AR v2)
Track 7 accurately ripped (confidence 12) [D708A479] (AR v2)
Track 8 accurately ripped (confidence 12) [3C8C1F90] (AR v2)
Track 9 accurately ripped (confidence 12) [C2E8D3D7] (AR v2)
Track 10 accurately ripped (confidence 12) [5818124A] (AR v2)
Track 11 accurately ripped (confidence 12) [33920793] (AR v2)
Track 12 accurately ripped (confidence 12) [C2CC7876] (AR v2)

All tracks accurately ripped

End of status report

–– CUETools DB Plugin V2.1.6

[CTDB TOCID: p7.DWgQEb7lnEbmnaa.4Xy9YcCU-] found
Submit result: p7.DWgQEb7lnEbmnaa.4Xy9YcCU- has been confirmed
Track | CTDB Status
1 | (41/41) Accurately ripped
2 | (41/41) Accurately ripped
3 | (41/41) Accurately ripped
4 | (41/41) Accurately ripped
5 | (41/41) Accurately ripped
6 | (41/41) Accurately ripped
7 | (41/41) Accurately ripped
8 | (41/41) Accurately ripped
9 | (41/41) Accurately ripped
10 | (41/41) Accurately ripped
11 | (41/41) Accurately ripped
12 | (41/41) Accurately ripped


==== Log checksum E2005FB1F4D8AC465B43A900401451ADA2D86F2171E7A66214E5B05C8AE814BC ====


Exact Audio Copy V1.5 from 20. February 2020

EAC extraction logfile from 19. October 2020, 9:59

Sigiswald Kuijken / DHM - 100 Great Recordings (CD28) Geminiani - Concerti Grossi

Used drive : ATAPI iHAS124 F Adapter: 1 ID: 0

Read mode : Secure
Utilize accurate stream : Yes
Defeat audio cache : Yes
Make use of C2 pointers : No

Read offset correction : 6
Overread into Lead-In and Lead-Out : No
Fill up missing offset samples with silence : Yes
Delete leading and trailing silent blocks : No
Null samples used in CRC calculations : Yes
Used interface : Native Win32 interface for Win NT & 2000

Used output format : User Defined Encoder
Selected bitrate : 1024 kBit/s
Quality : High
Add ID3 tag : No
Command line compressor : C:\Program Files (x86)\Exact Audio Copy\FLAC\FLAC.EXE
Additional command line options : -6 -V -T "ARTIST=%artist%" -T "TITLE=%title%" -T "ALBUM=%albumtitle%" -T "DATE=%year%" -T "TRACKNUMBER=%tracknr%" -T "GENRE=%genre%" -T "COMMENT=%comment%" -T "BAND=%albuminterpret%" -T "ALBUMARTIST=%albuminterpret%" -T "COMPOSER=%composer%" %haslyrics%–tag-from-file=LYRICS="%lyricsfile%"%haslyrics% -T "DISCNUMBER=%cdnumber%" -T "TOTALDISCS=%totalcds%" -T "TOTALTRACKS=%numtracks%" %hascover%–picture="%coverfile%"%hascover% %source% -o %dest%


TOC of the extracted CD

Track | Start | Length | Start sector | End sector
––––––––––––––––––––––––––––-
1 | 0:00.33 | 3:03.37 | 33 | 13794
2 | 3:03.70 | 5:43.23 | 13795 | 39542
3 | 8:47.18 | 2:11.35 | 39543 | 49402
4 | 10:58.53 | 2:41.42 | 49403 | 61519
5 | 13:40.20 | 2:51.38 | 61520 | 74382
6 | 16:31.58 | 1:23.27 | 74383 | 80634
7 | 17:55.10 | 2:59.68 | 80635 | 94127
8 | 20:55.03 | 1:52.22 | 94128 | 102549
9 | 22:47.25 | 3:11.15 | 102550 | 116889
10 | 25:58.40 | 11:35.55 | 116890 | 169069
11 | 37:34.20 | 2:49.10 | 169070 | 181754
12 | 40:23.30 | 1:48.08 | 181755 | 189862
13 | 42:11.38 | 2:19.50 | 189863 | 200337
14 | 44:31.13 | 1:45.72 | 200338 | 208284
15 | 46:17.10 | 2:08.15 | 208285 | 217899
16 | 48:25.25 | 2:04.33 | 217900 | 227232
17 | 50:29.58 | 1:27.72 | 227233 | 233829
18 | 51:57.55 | 3:48.58 | 233830 | 250987


Range status and errors

Selected range

Filename C:\EACRip\DHM - 100 GREAT RECORDINGS (100CDs, DHM) (2017)\CD-028 - Geminiani - C. Grossi\DHM - 100 Great Recordings (CD28) Geminiani - Concerti Grossi - Sigiswald Kuijken.wav

Peak level 80.6 %
Extraction speed 8.3 X
Range quality 100.0 %
Test CRC 4EBC0961
Copy CRC 4EBC0961
Copy OK

No errors occurred


AccurateRip summary

Track 1 accurately ripped (confidence 13) [B575AFC3] (AR v2)
Track 2 accurately ripped (confidence 13) [EA150431] (AR v2)
Track 3 accurately ripped (confidence 13) [9B214C3B] (AR v2)
Track 4 accurately ripped (confidence 13) [17D24DEF] (AR v2)
Track 5 accurately ripped (confidence 13) [B80F7EA8] (AR v2)
Track 6 accurately ripped (confidence 13) [7BB383FF] (AR v2)
Track 7 accurately ripped (confidence 13) [307908D8] (AR v2)
Track 8 accurately ripped (confidence 13) [E132BFEA] (AR v2)
Track 9 accurately ripped (confidence 13) [42A53B7D] (AR v2)
Track 10 accurately ripped (confidence 13) [08103763] (AR v2)
Track 11 accurately ripped (confidence 13) [A0A56E43] (AR v2)
Track 12 accurately ripped (confidence 13) [5B54552A] (AR v2)
Track 13 accurately ripped (confidence 13) [F68C7DA7] (AR v2)
Track 14 accurately ripped (confidence 13) [DF1B8F2C] (AR v2)
Track 15 accurately ripped (confidence 13) [F9E1A1B8] (AR v2)
Track 16 accurately ripped (confidence 13) [4D44DEF8] (AR v2)
Track 17 accurately ripped (confidence 13) [158258CB] (AR v2)
Track 18 accurately ripped (confidence 13) [888E1377] (AR v2)

All tracks accurately ripped

End of status report

–– CUETools DB Plugin V2.1.6

[CTDB TOCID: swkLpckXq1Z7QQQZh0KziYzMGR0-] found
Submit result: swkLpckXq1Z7QQQZh0KziYzMGR0- has been confirmed
Track | CTDB Status
1 | (65/70) Accurately ripped
2 | (62/70) Accurately ripped
3 | (63/70) Accurately ripped
4 | (65/70) Accurately ripped
5 | (65/70) Accurately ripped
6 | (66/70) Accurately ripped
7 | (65/70) Accurately ripped
8 | (65/70) Accurately ripped
9 | (65/70) Accurately ripped
10 | (62/70) Accurately ripped
11 | (66/70) Accurately ripped
12 | (65/70) Accurately ripped
13 | (65/70) Accurately ripped
14 | (64/70) Accurately ripped
15 | (66/70) Accurately ripped
16 | (65/70) Accurately ripped
17 | (65/70) Accurately ripped
18 | (65/70) Accurately ripped


==== Log checksum F5EAA3E9A513BD0E5BFEB0B0E6632DA900A527ACACF2A453A4D8F6849BB7FC77 ====


Exact Audio Copy V1.5 from 20. February 2020

EAC extraction logfile from 19. October 2020, 16:08

Ensemble La Sestina, Adriano Giardina / DHM - 100 Great Recordings (CD29) Francisco Guerrero - The Angel's Voice

Used drive : ATAPI iHAS124 F Adapter: 1 ID: 0

Read mode : Secure
Utilize accurate stream : Yes
Defeat audio cache : Yes
Make use of C2 pointers : No

Read offset correction : 6
Overread into Lead-In and Lead-Out : No
Fill up missing offset samples with silence : Yes
Delete leading and trailing silent blocks : No
Null samples used in CRC calculations : Yes
Used interface : Native Win32 interface for Win NT & 2000

Used output format : User Defined Encoder
Selected bitrate : 1024 kBit/s
Quality : High
Add ID3 tag : No
Command line compressor : C:\Program Files (x86)\Exact Audio Copy\FLAC\FLAC.EXE
Additional command line options : -6 -V -T "ARTIST=%artist%" -T "TITLE=%title%" -T "ALBUM=%albumtitle%" -T "DATE=%year%" -T "TRACKNUMBER=%tracknr%" -T "GENRE=%genre%" -T "COMMENT=%comment%" -T "BAND=%albuminterpret%" -T "ALBUMARTIST=%albuminterpret%" -T "COMPOSER=%composer%" %haslyrics%–tag-from-file=LYRICS="%lyricsfile%"%haslyrics% -T "DISCNUMBER=%cdnumber%" -T "TOTALDISCS=%totalcds%" -T "TOTALTRACKS=%numtracks%" %hascover%–picture="%coverfile%"%hascover% %source% -o %dest%


TOC of the extracted CD

Track | Start | Length | Start sector | End sector
––––––––––––––––––––––––––––-
1 | 0:00.00 | 4:33.70 | 0 | 20544
2 | 4:33.70 | 2:42.20 | 20545 | 32714
3 | 7:16.15 | 5:36.52 | 32715 | 57966
4 | 12:52.67 | 2:24.51 | 57967 | 68817
5 | 15:17.43 | 9:59.49 | 68818 | 113791
6 | 25:17.17 | 2:12.64 | 113792 | 123755
7 | 27:30.06 | 2:11.36 | 123756 | 133616
8 | 29:41.42 | 4:07.37 | 133617 | 152178
9 | 33:49.04 | 2:39.70 | 152179 | 164173
10 | 36:28.74 | 3:06.74 | 164174 | 178197
11 | 39:35.73 | 1:47.63 | 178198 | 186285
12 | 41:23.61 | 2:31.32 | 186286 | 197642
13 | 43:55.18 | 3:00.73 | 197643 | 211215
14 | 46:56.16 | 5:33.52 | 211216 | 236242
15 | 52:29.68 | 4:30.48 | 236243 | 256540
16 | 57:00.41 | 3:55.34 | 256541 | 274199


Range status and errors

Selected range

Filename C:\EACRip\DHM - 100 GREAT RECORDINGS (100CDs, DHM) (2017)\CD-029 - Francisco Guerrero\DHM - 100 Great Recordings (CD29) Francisco Guerrero - The Angel's Voice - Ensemble La Sestina.wav

Peak level 99.7 %
Extraction speed 8.3 X
Range quality 99.9 %
Test CRC AEF3C6C8
Copy CRC AEF3C6C8
Copy OK

No errors occurred


AccurateRip summary

Track 1 accurately ripped (confidence 13) [BA316331] (AR v2)
Track 2 accurately ripped (confidence 13) [F7404DDA] (AR v2)
Track 3 accurately ripped (confidence 13) [C5A9AF48] (AR v2)
Track 4 accurately ripped (confidence 13) [A5448C53] (AR v2)
Track 5 accurately ripped (confidence 13) [98FEAA58] (AR v2)
Track 6 accurately ripped (confidence 13) [BB528E69] (AR v2)
Track 7 accurately ripped (confidence 13) [B4C9FA17] (AR v2)
Track 8 accurately ripped (confidence 13) [23071CE1] (AR v2)
Track 9 accurately ripped (confidence 13) [87804515] (AR v2)
Track 10 accurately ripped (confidence 13) [2B1901AD] (AR v2)
Track 11 accurately ripped (confidence 13) [24DF7FBF] (AR v2)
Track 12 accurately ripped (confidence 13) [B01A4D48] (AR v2)
Track 13 accurately ripped (confidence 13) [6979B756] (AR v2)
Track 14 accurately ripped (confidence 13) [0F95B4A4] (AR v2)
Track 15 accurately ripped (confidence 13) [46B813E5] (AR v2)
Track 16 accurately ripped (confidence 13) [7B513F19] (AR v2)

All tracks accurately ripped

End of status report

–– CUETools DB Plugin V2.1.6

[CTDB TOCID: neGb9L0BiahFvxb0JMAhli4n_7s-] found
Submit result: neGb9L0BiahFvxb0JMAhli4n_7s- has been confirmed
Track | CTDB Status
1 | (43/43) Accurately ripped
2 | (43/43) Accurately ripped
3 | (43/43) Accurately ripped
4 | (43/43) Accurately ripped
5 | (43/43) Accurately ripped
6 | (43/43) Accurately ripped
7 | (43/43) Accurately ripped
8 | (43/43) Accurately ripped
9 | (43/43) Accurately ripped
10 | (43/43) Accurately ripped
11 | (43/43) Accurately ripped
12 | (43/43) Accurately ripped
13 | (43/43) Accurately ripped
14 | (43/43) Accurately ripped
15 | (43/43) Accurately ripped
16 | (41/43) Accurately ripped, or (2/43) differs in 1321 samples @03:55:12-03:55:23


==== Log checksum 640FA42B408E6C9361F09FD4558E60D9B15A958ABF5453A954BABA492151D56E ====


Exact Audio Copy V1.5 from 20. February 2020

EAC extraction logfile from 19. October 2020, 16:31

Franzjosef Maier / DHM - 100 Great Recordings (CD30) Handel - Concerti grossi op. 6 (1)

Used drive : ATAPI iHAS124 F Adapter: 1 ID: 0

Read mode : Secure
Utilize accurate stream : Yes
Defeat audio cache : Yes
Make use of C2 pointers : No

Read offset correction : 6
Overread into Lead-In and Lead-Out : No
Fill up missing offset samples with silence : Yes
Delete leading and trailing silent blocks : No
Null samples used in CRC calculations : Yes
Used interface : Native Win32 interface for Win NT & 2000

Used output format : User Defined Encoder
Selected bitrate : 1024 kBit/s
Quality : High
Add ID3 tag : No
Command line compressor : C:\Program Files (x86)\Exact Audio Copy\FLAC\FLAC.EXE
Additional command line options : -6 -V -T "ARTIST=%artist%" -T "TITLE=%title%" -T "ALBUM=%albumtitle%" -T "DATE=%year%" -T "TRACKNUMBER=%tracknr%" -T "GENRE=%genre%" -T "COMMENT=%comment%" -T "BAND=%albuminterpret%" -T "ALBUMARTIST=%albuminterpret%" -T "COMPOSER=%composer%" %haslyrics%–tag-from-file=LYRICS="%lyricsfile%"%haslyrics% -T "DISCNUMBER=%cdnumber%" -T "TOTALDISCS=%totalcds%" -T "TOTALTRACKS=%numtracks%" %hascover%–picture="%coverfile%"%hascover% %source% -o %dest%


TOC of the extracted CD

Track | Start | Length | Start sector | End sector
––––––––––––––––––––––––––––-
1 | 0:00.00 | 1:53.22 | 0 | 8496
2 | 1:53.22 | 2:00.10 | 8497 | 17506
3 | 3:53.32 | 2:45.30 | 17507 | 29911
4 | 6:38.62 | 2:46.33 | 29912 | 42394
5 | 9:25.20 | 3:27.57 | 42395 | 57976
6 | 12:53.02 | 4:18.53 | 57977 | 77379
7 | 17:11.55 | 3:11.20 | 77380 | 91724
8 | 20:23.00 | 3:03.50 | 91725 | 105499
9 | 23:26.50 | 2:51.00 | 105500 | 118324
10 | 26:17.50 | 1:23.35 | 118325 | 124584
11 | 27:41.10 | 1:45.65 | 124585 | 132524
12 | 29:27.00 | 2:26.25 | 132525 | 143499
13 | 31:53.25 | 2:33.22 | 143500 | 154996
14 | 34:26.47 | 1:28.30 | 154997 | 161626
15 | 35:55.02 | 2:22.20 | 161627 | 172296
16 | 38:17.22 | 2:47.53 | 172297 | 184874
17 | 41:05.00 | 2:22.00 | 184875 | 195524
18 | 43:27.00 | 2:41.37 | 195525 | 207636
19 | 46:08.37 | 2:17.20 | 207637 | 217931
20 | 48:25.57 | 2:15.65 | 217932 | 228121
21 | 50:41.47 | 3:27.10 | 228122 | 243656
22 | 54:08.57 | 2:12.03 | 243657 | 253559
23 | 56:20.60 | 2:37.02 | 253560 | 265336
24 | 58:57.62 | 4:03.25 | 265337 | 283586


Range status and errors

Selected range

Filename C:\EACRip\DHM - 100 GREAT RECORDINGS (100CDs, DHM) (2017)\CD-030 - Handel - C. Grossi op.6 (1)\DHM - 100 Great Recordings (CD30) Handel - Concerti grossi op. 6 (1) - Collegium Aureum.wav

Peak level 97.2 %
Extraction speed 8.3 X
Range quality 99.9 %
Test CRC 2A21FD68
Copy CRC 2A21FD68
Copy OK

No errors occurred


AccurateRip summary

Track 1 accurately ripped (confidence 13) [CE63170E] (AR v2)
Track 2 accurately ripped (confidence 13) [D0ECFC4F] (AR v2)
Track 3 accurately ripped (confidence 13) [C6684CC3] (AR v2)
Track 4 accurately ripped (confidence 13) [542822EB] (AR v2)
Track 5 accurately ripped (confidence 13) [44043FD4] (AR v2)
Track 6 accurately ripped (confidence 13) [AC49B09B] (AR v2)
Track 7 accurately ripped (confidence 13) [8717DFA3] (AR v2)
Track 8 accurately ripped (confidence 13) [BE67ACE2] (AR v2)
Track 9 accurately ripped (confidence 13) [F52DC0BB] (AR v2)
Track 10 accurately ripped (confidence 13) [4B4BBB41] (AR v2)
Track 11 accurately ripped (confidence 13) [B8FB3A1D] (AR v2)
Track 12 accurately ripped (confidence 13) [19C33960] (AR v2)
Track 13 accurately ripped (confidence 13) [B2162E43] (AR v2)
Track 14 accurately ripped (confidence 13) [5290B000] (AR v2)
Track 15 accurately ripped (confidence 13) [13331D7B] (AR v2)
Track 16 accurately ripped (confidence 13) [A8969B97] (AR v2)
Track 17 accurately ripped (confidence 13) [0CD0B706] (AR v2)
Track 18 accurately ripped (confidence 13) [013EB1F3] (AR v2)
Track 19 accurately ripped (confidence 13) [FB726445] (AR v2)
Track 20 accurately ripped (confidence 13) [EC624BCD] (AR v2)
Track 21 accurately ripped (confidence 13) [D77C2516] (AR v2)
Track 22 accurately ripped (confidence 13) [29589030] (AR v2)
Track 23 accurately ripped (confidence 13) [A3741C4C] (AR v2)
Track 24 accurately ripped (confidence 13) [B2430177] (AR v2)

All tracks accurately ripped

End of status report

–– CUETools DB Plugin V2.1.6

[CTDB TOCID: 0zN8.AjF.BJEy1BKJ2K4KRhBMJA-] found
Submit result: 0zN8.AjF.BJEy1BKJ2K4KRhBMJA- has been confirmed
Track | CTDB Status
1 | (57/58) Accurately ripped
2 | (58/58) Accurately ripped
3 | (58/58) Accurately ripped
4 | (58/58) Accurately ripped
5 | (58/58) Accurately ripped
6 | (58/58) Accurately ripped
7 | (56/58) Accurately ripped
8 | (58/58) Accurately ripped
9 | (58/58) Accurately ripped
10 | (58/58) Accurately ripped
11 | (58/58) Accurately ripped
12 | (58/58) Accurately ripped
13 | (58/58) Accurately ripped
14 | (58/58) Accurately ripped
15 | (58/58) Accurately ripped
16 | (58/58) Accurately ripped
17 | (58/58) Accurately ripped
18 | (58/58) Accurately ripped
19 | (58/58) Accurately ripped
20 | (58/58) Accurately ripped
21 | (58/58) Accurately ripped
22 | (58/58) Accurately ripped
23 | (58/58) Accurately ripped
24 | (58/58) Accurately ripped


==== Log checksum C71D0A1B772D9939D4BBFEEEF3CDB96D535B29C06CC73AE85587EF8DC190B075 ====