Tags
Language
Tags

Diana Ross & the Supremes - Supreme Rarities (2008)

Posted By: JET 1
Diana Ross & the Supremes - Supreme Rarities (2008)

Diana Ross & the Supremes - Supreme Rarities (2008)
EAC Rip | FLAC (Tracks) +CUE, LOG | 947 MB | Scans
Genre: Blues, Soul | Label: Hip-O Records | Catalog Number: B0003263-02

This limited-edition anthology spotlights an impressive four-dozen previously unissued Diana Ross & the Supremes' selections from the seemingly infinite Motown archives. Of course there have been similarly copious collections of vintage Supremes' rarities, outtakes, remixes, and the like; most notably the highly collectable 25th Anniversary (1986) and Never Before Released Masters (1987), not to mention a plethora of additional multi-artist packages and expanded editions of classic Supremes' long-players. With such a myriad of previous outlets, one could easily presume that these 48 tracks are scraping the bottom of the proverbial barrel. Luckily for aficionados and enthusiasts of Florence Ballard, Diana Ross, and Mary Wilson, there seems to be plenty of quality leftovers – some of which weren't even known about until the set's producers began their research on Let the Music Play: Supreme Rarities 1960-1969. Taking a chronological approach, the album begins with "(You Can) Depend on Me," one of the very first sides to have been recorded by the ladies. The number was co-written by Motown founder Berry Gordy and William "Smokey" Robinson, and actually predates the vocalists' "official" Motown signing. Similarly, the title "Tears of Sorrow" had been documented by the pre-Supremes' prototype, the Primettes, for a different label. (Barbara Martin was still in the group at this point and, as Andrew Skurow points out in his song-by-song annotations, she can clearly be heard on "Because I Love Him," which is among the sides that Gordy penned specifically for the Supremes.) Among his additional contributions are "Hey Baby (Version 1)," "Too Hot (Version 4)," "You're Gonna Come to Me," – presented in two separate incarnations – and "Come on Boy." All are offered from Gordy in the days before Brian Holland, Lamont Dozier, and Eddie Holland, Jr. began churning out the the Supremes' chart-toppers. A prime example of their prowess can be found on the appropriately titled "Hits Medley: Come See About Me/Baby Love/Stop! In the Name of Love," which was worked up for the Supremes to lip-sync to during their high-profile appearance in the June 28, 1965 premiere episode of Dick Clark's teen-oriented rock & roll performance show Where the Action Is. {Review by Lindsay Planer}

Exact Audio Copy V0.99 prebeta 5 from 4. May 2009

EAC extraction logfile from 20. February 2010, 0:25

Diana Ross and the Supremes / Let the Music Play: Supreme Rarities (Original Recordings: 1960-1969)

Used drive : TSSTcorpCDRW/DVD TSL462C Adapter: 1 ID: 0

Read mode : Secure
Utilize accurate stream : Yes
Defeat audio cache : Yes
Make use of C2 pointers : No

Read offset correction : 6
Overread into Lead-In and Lead-Out : No
Fill up missing offset samples with silence : Yes
Delete leading and trailing silent blocks : No
Null samples used in CRC calculations : Yes
Used interface : Native Win32 interface for Win NT & 2000
Gap handling : Appended to previous track

Used output format : User Defined Encoder
Selected bitrate : 768 kBit/s
Quality : High
Add ID3 tag : No
Command line compressor : C:\Program Files\Exact Audio Copy\FLAC\FLAC.EXE
Additional command line options : -6 -V -T "ARTIST=%a" -T "TITLE=%t" -T "ALBUM=%g" -T "DATE=%y" -T "TRACKNUMBER=%n" -T "GENRE=%m" -T "COMMENT=%e" %s -o %d


TOC of the extracted CD

Track | Start | Length | Start sector | End sector
––––––––––––––––––––––––––––-
1 | 0:00.00 | 3:25.04 | 0 | 15378
2 | 3:25.04 | 2:23.59 | 15379 | 26162
3 | 5:48.63 | 2:52.44 | 26163 | 39106
4 | 8:41.32 | 1:58.65 | 39107 | 48021
5 | 10:40.22 | 3:04.48 | 48022 | 61869
6 | 13:44.70 | 3:06.48 | 61870 | 75867
7 | 16:51.43 | 3:18.23 | 75868 | 90740
8 | 20:09.66 | 3:27.44 | 90741 | 106309
9 | 23:37.35 | 3:08.63 | 106310 | 120472
10 | 26:46.23 | 2:31.42 | 120473 | 131839
11 | 29:17.65 | 2:39.18 | 131840 | 143782
12 | 31:57.08 | 2:08.45 | 143783 | 153427
13 | 34:05.53 | 3:03.42 | 153428 | 167194
14 | 37:09.20 | 2:38.27 | 167195 | 179071
15 | 39:47.47 | 4:01.70 | 179072 | 197216
16 | 43:49.42 | 3:02.17 | 197217 | 210883
17 | 46:51.59 | 2:49.59 | 210884 | 223617
18 | 49:41.43 | 3:14.29 | 223618 | 238196
19 | 52:55.72 | 3:42.48 | 238197 | 254894
20 | 56:38.45 | 2:41.35 | 254895 | 267004
21 | 59:20.05 | 2:48.22 | 267005 | 279626
22 | 62:08.27 | 2:24.66 | 279627 | 290492
23 | 64:33.18 | 3:50.40 | 290493 | 307782
24 | 68:23.58 | 2:23.22 | 307783 | 318529
25 | 70:47.05 | 3:17.53 | 318530 | 333357
26 | 74:04.58 | 2:41.12 | 333358 | 345444


Track 1

Filename C:\EACrips\Diana Ross and the Supremes - 2008 - Let the Music Play- Supreme Rarities (Original Recordings- 1960-1969)\01 - You Can Depend On Me.wav

Pre-gap length 0:00:02.00

Peak level 99.9 %
Track quality 100.0 %
Test CRC 2818989F
Copy CRC 2818989F
Accurately ripped (confidence 7) [FC43EFED]
Copy OK

Track 2

Filename C:\EACrips\Diana Ross and the Supremes - 2008 - Let the Music Play- Supreme Rarities (Original Recordings- 1960-1969)\02 - Tears Of Sorrow (Motown Version).wav

Pre-gap length 0:00:00.58

Peak level 86.0 %
Track quality 99.9 %
Test CRC 544F16F4
Copy CRC 544F16F4
Accurately ripped (confidence 7) [E311BA78]
Copy OK

Track 3

Filename C:\EACrips\Diana Ross and the Supremes - 2008 - Let the Music Play- Supreme Rarities (Original Recordings- 1960-1969)\03 - Because I Love Him.wav

Pre-gap length 0:00:01.14

Peak level 99.2 %
Track quality 100.0 %
Test CRC CB5C0582
Copy CRC CB5C0582
Accurately ripped (confidence 7) [FE9DADD8]
Copy OK

Track 4

Filename C:\EACrips\Diana Ross and the Supremes - 2008 - Let the Music Play- Supreme Rarities (Original Recordings- 1960-1969)\04 - Hey Baby (Version 1).wav

Pre-gap length 0:00:21.18

Peak level 99.5 %
Track quality 99.9 %
Test CRC E971DCE1
Copy CRC E971DCE1
Accurately ripped (confidence 7) [B84A4DA7]
Copy OK

Track 5

Filename C:\EACrips\Diana Ross and the Supremes - 2008 - Let the Music Play- Supreme Rarities (Original Recordings- 1960-1969)\05 - Too Hot.wav

Pre-gap length 0:00:01.08

Peak level 99.9 %
Track quality 99.9 %
Test CRC A107A716
Copy CRC A107A716
Accurately ripped (confidence 7) [29A96259]
Copy OK

Track 6

Filename C:\EACrips\Diana Ross and the Supremes - 2008 - Let the Music Play- Supreme Rarities (Original Recordings- 1960-1969)\06 - You're Gonna Come To Me (Version 1).wav

Pre-gap length 0:00:01.69

Peak level 98.4 %
Track quality 99.9 %
Test CRC D5A2E273
Copy CRC D5A2E273
Accurately ripped (confidence 7) [31BA9F4E]
Copy OK

Track 7

Filename C:\EACrips\Diana Ross and the Supremes - 2008 - Let the Music Play- Supreme Rarities (Original Recordings- 1960-1969)\07 - You're Gonna Come To Me (Version 2).wav

Pre-gap length 0:00:00.81

Peak level 99.5 %
Track quality 100.0 %
Test CRC 160DE3FE
Copy CRC 160DE3FE
Accurately ripped (confidence 7) [BAF99703]
Copy OK

Track 8

Filename C:\EACrips\Diana Ross and the Supremes - 2008 - Let the Music Play- Supreme Rarities (Original Recordings- 1960-1969)\08 - It Makes No Difference Now (Alternate Version).wav

Pre-gap length 0:00:00.93

Peak level 98.0 %
Track quality 100.0 %
Test CRC DA575CCD
Copy CRC DA575CCD
Accurately ripped (confidence 7) [DBA6E1D0]
Copy OK

Track 9

Filename C:\EACrips\Diana Ross and the Supremes - 2008 - Let the Music Play- Supreme Rarities (Original Recordings- 1960-1969)\09 - Come On Boy (Alternate Version).wav

Pre-gap length 0:00:00.70

Peak level 98.3 %
Track quality 100.0 %
Test CRC 4B7C5A81
Copy CRC 4B7C5A81
Accurately ripped (confidence 7) [C4920DEC]
Copy OK

Track 10

Filename C:\EACrips\Diana Ross and the Supremes - 2008 - Let the Music Play- Supreme Rarities (Original Recordings- 1960-1969)\10 - Just Call Me (Stereo Mix).wav

Pre-gap length 0:00:00.68

Peak level 98.6 %
Track quality 100.0 %
Test CRC 8BF49B42
Copy CRC 8BF49B42
Accurately ripped (confidence 7) [75FFE6EC]
Copy OK

Track 11

Filename C:\EACrips\Diana Ross and the Supremes - 2008 - Let the Music Play- Supreme Rarities (Original Recordings- 1960-1969)\11 - I Saw Him Standing There.wav

Pre-gap length 0:00:00.38

Peak level 100.0 %
Track quality 100.0 %
Test CRC BAF11A74
Copy CRC BAF11A74
Accurately ripped (confidence 7) [29E37DD6]
Copy OK

Track 12

Filename C:\EACrips\Diana Ross and the Supremes - 2008 - Let the Music Play- Supreme Rarities (Original Recordings- 1960-1969)\12 - Not Fade Away.wav

Pre-gap length 0:00:01.00

Peak level 97.7 %
Track quality 100.0 %
Test CRC 15354FA3
Copy CRC 15354FA3
Accurately ripped (confidence 7) [B40152FC]
Copy OK

Track 13

Filename C:\EACrips\Diana Ross and the Supremes - 2008 - Let the Music Play- Supreme Rarities (Original Recordings- 1960-1969)\13 - Ooowee Baby (Alternate Mix).wav

Pre-gap length 0:00:01.52

Peak level 81.2 %
Track quality 100.0 %
Test CRC 97A81A7E
Copy CRC 97A81A7E
Accurately ripped (confidence 7) [F9E45918]
Copy OK

Track 14

Filename C:\EACrips\Diana Ross and the Supremes - 2008 - Let the Music Play- Supreme Rarities (Original Recordings- 1960-1969)\14 - It's All Your Fault (Version 1).wav

Pre-gap length 0:00:00.93

Peak level 79.3 %
Track quality 100.0 %
Test CRC 40C57A55
Copy CRC 40C57A55
Accurately ripped (confidence 7) [807B69B0]
Copy OK

Track 15

Filename C:\EACrips\Diana Ross and the Supremes - 2008 - Let the Music Play- Supreme Rarities (Original Recordings- 1960-1969)\15 - Hits Medley - Come See About Me - Baby Love - Stop In The Name Of Love.wav

Pre-gap length 0:00:00.80

Peak level 97.7 %
Track quality 100.0 %
Test CRC E2E45212
Copy CRC E2E45212
Accurately ripped (confidence 7) [07EEF61E]
Copy OK

Track 16

Filename C:\EACrips\Diana Ross and the Supremes - 2008 - Let the Music Play- Supreme Rarities (Original Recordings- 1960-1969)\16 - Cupid (Alternate Extended Mix).wav

Pre-gap length 0:00:00.48

Peak level 97.7 %
Track quality 100.0 %
Test CRC 65E231D5
Copy CRC 65E231D5
Accurately ripped (confidence 7) [8DEEC577]
Copy OK

Track 17

Filename C:\EACrips\Diana Ross and the Supremes - 2008 - Let the Music Play- Supreme Rarities (Original Recordings- 1960-1969)\17 - Take Me Where You Go (Version 3).wav

Pre-gap length 0:00:01.68

Peak level 97.7 %
Track quality 100.0 %
Test CRC E2971707
Copy CRC E2971707
Accurately ripped (confidence 7) [29659110]
Copy OK

Track 18

Filename C:\EACrips\Diana Ross and the Supremes - 2008 - Let the Music Play- Supreme Rarities (Original Recordings- 1960-1969)\18 - Back In My Arms Again (Alternate Vocal).wav

Pre-gap length 0:00:00.86

Peak level 100.0 %
Track quality 100.0 %
Test CRC 9AD5AA75
Copy CRC 9AD5AA75
Accurately ripped (confidence 7) [30CEAD06]
Copy OK

Track 19

Filename C:\EACrips\Diana Ross and the Supremes - 2008 - Let the Music Play- Supreme Rarities (Original Recordings- 1960-1969)\19 - You Can't Hurry Love (Alternate Vocal).wav

Pre-gap length 0:00:02.61

Peak level 100.0 %
Track quality 100.0 %
Test CRC 006C72BE
Copy CRC 006C72BE
Accurately ripped (confidence 7) [805CCD7F]
Copy OK

Track 20

Filename C:\EACrips\Diana Ross and the Supremes - 2008 - Let the Music Play- Supreme Rarities (Original Recordings- 1960-1969)\20 - Mickey's Monkey.wav

Pre-gap length 0:00:22.34

Peak level 97.7 %
Track quality 100.0 %
Test CRC 8554EA1C
Copy CRC 8554EA1C
Accurately ripped (confidence 7) [BE7BFF55]
Copy OK

Track 21

Filename C:\EACrips\Diana Ross and the Supremes - 2008 - Let the Music Play- Supreme Rarities (Original Recordings- 1960-1969)\21 - Uptight (Everything's Alright) (Alternate Vocal).wav

Pre-gap length 0:00:01.61

Peak level 100.0 %
Track quality 100.0 %
Test CRC A92B101F
Copy CRC A92B101F
Accurately ripped (confidence 7) [F9A41E31]
Copy OK

Track 22

Filename C:\EACrips\Diana Ross and the Supremes - 2008 - Let the Music Play- Supreme Rarities (Original Recordings- 1960-1969)\22 - It's Not Unusual.wav

Pre-gap length 0:00:00.84

Peak level 97.7 %
Track quality 100.0 %
Test CRC 5ED8D437
Copy CRC 5ED8D437
Accurately ripped (confidence 7) [211A1DF6]
Copy OK

Track 23

Filename C:\EACrips\Diana Ross and the Supremes - 2008 - Let the Music Play- Supreme Rarities (Original Recordings- 1960-1969)\23 - (I Can't Get No) Satisfaction.wav

Pre-gap length 0:00:01.18

Peak level 97.7 %
Track quality 100.0 %
Test CRC 31B8D33D
Copy CRC 31B8D33D
Accurately ripped (confidence 7) [499BFB81]
Copy OK

Track 24

Filename C:\EACrips\Diana Ross and the Supremes - 2008 - Let the Music Play- Supreme Rarities (Original Recordings- 1960-1969)\24 - Come And Get These Memories (Alternate Mix).wav

Pre-gap length 0:00:01.20

Peak level 98.8 %
Track quality 100.0 %
Test CRC FCA6008A
Copy CRC FCA6008A
Accurately ripped (confidence 7) [158045D3]
Copy OK

Track 25

Filename C:\EACrips\Diana Ross and the Supremes - 2008 - Let the Music Play- Supreme Rarities (Original Recordings- 1960-1969)\25 - Can't Help Myself (Sugar Pie, Honey Bunch).wav

Pre-gap length 0:00:02.10

Peak level 97.7 %
Track quality 100.0 %
Test CRC 61F7CF52
Copy CRC 61F7CF52
Accurately ripped (confidence 7) [5FF5C92C]
Copy OK

Track 26

Filename C:\EACrips\Diana Ross and the Supremes - 2008 - Let the Music Play- Supreme Rarities (Original Recordings- 1960-1969)\26 - Let The Music Play (Alternate Vocal).wav

Pre-gap length 0:00:05.26

Peak level 97.7 %
Track quality 100.0 %
Test CRC 75EEE369
Copy CRC 75EEE369
Accurately ripped (confidence 7) [52D6E115]
Copy OK


All tracks accurately ripped

No errors occurred

End of status report


Exact Audio Copy V0.99 prebeta 5 from 4. May 2009

EAC extraction logfile from 20. February 2010, 1:24

Diana Ross & the Supremes / Let the Music Play: Supreme Rarities (Original Recordings: 1960-1969)

Used drive : TSSTcorpCDRW/DVD TSL462C Adapter: 1 ID: 0

Read mode : Secure
Utilize accurate stream : Yes
Defeat audio cache : Yes
Make use of C2 pointers : No

Read offset correction : 6
Overread into Lead-In and Lead-Out : No
Fill up missing offset samples with silence : Yes
Delete leading and trailing silent blocks : No
Null samples used in CRC calculations : Yes
Used interface : Native Win32 interface for Win NT & 2000
Gap handling : Appended to previous track

Used output format : User Defined Encoder
Selected bitrate : 768 kBit/s
Quality : High
Add ID3 tag : No
Command line compressor : C:\Program Files\Exact Audio Copy\FLAC\FLAC.EXE
Additional command line options : -6 -V -T "ARTIST=%a" -T "TITLE=%t" -T "ALBUM=%g" -T "DATE=%y" -T "TRACKNUMBER=%n" -T "GENRE=%m" -T "COMMENT=%e" %s -o %d


TOC of the extracted CD

Track | Start | Length | Start sector | End sector
––––––––––––––––––––––––––––-
1 | 0:00.00 | 3:49.71 | 0 | 17245
2 | 3:49.71 | 2:39.02 | 17246 | 29172
3 | 6:28.73 | 4:03.52 | 29173 | 47449
4 | 10:32.50 | 2:44.25 | 47450 | 59774
5 | 13:17.00 | 3:01.27 | 59775 | 73376
6 | 16:18.27 | 5:35.43 | 73377 | 98544
7 | 21:53.70 | 3:17.57 | 98545 | 113376
8 | 25:11.52 | 2:46.51 | 113377 | 125877
9 | 27:58.28 | 2:40.18 | 125878 | 137895
10 | 30:38.46 | 2:50.21 | 137896 | 150666
11 | 33:28.67 | 2:56.02 | 150667 | 163868
12 | 36:24.69 | 2:43.23 | 163869 | 176116
13 | 39:08.17 | 3:32.61 | 176117 | 192077
14 | 42:41.03 | 2:53.41 | 192078 | 205093
15 | 45:34.44 | 3:30.54 | 205094 | 220897
16 | 49:05.23 | 6:47.66 | 220898 | 251488
17 | 55:53.14 | 2:44.05 | 251489 | 263793
18 | 58:37.19 | 3:41.02 | 263794 | 280370
19 | 62:18.21 | 3:25.36 | 280371 | 295781
20 | 65:43.57 | 2:45.51 | 295782 | 308207
21 | 68:29.33 | 4:11.48 | 308208 | 327080
22 | 72:41.06 | 6:37.13 | 327081 | 356868


Track 1

Filename C:\EACrips\Diana Ross & the Supremes - 2008 - Let the Music Play- Supreme Rarities (Original Recordings- 1960-1969)\01 - Don't Let True Love Die (Extended Version).wav

Pre-gap length 0:00:02.00

Peak level 97.7 %
Track quality 100.0 %
Test CRC 3E0FDF66
Copy CRC 3E0FDF66
Accurately ripped (confidence 7) [A5D53771]
Copy OK

Track 2

Filename C:\EACrips\Diana Ross & the Supremes - 2008 - Let the Music Play- Supreme Rarities (Original Recordings- 1960-1969)\02 - What A Friend We Have In Jesus.wav

Pre-gap length 0:00:00.16

Peak level 98.8 %
Track quality 100.0 %
Test CRC 5B655D79
Copy CRC 5B655D79
Accurately ripped (confidence 7) [E8AE0E3A]
Copy OK

Track 3

Filename C:\EACrips\Diana Ross & the Supremes - 2008 - Let the Music Play- Supreme Rarities (Original Recordings- 1960-1969)\03 - Every Time I Feel The Spirit.wav

Pre-gap length 0:00:01.37

Peak level 98.8 %
Track quality 100.0 %
Test CRC F522E899
Copy CRC F522E899
Accurately ripped (confidence 7) [3C060846]
Copy OK

Track 4

Filename C:\EACrips\Diana Ross & the Supremes - 2008 - Let the Music Play- Supreme Rarities (Original Recordings- 1960-1969)\04 - Believe In Me.wav

Pre-gap length 0:00:00.61

Peak level 98.8 %
Track quality 100.0 %
Test CRC 85A581FD
Copy CRC 85A581FD
Accurately ripped (confidence 7) [D7C42564]
Copy OK

Track 5

Filename C:\EACrips\Diana Ross & the Supremes - 2008 - Let the Music Play- Supreme Rarities (Original Recordings- 1960-1969)\05 - The Beginning Of The End Of Love (Stereo Mix).wav

Pre-gap length 0:00:01.13

Peak level 97.7 %
Track quality 100.0 %
Test CRC 2AC83B78
Copy CRC 2AC83B78
Accurately ripped (confidence 7) [B16728EA]
Copy OK

Track 6

Filename C:\EACrips\Diana Ross & the Supremes - 2008 - Let the Music Play- Supreme Rarities (Original Recordings- 1960-1969)\06 - People (Unedited Version).wav

Pre-gap length 0:00:00.65

Peak level 97.7 %
Track quality 100.0 %
Test CRC B092ECEF
Copy CRC B092ECEF
Accurately ripped (confidence 7) [AA2E7DF5]
Copy OK

Track 7

Filename C:\EACrips\Diana Ross & the Supremes - 2008 - Let the Music Play- Supreme Rarities (Original Recordings- 1960-1969)\07 - Over The Rainbow.wav

Pre-gap length 0:00:01.05

Peak level 98.8 %
Track quality 100.0 %
Test CRC 781A9BFD
Copy CRC 781A9BFD
Accurately ripped (confidence 7) [B3C6D1E0]
Copy OK

Track 8

Filename C:\EACrips\Diana Ross & the Supremes - 2008 - Let the Music Play- Supreme Rarities (Original Recordings- 1960-1969)\08 - Wish I Knew.wav

Pre-gap length 0:00:00.77

Peak level 98.8 %
Track quality 99.9 %
Test CRC 3808C865
Copy CRC 3808C865
Accurately ripped (confidence 7) [07F21BF8]
Copy OK

Track 9

Filename C:\EACrips\Diana Ross & the Supremes - 2008 - Let the Music Play- Supreme Rarities (Original Recordings- 1960-1969)\09 - I Can't Give Back The Love I Feel For You.wav

Pre-gap length 0:00:01.04

Peak level 97.7 %
Track quality 100.0 %
Test CRC 1C12C1BE
Copy CRC 1C12C1BE
Accurately ripped (confidence 7) [6AF3534A]
Copy OK

Track 10

Filename C:\EACrips\Diana Ross & the Supremes - 2008 - Let the Music Play- Supreme Rarities (Original Recordings- 1960-1969)\10 - I'll Set You Free (Alternate Vocal).wav

Pre-gap length 0:00:00.96

Peak level 100.0 %
Track quality 100.0 %
Test CRC F3C777FC
Copy CRC F3C777FC
Accurately ripped (confidence 7) [AE51C3C4]
Copy OK

Track 11

Filename C:\EACrips\Diana Ross & the Supremes - 2008 - Let the Music Play- Supreme Rarities (Original Recordings- 1960-1969)\11 - Ain't No Sun Since You've Been Gone.wav

Pre-gap length 0:00:00.81

Peak level 100.0 %
Track quality 100.0 %
Test CRC 4445887D
Copy CRC 4445887D
Accurately ripped (confidence 7) [59E44595]
Copy OK

Track 12

Filename C:\EACrips\Diana Ross & the Supremes - 2008 - Let the Music Play- Supreme Rarities (Original Recordings- 1960-1969)\12 - In The Evening Of Our Love.wav

Pre-gap length 0:00:03.09

Peak level 97.7 %
Track quality 100.0 %
Test CRC 7903D237
Copy CRC 7903D237
Accurately ripped (confidence 7) [EBF8B31C]
Copy OK

Track 13

Filename C:\EACrips\Diana Ross & the Supremes - 2008 - Let the Music Play- Supreme Rarities (Original Recordings- 1960-1969)\13 - Love Child (Alternate Vocal).wav

Pre-gap length 0:00:01.82

Peak level 99.9 %
Track quality 100.0 %
Test CRC 82342D21
Copy CRC 82342D21
Accurately ripped (confidence 7) [F5491C7B]
Copy OK

Track 14

Filename C:\EACrips\Diana Ross & the Supremes - 2008 - Let the Music Play- Supreme Rarities (Original Recordings- 1960-1969)\14 - Those Precious Memories.wav

Pre-gap length 0:00:09.85

Peak level 97.7 %
Track quality 100.0 %
Test CRC 328F2EE7
Copy CRC 328F2EE7
Accurately ripped (confidence 7) [AE22FAFA]
Copy OK

Track 15

Filename C:\EACrips\Diana Ross & the Supremes - 2008 - Let the Music Play- Supreme Rarities (Original Recordings- 1960-1969)\15 - I'm Livin' In Shame (Version 1).wav

Pre-gap length 0:00:00.92

Peak level 97.7 %
Track quality 100.0 %
Test CRC 7ACBC958
Copy CRC 7ACBC958
Accurately ripped (confidence 7) [195648AB]
Copy OK

Track 16

Filename C:\EACrips\Diana Ross & the Supremes - 2008 - Let the Music Play- Supreme Rarities (Original Recordings- 1960-1969)\16 - Macarthur Park.wav

Pre-gap length 0:00:01.65

Peak level 97.7 %
Track quality 100.0 %
Test CRC FA1E7251
Copy CRC FA1E7251
Accurately ripped (confidence 7) [ABA3859C]
Copy OK

Track 17

Filename C:\EACrips\Diana Ross & the Supremes - 2008 - Let the Music Play- Supreme Rarities (Original Recordings- 1960-1969)\17 - You're Gonna Hear From Me.wav

Pre-gap length 0:00:01.61

Peak level 98.8 %
Track quality 100.0 %
Test CRC DFAB88C8
Copy CRC DFAB88C8
Accurately ripped (confidence 7) [5D9A3B0E]
Copy OK

Track 18

Filename C:\EACrips\Diana Ross & the Supremes - 2008 - Let the Music Play- Supreme Rarities (Original Recordings- 1960-1969)\18 - Canadian Sunset.wav

Pre-gap length 0:00:00.86

Peak level 97.7 %
Track quality 100.0 %
Test CRC 34E39F9F
Copy CRC 34E39F9F
Accurately ripped (confidence 7) [F832E51F]
Copy OK

Track 19

Filename C:\EACrips\Diana Ross & the Supremes - 2008 - Let the Music Play- Supreme Rarities (Original Recordings- 1960-1969)\19 - Autumn Leaves.wav

Pre-gap length 0:00:01.29

Peak level 97.7 %
Track quality 100.0 %
Test CRC 1D97F652
Copy CRC 1D97F652
Accurately ripped (confidence 7) [FE48E47A]
Copy OK

Track 20

Filename C:\EACrips\Diana Ross & the Supremes - 2008 - Let the Music Play- Supreme Rarities (Original Recordings- 1960-1969)\20 - The Look Of Love.wav

Pre-gap length 0:00:00.52

Peak level 97.7 %
Track quality 99.9 %
Test CRC FA820106
Copy CRC FA820106
Accurately ripped (confidence 6) [D57F6B72]
Copy OK

Track 21

Filename C:\EACrips\Diana Ross & the Supremes - 2008 - Let the Music Play- Supreme Rarities (Original Recordings- 1960-1969)\21 - Someday We'll Be Together (Alternate Vocal).wav

Pre-gap length 0:00:00.90

Peak level 100.0 %
Track quality 100.0 %
Test CRC FE635A0D
Copy CRC FE635A0D
Accurately ripped (confidence 7) [CEE70A09]
Copy OK

Track 22

Filename C:\EACrips\Diana Ross & the Supremes - 2008 - Let the Music Play- Supreme Rarities (Original Recordings- 1960-1969)\22 - Scott Regan Radio Promos.wav

Pre-gap length 0:00:07.68

Peak level 97.8 %
Track quality 99.9 %
Test CRC A6A501F2
Copy CRC A6A501F2
Accurately ripped (confidence 7) [41B27C44]
Copy OK


All tracks accurately ripped

No errors occurred

End of status report


Tracklist :::
Disc 1
01. (You Can) Depend on Me
02. Tears of Sorrow (Version 2)
03. Because I Love Him
04. Hey Baby (Version 1)
05. Too Hot
06. You're Gonna Come to Me (Version 1)
07. You're Gonna Come to Me (Version 2)
08. It Makes No Difference Now (Alternate Version)
09. Come on Boy (Alternate Version)
10. Just Call Me (Stereo Mix)
11. I Saw Him Standing There
12. Not Fade Away
13. Ooowee Baby (Alternate Mix)
14. It's All Your Fault (Version 1)
15. Hits Medley - Come See About Me/Baby Love/Stop! In the Name of Love
16. Cupid (Alternate Extended Mix)
17. Take Me Where You Go (Version 3)
18. Back in My Arms Again (Alternate Vocal)
19. You Can't Hurry Love (Alternate Vocal) - alternate lead by Diana, with mistake!
20. Mickey's Monkey
21. Uptight (Everything's Alright) (Alternate Vocal)
22. It's Not Unusual
23. (I Can't Get No) Satisfaction
24. Come and Get These Memories (Alternate Mix)
25. I Can't Help Myself (Alternate Mix)
26. Let the Music Play (Alternate Vocal)

Disc 2
01. Don't Let True Love Die (Extended Version)
02. What a Friend We Have in Jesus
03. Every Time I Feel the Spirit
04. Believe in Me
05. The Beginning of The End of Love (Stereo Mix)
06. People (Unedited Version)
07. Over the Rainbow
08. Wish I Knew
09. I Can't Give Back the Love I Feel for You
10. I'll Set You Free (Alternate Vocal)
11. Ain't No Sun Since You've Been Gone
12. In the Evening of Our Love
13. Love Child (Alternate Vocal) - with a whole additional verse!
14. Those Precious Memories
15. I'm Livin' in Shame (Version 1)
16. MacArthur Park
17. You're Gonna Hear from Me
18. Canadian Sunset
19. Autumn Leaves
20. The Look of Love
21. Someday We'll Be Together (Alternate Vocal)
22. Scott Regan Promos (Bonus)

Thanks to Original Re-leaser.