Tags
Language
Tags

Dizzy Gillespie Quintet - An Electrifying Evening With The Dizzy Gillespie Quintet (1961) [Reissue 1999]

Posted By: gribovar
Dizzy Gillespie Quintet - An Electrifying Evening With The Dizzy Gillespie Quintet (1961) [Reissue 1999]

Dizzy Gillespie Quintet - An Electrifying Evening With The Dizzy Gillespie Quintet (1961) [Reissue 1999]
EAC Rip | WavPack (image+.cue+log) - 370 MB | Covers - 46 MB
Genre: Jazz | RAR 3% Rec. | Label: Verve (314 557 544-2)

Dizzy Gillespie (along with altoist Leo Wright, pianist Lalo Schfrin, bassist Bob Cunningham, and drummer Chuck Lampkin) were in peak form for this live performance. Their versions of "Kush," "Salt Peanuts," and "The Mooche" are all excellent, but it is "A Night in Tunisia," with its absolutely stunning trumpet break (which lasts half a chorus), that is most memorable.
Tracklist:
01. Kush
02. Salt Peanuts
03. A Night In Tunisia
04. The Mooche
05. Interview with Dizzy Gillespie by Charles Schwartz

Total time: 54:44

Exact Audio Copy V0.99 prebeta 5 from 4. May 2009

EAC extraction logfile from 4. March 2010, 14:55

Dizzy Gillespie Quintet / An Electrifying Evening With The Dizzy Gillespie Quintet

Used drive : HL-DT-STDVD-RAM GH22NP20 Adapter: 1 ID: 1

Read mode : Secure
Utilize accurate stream : Yes
Defeat audio cache : Yes
Make use of C2 pointers : No

Read offset correction : 102
Overread into Lead-In and Lead-Out : No
Fill up missing offset samples with silence : Yes
Delete leading and trailing silent blocks : No
Null samples used in CRC calculations : Yes
Used interface : Native Win32 interface for Win NT & 2000

Used output format : Internal WAV Routines
Sample format : 44.100 Hz; 16 Bit; Stereo


TOC of the extracted CD

Track | Start | Length | Start sector | End sector
––––––––––––––––––––––––––––-
1 | 0:00.00 | 11:01.42 | 0 | 49616
2 | 11:01.42 | 7:08.28 | 49617 | 81744
3 | 18:09.70 | 6:46.65 | 81745 | 112259
4 | 24:56.60 | 11:43.52 | 112260 | 165036
5 | 36:40.37 | 18:03.05 | 165037 | 246266


Range status and errors

Selected range

Filename C:\Documents and Settings\Riccardo\Desktop\R\AAAA TO EAC\Dizzy Gillespie Quintet - An Electrifying Evening with the Dizzy Gillespie Quintet\Dizzy Gillespie Quintet - An Electrifying Evening With The Dizzy Gillespie Quintet.wav

Peak level 100.0 %
Range quality 100.0 %
Test CRC FF0A8A00
Copy CRC FF0A8A00
Copy OK

No errors occurred

End of status report

[CUETools log; Date: 25.01.2019 17:46:10; Version: 2.1.4]
[CTDB TOCID: tD7oFjypM2ijciPIVxom7h87Y0I-] found.
Track | CTDB Status
1 | (15/21) Accurately ripped
2 | (15/21) Accurately ripped
3 | (15/21) Accurately ripped
4 | (15/21) Accurately ripped
5 | (15/21) Accurately ripped
[AccurateRip ID: 0009fe4e-002f3ee9-380cd305] found.
Track [ CRC | V2 ] Status
01 [a0e6e5df|03bb928a] (07+14/28) Accurately ripped
02 [39e8d1f1|6f44cf9b] (07+14/28) Accurately ripped
03 [c4c73c98|2056cd84] (08+14/29) Accurately ripped
04 [ee24e2a3|3cfee8e5] (08+14/29) Accurately ripped
05 [09e9adfc|a980cc69] (07+13/27) Accurately ripped

Track Peak [ CRC32 ] [W/O NULL] [ LOG ]
– 99,9 [FF0A8A00] [B3754A60] CRC32
01 96,1 [20E41FBD] [39DC65C2]
02 91,3 [AC7F9ECC] [3362B3E8]
03 99,5 [D0FC7A36] [159CC471]
04 90,0 [C94BF8A3] [48BA842C]
05 99,9 [0F4139BE] [AE1884A6]

Thanks to bINkI