Tags
Language
Tags

Django Reinhardt - 1940 (1995)

Posted By: gribovar
Django Reinhardt - 1940 (1995)

Django Reinhardt - 1940 (1995)
EAC Rip | FLAC (tracks+.cue+log) - 194 MB | MP3 CBR 320 kbps (LAME 3.93) - 145 MB | Covers (8 MB) included
Genre: Gypsy Jazz, Swing | RAR 3% Rec. | Label: Classics Records (CLASSICS 831)

For fans mostly enamored with Reinhardt and Grappelli's vintage Quintet of the Hot Club of France (QHCF) sides from the '30s, this collection of 1940 recordings might not the best disc to get. Reinhardt completists, however, will certainly find plenty here to admire. The start of The War had broken up the original QHCF, as Grappelli opted to pursue a career on England's relatively safe shores and Reinhardt went solo in Paris. This Classics disc finds a Grappelli-less Reinhardt with a new incarnation of the Quintet, plus several cuts where the guitarist is featured in groups led by such other French musical luminaries as trumpeter Hubert Rostaing and tenor saxophonist Noel Chiboust. Reinhardt regulars like trumpeter Philippe Brun and reed player Alix Combelle also make fine solo contributions to this set of both hot swingers and dance band smoothies.
Tracklist:
01. Rosetta
02. Sugar
03. A Pretty Girl Is Like a Melody
04. Margie
05. Tears
06. Limehouse Blues
07. Daphne
08. At the Jimmy's Bar
09. Nuages
10. Rythme futur
11. Begin the Beguine
12. Blues
13. Coucou
14. Indecision
15. Serenade d'hiver
16. Le sheik
17. Noel Blues
18. Margie
19. Bijou
20. Indecision
21. Oui, c'est ca

Total time: 58:05

Exact Audio Copy V1.0 beta 3 from 29. August 2011

EAC extraction logfile from 2. March 2012, 10:28

Django Reinhardt / Django Reinhardt 1940

Used drive : Optiarc DVD RW AD-7260S Adapter: 3 ID: 0

Read mode : Secure
Utilize accurate stream : Yes
Defeat audio cache : Yes
Make use of C2 pointers : No

Read offset correction : 48
Overread into Lead-In and Lead-Out : No
Fill up missing offset samples with silence : Yes
Delete leading and trailing silent blocks : No
Null samples used in CRC calculations : Yes
Used interface : Native Win32 interface for Win NT & 2000
Gap handling : Appended to previous track

Used output format : User Defined Encoder
Selected bitrate : 1024 kBit/s
Quality : High
Add ID3 tag : No
Command line compressor : C:\Program Files (x86)\Exact Audio Copy\Flac\flac.exe
Additional command line options : -8 -V -T "ARTIST=%artist%" -T "TITLE=%title%" -T "ALBUM=%albumtitle%" -T "DATE=%year%" -T "TRACKNUMBER=%tracknr%" -T "GENRE=%genre%" -T "PERFORMER=%albuminterpret%" -T "COMPOSER=%composer%" -T "ALBUMARTIST=%albumartist%" -T "DISCNUMBER=%cdnumber%" -T "TOTALDISCS=%totalcds%" -T "TOTALTRACKS=%numtracks%" -T "COMMENT=%comment%" %source% -o %dest%


TOC of the extracted CD

Track | Start | Length | Start sector | End sector
––––––––––––––––––––––––––––-
1 | 0:00.32 | 2:29.40 | 32 | 11246
2 | 2:29.72 | 2:42.30 | 11247 | 23426
3 | 5:12.27 | 2:38.55 | 23427 | 35331
4 | 7:51.07 | 2:17.18 | 35332 | 45624
5 | 10:08.25 | 2:50.10 | 45625 | 58384
6 | 12:58.35 | 2:29.57 | 58385 | 69616
7 | 15:28.17 | 2:53.35 | 69617 | 82626
8 | 18:21.52 | 2:53.15 | 82627 | 95616
9 | 21:14.67 | 3:20.38 | 95617 | 110654
10 | 24:35.30 | 2:42.32 | 110655 | 122836
11 | 27:17.62 | 2:55.53 | 122837 | 136014
12 | 30:13.40 | 3:09.72 | 136015 | 150261
13 | 33:23.37 | 2:42.60 | 150262 | 162471
14 | 36:06.22 | 3:05.60 | 162472 | 176406
15 | 39:12.07 | 2:43.00 | 176407 | 188631
16 | 41:55.07 | 2:20.13 | 188632 | 199144
17 | 44:15.20 | 3:00.65 | 199145 | 212709
18 | 47:16.10 | 2:21.52 | 212710 | 223336
19 | 49:37.62 | 2:26.45 | 223337 | 234331
20 | 52:04.32 | 3:21.68 | 234332 | 249474
21 | 55:26.25 | 2:39.02 | 249475 | 261401


Track 1

Filename C:\Rips\01 - Rosetta.wav

Pre-gap length 0:00:02.42

Peak level 85.3 %
Extraction speed 2.1 X
Track quality 100.0 %
Test CRC 2A719D24
Copy CRC 2A719D24
Track not present in AccurateRip database
Copy OK

Track 2

Filename C:\Rips\02 - Sugar.wav

Pre-gap length 0:00:02.46

Peak level 80.3 %
Extraction speed 2.3 X
Track quality 100.0 %
Test CRC 2B23DB79
Copy CRC 2B23DB79
Track not present in AccurateRip database
Copy OK

Track 3

Filename C:\Rips\03 - A Pretty Girl Is Like A Melody.wav

Pre-gap length 0:00:02.40

Peak level 63.0 %
Extraction speed 2.5 X
Track quality 100.0 %
Test CRC 46A3F15C
Copy CRC 46A3F15C
Track not present in AccurateRip database
Copy OK

Track 4

Filename C:\Rips\04 - Margie.wav

Pre-gap length 0:00:02.16

Peak level 79.8 %
Extraction speed 2.5 X
Track quality 100.0 %
Test CRC 35CD382C
Copy CRC 35CD382C
Track not present in AccurateRip database
Copy OK

Track 5

Filename C:\Rips\05 - Tears.wav

Pre-gap length 0:00:02.60

Peak level 82.8 %
Extraction speed 2.8 X
Track quality 100.0 %
Test CRC 6851E22D
Copy CRC 6851E22D
Track not present in AccurateRip database
Copy OK

Track 6

Filename C:\Rips\06 - Limehouse Blues.wav

Pre-gap length 0:00:02.30

Peak level 88.3 %
Extraction speed 2.8 X
Track quality 100.0 %
Test CRC 28CA16EE
Copy CRC 28CA16EE
Track not present in AccurateRip database
Copy OK

Track 7

Filename C:\Rips\07 - Daphné.wav

Pre-gap length 0:00:02.29

Peak level 98.5 %
Extraction speed 3.1 X
Track quality 100.0 %
Test CRC 585800F3
Copy CRC 585800F3
Track not present in AccurateRip database
Copy OK

Track 8

Filename C:\Rips\08 - At The Jimmy's Bar.wav

Pre-gap length 0:00:02.36

Peak level 93.3 %
Extraction speed 3.2 X
Track quality 100.0 %
Test CRC 34899FF6
Copy CRC 34899FF6
Track not present in AccurateRip database
Copy OK

Track 9

Filename C:\Rips\09 - Nuages.wav

Pre-gap length 0:00:02.06

Peak level 65.1 %
Extraction speed 3.0 X
Track quality 99.9 %
Test CRC 23CCC855
Copy CRC 23CCC855
Track not present in AccurateRip database
Copy OK

Track 10

Filename C:\Rips\10 - Rhythme futur.wav

Pre-gap length 0:00:02.20

Peak level 86.6 %
Extraction speed 3.5 X
Track quality 100.0 %
Test CRC 79530370
Copy CRC 79530370
Track not present in AccurateRip database
Copy OK

Track 11

Filename C:\Rips\11 - Begin The Beguine.wav

Pre-gap length 0:00:02.20

Peak level 78.5 %
Extraction speed 3.6 X
Track quality 100.0 %
Test CRC 92CDE970
Copy CRC 92CDE970
Track not present in AccurateRip database
Copy OK

Track 12

Filename C:\Rips\12 - Blues.wav

Pre-gap length 0:00:02.10

Peak level 82.4 %
Extraction speed 3.8 X
Track quality 100.0 %
Test CRC 35EE526F
Copy CRC 35EE526F
Track not present in AccurateRip database
Copy OK

Track 13

Filename C:\Rips\13 - Coucou.wav

Pre-gap length 0:00:01.66

Peak level 54.7 %
Extraction speed 3.8 X
Track quality 100.0 %
Test CRC F9274363
Copy CRC F9274363
Track not present in AccurateRip database
Copy OK

Track 14

Filename C:\Rips\14 - Indécision.wav

Pre-gap length 0:00:02.29

Peak level 73.5 %
Extraction speed 4.0 X
Track quality 100.0 %
Test CRC C39672EF
Copy CRC C39672EF
Track not present in AccurateRip database
Copy OK

Track 15

Filename C:\Rips\15 - Sérénade d'hiver.wav

Pre-gap length 0:00:02.36

Peak level 83.5 %
Extraction speed 3.4 X
Track quality 99.9 %
Test CRC 25C0B005
Copy CRC 25C0B005
Track not present in AccurateRip database
Copy OK

Track 16

Filename C:\Rips\16 - Le sheik.wav

Pre-gap length 0:00:02.66

Peak level 65.5 %
Extraction speed 3.9 X
Track quality 100.0 %
Test CRC 33E7E060
Copy CRC 33E7E060
Track not present in AccurateRip database
Copy OK

Track 17

Filename C:\Rips\17 - Noël Blues.wav

Pre-gap length 0:00:02.37

Peak level 75.9 %
Extraction speed 4.2 X
Track quality 100.0 %
Test CRC A7BE929D
Copy CRC A7BE929D
Track not present in AccurateRip database
Copy OK

Track 18

Filename C:\Rips\18 - Margie.wav

Pre-gap length 0:00:02.33

Peak level 77.7 %
Extraction speed 4.1 X
Track quality 100.0 %
Test CRC 28FE4EB1
Copy CRC 28FE4EB1
Track not present in AccurateRip database
Copy OK

Track 19

Filename C:\Rips\19 - Bijou.wav

Pre-gap length 0:00:01.96

Peak level 56.1 %
Extraction speed 4.2 X
Track quality 100.0 %
Test CRC 19B1BFEE
Copy CRC 19B1BFEE
Track not present in AccurateRip database
Copy OK

Track 20

Filename C:\Rips\20 - Indécision.wav

Pre-gap length 0:00:02.29

Peak level 85.1 %
Extraction speed 4.6 X
Track quality 100.0 %
Test CRC 4E3DBECC
Copy CRC 4E3DBECC
Track not present in AccurateRip database
Copy OK

Track 21

Filename C:\Rips\21 - Oui, c'est ça.wav

Pre-gap length 0:00:02.13

Peak level 75.3 %
Extraction speed 3.8 X
Track quality 99.9 %
Test CRC DF7215AF
Copy CRC DF7215AF
Track not present in AccurateRip database
Copy OK


None of the tracks are present in the AccurateRip database

No errors occurred

End of status report

==== Log checksum D2095BCD613A3CC0FE9CDA4DCCB97DA06903E05162993BA6B1852B85C7F28C59 ====

[CUETools log; Date: 24.02.2021 14:47:24; Version: 2.1.4]
Pregap length 00:00:32.
[CTDB TOCID: 6EDaHm7JjdMJDtHr7S7A9RNqoPQ-] found.
Track | CTDB Status
1 | (2/2) Accurately ripped
2 | (2/2) Accurately ripped
3 | (2/2) Accurately ripped
4 | (2/2) Accurately ripped
5 | (2/2) Accurately ripped
6 | (2/2) Accurately ripped
7 | (2/2) Accurately ripped
8 | (2/2) Accurately ripped
9 | (2/2) Accurately ripped
10 | (2/2) Accurately ripped
11 | (2/2) Accurately ripped
12 | (2/2) Accurately ripped
13 | (2/2) Accurately ripped
14 | (2/2) Accurately ripped
15 | (2/2) Accurately ripped
16 | (2/2) Accurately ripped
17 | (2/2) Accurately ripped
18 | (2/2) Accurately ripped
19 | (2/2) Accurately ripped
20 | (2/2) Accurately ripped
21 | (2/2) Accurately ripped
[AccurateRip ID: 002b7b36-029e6fc5-210d9d15] found.
Track [ CRC | V2 ] Status
01 [7521fc57|af4c298e] (0+3/3) Accurately ripped
02 [9f8bef5a|dac12778] (0+3/3) Accurately ripped
03 [80ac8c8e|2c4e80dd] (0+3/3) Accurately ripped
04 [c67fd3cb|ad9c872c] (0+3/3) Accurately ripped
05 [27d990e5|7fb93293] (0+3/3) Accurately ripped
06 [bccdc0bb|3e32d1f8] (0+3/3) Accurately ripped
07 [b358cc21|5a08c68a] (0+3/3) Accurately ripped
08 [bf327189|70911b97] (0+3/3) Accurately ripped
09 [09ef4231|5a465615] (0+3/3) Accurately ripped
10 [d8351607|34ef6456] (0+3/3) Accurately ripped
11 [5bf5a157|567cd045] (0+3/3) Accurately ripped
12 [edb6a163|eb8cbdc5] (0+3/3) Accurately ripped
13 [eff366a8|eefccfe7] (0+3/3) Accurately ripped
14 [1f82f4ab|7021899b] (0+3/3) Accurately ripped
15 [a2f27143|9d202ebd] (0+3/3) Accurately ripped
16 [c55a4d90|15072061] (0+3/3) Accurately ripped
17 [a0985a68|5125f1c0] (0+3/3) Accurately ripped
18 [de58bd19|05a86a4d] (0+3/3) Accurately ripped
19 [a35cec34|ab6912db] (0+3/3) Accurately ripped
20 [8fb842bb|7de8b476] (0+3/3) Accurately ripped
21 [8792d04e|88ceadab] (0+3/3) Accurately ripped

Track Peak [ CRC32 ] [W/O NULL] [ LOG ]
– 98,5 [46277F9C] [C610B487]
01 85,3 [2A719D24] [FF256C0A] CRC32
02 80,3 [2B23DB79] [9F73979F] CRC32
03 63,0 [46A3F15C] [85604C1B] CRC32
04 79,8 [35CD382C] [EEDEA2A0] CRC32
05 82,8 [6851E22D] [349A62BA] CRC32
06 88,3 [28CA16EE] [5D78B7F6] CRC32
07 98,5 [585800F3] [F94A9FA6] CRC32
08 93,3 [34899FF6] [A4BC7E16] CRC32
09 65,1 [23CCC855] [53A36DA4] CRC32
10 86,6 [79530370] [CA42E530] CRC32
11 78,5 [92CDE970] [1A6C3FD5] CRC32
12 82,4 [35EE526F] [797D45AC] CRC32
13 54,7 [F9274363] [FFD95989] CRC32
14 73,5 [C39672EF] [04925CAF] CRC32
15 83,5 [25C0B005] [CA7580E9] CRC32
16 65,5 [33E7E060] [AF2EED94] CRC32
17 75,9 [A7BE929D] [4C27D34B] CRC32
18 77,7 [28FE4EB1] [8DB7F9FE] CRC32
19 56,1 [19B1BFEE] [48EE406A] CRC32
20 85,1 [4E3DBECC] [8FB3E8A2] CRC32
21 75,3 [DF7215AF] [CFBF1B36] CRC32

Thanks to the original releaser

See also: