Tags
Language
Tags

Django Reinhardt - Swing From Paris [Recorded 1935-1939] (2000)

Posted By: gribovar
Django Reinhardt - Swing From Paris [Recorded 1935-1939] (2000)

Django Reinhardt - Swing From Paris [Recorded 1935-1939] (2000)
EAC Rip | FLAC (tracks+.cue+log) - 178 MB | MP3 CBR 320 kbps (LAME 3.93) - 106 MB | Covers - 28 MB
Genre: Gypsy Jazz, Swing | RAR 3% Rec. | Label: Universal Music (159 853-2)

Inaugurated back in autumn 2000, the Jazz in Paris collection has marked the past decade as a reference in the French capital's jazz recordings. Thanks to the unrivalled quality of the albums it features, the series provides a complete panorama of Parisian jazz from the 30s to the 70s.
Tracklist:
01. St. Louis Blues
02. Limehouse Blues
03. I Got Rhythm
04. I've Found A New Baby
05. It Was So Beautiful
06. China Boy
07. Moonglow
08. It Don't Mean A Thing
09. Billets Doux
10. Swing From Paris
11. Them There Eyes
12. Three Little Words
13. Appel Direct
14. Hungaria
15. Hungaria II

Total time: 44:59

Exact Audio Copy V1.0 beta 3 from 29. August 2011

EAC extraction logfile from 3. April 2013, 16:52

Django Reinhardt / Swing From Paris

Used drive : hp BD RW BD-5750H Adapter: 0 ID: 1

Read mode : Secure
Utilize accurate stream : Yes
Defeat audio cache : Yes
Make use of C2 pointers : No

Read offset correction : 48
Overread into Lead-In and Lead-Out : No
Fill up missing offset samples with silence : Yes
Delete leading and trailing silent blocks : No
Null samples used in CRC calculations : Yes
Used interface : Native Win32 interface for Win NT & 2000
Gap handling : Appended to previous track

Used output format : User Defined Encoder
Selected bitrate : 128 kBit/s
Quality : High
Add ID3 tag : No
Command line compressor : C:\Program Files (x86)\Audio\Exact Audio Copy\Flac\flac.exe
Additional command line options : -8 -V -T "ARTIST=%artist%" -T "TITLE=%title%" -T "ALBUM=%albumtitle%" -T "DATE=%year%" -T "TRACKNUMBER=%tracknr%" -T "TOTALTRACKS=%numtracks%" -T "GENRE=%genre%" -T "ALBUMARTIST=%albumartist%" -T "ALBUM ARTIST=%albumartist%" -T "COMMENT=EAC Secure Mode, Test & Copy, AccurateRip, FLAC -8" %source%


TOC of the extracted CD

Track | Start | Length | Start sector | End sector
––––––––––––––––––––––––––––-
1 | 0:00.00 | 3:31.15 | 0 | 15839
2 | 3:31.15 | 3:11.58 | 15840 | 30222
3 | 6:42.73 | 2:58.57 | 30223 | 43629
4 | 9:41.55 | 3:06.42 | 43630 | 57621
5 | 12:48.22 | 2:53.55 | 57622 | 70651
6 | 15:42.02 | 3:02.44 | 70652 | 84345
7 | 18:44.46 | 3:03.36 | 84346 | 98106
8 | 21:48.07 | 3:05.15 | 98107 | 111996
9 | 24:53.22 | 2:56.41 | 111997 | 125237
10 | 27:49.63 | 2:33.68 | 125238 | 136780
11 | 30:23.56 | 3:03.51 | 136781 | 150556
12 | 33:27.32 | 2:54.62 | 150557 | 163668
13 | 36:22.19 | 3:02.18 | 163669 | 177336
14 | 39:24.37 | 2:49.06 | 177337 | 190017
15 | 42:13.43 | 2:46.03 | 190018 | 202470


Track 1

Filename H:\WHAT.CD\Various Artists - Jazz in Paris, Box Set [1-76] [2001]\Jazz in Paris, Vol. 012 - Django Reinhardt - Swing from Paris (1935-38)\01 - St. Louis Blues.wav

Pre-gap length 0:00:02.00

Peak level 95.3 %
Extraction speed 10.0 X
Track quality 100.0 %
Test CRC 7D34046A
Copy CRC 7D34046A
Cannot be verified as accurate (confidence 13) [DFF0B310], AccurateRip returned [B30DAB50] (AR v2)
Copy OK

Track 2

Filename H:\WHAT.CD\Various Artists - Jazz in Paris, Box Set [1-76] [2001]\Jazz in Paris, Vol. 012 - Django Reinhardt - Swing from Paris (1935-38)\02 - Limehouse Blues.wav

Pre-gap length 0:00:01.45

Peak level 85.6 %
Extraction speed 10.8 X
Track quality 100.0 %
Test CRC 3E321BE1
Copy CRC 3E321BE1
Cannot be verified as accurate (confidence 13) [D0DCB549], AccurateRip returned [F8159830] (AR v2)
Copy OK

Track 3

Filename H:\WHAT.CD\Various Artists - Jazz in Paris, Box Set [1-76] [2001]\Jazz in Paris, Vol. 012 - Django Reinhardt - Swing from Paris (1935-38)\03 - I Got Rhythm.wav

Pre-gap length 0:00:01.45

Peak level 90.1 %
Extraction speed 11.4 X
Track quality 100.0 %
Test CRC 73CBF6E3
Copy CRC 73CBF6E3
Cannot be verified as accurate (confidence 13) [446395D6], AccurateRip returned [A1F4B5AC] (AR v2)
Copy OK

Track 4

Filename H:\WHAT.CD\Various Artists - Jazz in Paris, Box Set [1-76] [2001]\Jazz in Paris, Vol. 012 - Django Reinhardt - Swing from Paris (1935-38)\04 - I've Found a New Baby.wav

Pre-gap length 0:00:01.44

Peak level 79.8 %
Extraction speed 11.6 X
Track quality 99.9 %
Test CRC C544CB5E
Copy CRC C544CB5E
Cannot be verified as accurate (confidence 13) [53FCC809], AccurateRip returned [36FB84D7] (AR v2)
Copy OK

Track 5

Filename H:\WHAT.CD\Various Artists - Jazz in Paris, Box Set [1-76] [2001]\Jazz in Paris, Vol. 012 - Django Reinhardt - Swing from Paris (1935-38)\05 - It Was So Beautiful.wav

Pre-gap length 0:00:01.45

Peak level 93.5 %
Extraction speed 12.7 X
Track quality 100.0 %
Test CRC 36BD7203
Copy CRC 36BD7203
Cannot be verified as accurate (confidence 13) [705C32CD], AccurateRip returned [D9BB5443] (AR v2)
Copy OK

Track 6

Filename H:\WHAT.CD\Various Artists - Jazz in Paris, Box Set [1-76] [2001]\Jazz in Paris, Vol. 012 - Django Reinhardt - Swing from Paris (1935-38)\06 - China Boy.wav

Pre-gap length 0:00:01.45

Peak level 91.9 %
Extraction speed 11.9 X
Track quality 99.9 %
Test CRC 6C21F67C
Copy CRC 6C21F67C
Cannot be verified as accurate (confidence 13) [22D9800C], AccurateRip returned [D0E9E768] (AR v2)
Copy OK

Track 7

Filename H:\WHAT.CD\Various Artists - Jazz in Paris, Box Set [1-76] [2001]\Jazz in Paris, Vol. 012 - Django Reinhardt - Swing from Paris (1935-38)\07 - Moonglow.wav

Pre-gap length 0:00:01.45

Peak level 96.5 %
Extraction speed 13.7 X
Track quality 100.0 %
Test CRC 82F5C91E
Copy CRC 82F5C91E
Cannot be verified as accurate (confidence 13) [B1695E52], AccurateRip returned [80903E06] (AR v2)
Copy OK

Track 8

Filename H:\WHAT.CD\Various Artists - Jazz in Paris, Box Set [1-76] [2001]\Jazz in Paris, Vol. 012 - Django Reinhardt - Swing from Paris (1935-38)\08 - It Don't Mean a Thing.wav

Pre-gap length 0:00:01.44

Peak level 88.0 %
Extraction speed 14.3 X
Track quality 100.0 %
Test CRC 0EF8454D
Copy CRC 0EF8454D
Cannot be verified as accurate (confidence 13) [FAB96C28], AccurateRip returned [778E3D6A] (AR v2)
Copy OK

Track 9

Filename H:\WHAT.CD\Various Artists - Jazz in Paris, Box Set [1-76] [2001]\Jazz in Paris, Vol. 012 - Django Reinhardt - Swing from Paris (1935-38)\09 - Billets doux.wav

Pre-gap length 0:00:01.45

Peak level 72.9 %
Extraction speed 14.7 X
Track quality 100.0 %
Test CRC 7464DD13
Copy CRC 7464DD13
Cannot be verified as accurate (confidence 13) [B237D4B4], AccurateRip returned [B650CD21] (AR v2)
Copy OK

Track 10

Filename H:\WHAT.CD\Various Artists - Jazz in Paris, Box Set [1-76] [2001]\Jazz in Paris, Vol. 012 - Django Reinhardt - Swing from Paris (1935-38)\10 - Swing From Paris.wav

Pre-gap length 0:00:01.45

Peak level 92.0 %
Extraction speed 14.9 X
Track quality 100.0 %
Test CRC 75A3DD88
Copy CRC 75A3DD88
Cannot be verified as accurate (confidence 13) [3B954F07], AccurateRip returned [EEC747A9] (AR v2)
Copy OK

Track 11

Filename H:\WHAT.CD\Various Artists - Jazz in Paris, Box Set [1-76] [2001]\Jazz in Paris, Vol. 012 - Django Reinhardt - Swing from Paris (1935-38)\11 - Them There Eyes.wav

Pre-gap length 0:00:01.45

Peak level 89.0 %
Extraction speed 15.6 X
Track quality 100.0 %
Test CRC 0902F0DD
Copy CRC 0902F0DD
Cannot be verified as accurate (confidence 13) [60BBFD87], AccurateRip returned [D8189CDF] (AR v2)
Copy OK

Track 12

Filename H:\WHAT.CD\Various Artists - Jazz in Paris, Box Set [1-76] [2001]\Jazz in Paris, Vol. 012 - Django Reinhardt - Swing from Paris (1935-38)\12 - Three Little Words.wav

Pre-gap length 0:00:01.45

Peak level 68.3 %
Extraction speed 15.8 X
Track quality 100.0 %
Test CRC C3CE885F
Copy CRC C3CE885F
Cannot be verified as accurate (confidence 13) [D77C5E6B], AccurateRip returned [7064A3A4] (AR v2)
Copy OK

Track 13

Filename H:\WHAT.CD\Various Artists - Jazz in Paris, Box Set [1-76] [2001]\Jazz in Paris, Vol. 012 - Django Reinhardt - Swing from Paris (1935-38)\13 - Appel direct.wav

Pre-gap length 0:00:01.45

Peak level 63.1 %
Extraction speed 14.3 X
Track quality 99.9 %
Test CRC B1061063
Copy CRC B1061063
Cannot be verified as accurate (confidence 13) [D6B7370B], AccurateRip returned [E667D28B] (AR v2)
Copy OK

Track 14

Filename H:\WHAT.CD\Various Artists - Jazz in Paris, Box Set [1-76] [2001]\Jazz in Paris, Vol. 012 - Django Reinhardt - Swing from Paris (1935-38)\14 - Hungaria.wav

Pre-gap length 0:00:01.45

Peak level 61.0 %
Extraction speed 16.3 X
Track quality 100.0 %
Test CRC 87C9030C
Copy CRC 87C9030C
Cannot be verified as accurate (confidence 13) [4F39B82C], AccurateRip returned [339A63B5] (AR v2)
Copy OK

Track 15

Filename H:\WHAT.CD\Various Artists - Jazz in Paris, Box Set [1-76] [2001]\Jazz in Paris, Vol. 012 - Django Reinhardt - Swing from Paris (1935-38)\15 - Hungaria.wav

Pre-gap length 0:00:01.44

Peak level 69.0 %
Extraction speed 17.1 X
Track quality 100.0 %
Test CRC 52E2B483
Copy CRC 52E2B483
Cannot be verified as accurate (confidence 13) [BA22B065], AccurateRip returned [BC9F8BB8] (AR v2)
Copy OK


No tracks could be verified as accurate
You may have a different pressing from the one(s) in the database

No errors occurred

End of status report

==== Log checksum 498A4DE684AB810AC68849D78A7B35F99143FDC14BEA14DF67DDF89E2BF89694 ====

[CUETools log; Date: 10.03.2020 23:36:04; Version: 2.1.4]
[CTDB TOCID: ZE1joCGOFV1ezHM0UwQq03NKev8-] found.
Track | CTDB Status
1 | (68/72) Accurately ripped
2 | (68/72) Accurately ripped
3 | (69/72) Accurately ripped
4 | (69/72) Accurately ripped
5 | (69/72) Accurately ripped
6 | (69/72) Accurately ripped
7 | (69/72) Accurately ripped
8 | (69/72) Accurately ripped
9 | (69/72) Accurately ripped
10 | (69/72) Accurately ripped
11 | (67/72) Accurately ripped
12 | (69/72) Accurately ripped
13 | (69/72) Accurately ripped
14 | (69/72) Accurately ripped
15 | (69/72) Accurately ripped
[AccurateRip ID: 00194e78-011cab13-ba0a8b0f] found.
Track [ CRC | V2 ] Status
01 [fe014c46|dff0b310] (00+00/46) No match
02 [0ad566e2|d0dcb549] (00+00/47) No match
03 [180236b8|446395d6] (00+00/46) No match
04 [d11a2203|53fcc809] (00+00/46) No match
05 [f344c1fd|705c32cd] (00+00/46) No match
06 [d189af1a|22d9800c] (00+00/46) No match
07 [c58897a2|b1695e52] (00+00/46) No match
08 [48a65aba|fab96c28] (00+00/46) No match
09 [932a16b9|b237d4b4] (00+00/46) No match
10 [0ee439d1|3b954f07] (00+00/46) No match
11 [4a6f66a1|60bbfd87] (00+00/46) No match
12 [58a06790|d77c5e6b] (00+00/46) No match
13 [310aaba1|d6b7370b] (00+00/45) No match
14 [b011341d|4f39b82c] (00+00/46) No match
15 [c84d7aee|ba22b065] (00+00/45) No match
Offsetted by 635:
01 [f0483f2f] (04/46) Accurately ripped
02 [2e8e6b95] (05/47) Accurately ripped
03 [dbb475ba] (04/46) Accurately ripped
04 [1abc29b5] (04/46) Accurately ripped
05 [d5559cdc] (04/46) Accurately ripped
06 [0a427d4d] (04/46) Accurately ripped
07 [ccc36cbc] (04/46) Accurately ripped
08 [c92a3ef2] (04/46) Accurately ripped
09 [1f76e5fd] (04/46) Accurately ripped
10 [c66d172d] (04/46) Accurately ripped
11 [3bae572c] (04/46) Accurately ripped
12 [a68df862] (04/46) Accurately ripped
13 [a587413a] (04/45) Accurately ripped
14 [f92653d9] (04/46) Accurately ripped
15 [13341837] (03/45) Accurately ripped
Offsetted by 670:
01 [b30dab50] (13/46) Accurately ripped
02 [f8159830] (13/47) Accurately ripped
03 [a1f4b5ac] (13/46) Accurately ripped
04 [36fb84d7] (13/46) Accurately ripped
05 [d9bb5443] (13/46) Accurately ripped
06 [d0e9e768] (13/46) Accurately ripped
07 [80903e06] (13/46) Accurately ripped
08 [778e3d6a] (13/46) Accurately ripped
09 [b650cd21] (13/46) Accurately ripped
10 [eec747a9] (13/46) Accurately ripped
11 [d8189cdf] (13/46) Accurately ripped
12 [7064a3a4] (13/46) Accurately ripped
13 [e667d28b] (13/45) Accurately ripped
14 [339a63b5] (13/46) Accurately ripped
15 [bc9f8bb8] (13/45) Accurately ripped
Offsetted by -6:
01 [7d87aec4] (00/46) No match (V2 was not tested)
02 [7a9257ec] (00/47) No match (V2 was not tested)
03 [4dcb5054] (00/46) No match (V2 was not tested)
04 [4149c93f] (00/46) No match (V2 was not tested)
05 [42f8ce6f] (00/46) No match (V2 was not tested)
06 [e9ff4524] (00/46) No match (V2 was not tested)
07 [1bbd408e] (00/46) No match (V2 was not tested)
08 [cbab27ca] (00/46) No match (V2 was not tested)
09 [71fd6b71] (00/46) No match (V2 was not tested)
10 [cd75add9] (00/46) No match (V2 was not tested)
11 [c1e8277b] (00/46) No match (V2 was not tested)
12 [6939c68c] (00/46) No match (V2 was not tested)
13 [1e9b07bf] (00/45) No match (V2 was not tested)
14 [7a293165] (00/46) No match (V2 was not tested)
15 [86b016ac] (00/45) No match (V2 was not tested)
Offsetted by 6:
01 [7e7ae9c8] (00/46) No match (V2 was not tested)
02 [9b1875d8] (00/47) No match (V2 was not tested)
03 [e2391d1c] (00/46) No match (V2 was not tested)
04 [60ea7ac7] (00/46) No match (V2 was not tested)
05 [a390b58b] (00/46) No match (V2 was not tested)
06 [b9141910] (00/46) No match (V2 was not tested)
07 [6f53eeb6] (00/46) No match (V2 was not tested)
08 [c5a18daa] (00/46) No match (V2 was not tested)
09 [b456c201] (00/46) No match (V2 was not tested)
10 [5052c5c9] (00/46) No match (V2 was not tested)
11 [d2f6a5c7] (00/46) No match (V2 was not tested)
12 [48070894] (00/46) No match (V2 was not tested)
13 [437a4f83] (00/45) No match (V2 was not tested)
14 [e5f936d5] (00/46) No match (V2 was not tested)
15 [09eadf30] (00/45) No match (V2 was not tested)

Track Peak [ CRC32 ] [W/O NULL] [ LOG ]
– 96,5 [4738144C] [840552DA]
01 95,2 [7D34046A] [5BC03DB7] CRC32
02 85,6 [3E321BE1] [7A3E0F17] CRC32
03 90,1 [73CBF6E3] [330BAF44] CRC32
04 79,8 [C544CB5E] [564E6B9E] CRC32
05 93,5 [36BD7203] [53574C44] CRC32
06 91,9 [6C21F67C] [D224403C] CRC32
07 96,5 [82F5C91E] [3BABC979] CRC32
08 88,0 [0EF8454D] [A8CDD1D1] CRC32
09 72,9 [7464DD13] [ED30F224] CRC32
10 92,0 [75A3DD88] [722BC57B] CRC32
11 89,0 [0902F0DD] [BD4BDC10] CRC32
12 68,3 [C3CE885F] [F4F7B6D4] CRC32
13 63,1 [B1061063] [0F168E78] CRC32
14 61,0 [87C9030C] [5C31A47F] CRC32
15 69,0 [52E2B483] [BE2FB26F] CRC32

Thanks to the original releaser

See also: