Subcategories

Docker's Guild - The Mystic Technocracy - Season 1: The Age Of Ignorance (2012)

Posted By: popsakov
Docker's Guild - The Mystic Technocracy - Season 1: The Age Of Ignorance (2012)

Docker's Guild - The Mystic Technocracy - Season 1: The Age Of Ignorance (2012)
EAC Rip | FLAC (Img) + Cue + Log ~ 631 Mb | MP3 CBR320 ~ 192 Mb
Full Scans ~ 119 Mb | 01:19:25 | RAR 5% Recovery
Progressive Rock | Lion Music #LMC325

Docker's Guild is a massive prog metal space opera superproject which will unfold through 5 “seasons” and 9 albums and is masterminded by producer, songwriter, keyboardist and singer Douglas R. Docker. The first album, called “The Mystic Technocracy - Season I: The Age of Ignorance” (2012), saw the participation of acclaimed worldwide musicians such as Gregg Bissonette, Tony Franklin, Guthrie Govan, Jeff Watson, John Payne, Göran Edman, Amanda Somerville, Tony Mills and many others. It collected an impressive amount of awards and reviews, gaining widespread international accolades.

Docker's Guild’s new album is titled “The Heisenberg Diaries – Book A: Sounds of Future Past”. It is part of a series of 4 transitional albums placed between the 5 main “seasons” and which focus on an aspect of the storyline’s main character, Dr. Jack Heisenberg. This particular installment focuses on Jack’s youth and love of science fiction, in fact the album contains exclusively vintage science fiction soundtracks reworked in the typical Docker’s Guild sound. “Book A” will be followed by “The Mystic Technocracy - Season II: The Age of Entropy”, already in development. Another unique feature of “Book A” is its all-female cast, which makes it, as far as we know, the first all-female metal opera ever recorded.
Docker's Guild - The Mystic Technocracy - Season 1: The Age Of Ignorance (2012)


***************

Docker's Guild - The Mystic Technocracy - Season 1: The Age Of Ignorance (2012)

Track List:

01. Trailer - A Matter Of Energy [02:05]
02. Pilot Episode - The Mystic Technocracy [06:44]
03. Episode 1.1 - Darwin's Tears [08:15]
Episode 1.2-1.5 - Twilight Of The Gods
04. A. Norse Cosmogony (Part 1) [04:44]
05. B. Norse Cosmogony (Part 2) [02:49]
06. C. Judeo-Christian Cosmogony [06:18]
07. D. The Divine Comedy [06:09]
08. Episode 1.6 - Legion Of Aliens [04:55]
09. Episode 1.7 - Loving The Alien [07:13]
10. Episode 1.8 - The Gem Of Love [07:02]
Episode 1.9-1.11 - The Secret Of DNA
11. A. The Secret Of DNA Part 1 [02:07]
12. B. Purple Orb [04:54]
13. D. The Secret Of DNA Part 2 [04:05]
14. Episode 1.12 - Prophecy [05:12]
15. Episode 1.13 - Black Swans [07:01]

Personnel:

Douglas R. Docker (Biloxi, Area 51) - keyboards, lead vocals (track 3), backing vocals, spoken voice.
Guthrie Govan (Asia) - guitars
Jeff Watson (Night Ranger, Mother's Army) - rhythm and lead guitar, 12-string guitar
Gregg Bissonette (David Lee Roth, Joe Satriani, Steve Lukather) - drums
Magnus Jacobson (Miss Behavior) - drums
Tony Franklin (Blue Murder, Whitesnake, The Firm) - bass
Donald D. Docker - alto and tenor sax, clarinet, spoken voice
John Payne (Asia) - lead and backing vocals (tracks 2,6)
Göran Edman (Yngwie Malmsteen, Karmakanic) - lead and backing vocals (tracks 4-7,15), spoken voice (track 4)
Tony Mills (Shy, TNT) - lead and backing vocals (tracks 8, 10-13)
Amanda Somerville (Trillium, Avantasia) - lead and backing vocals (track 15)

Additional spoken voices:
Silvana Momigliano / Touria Nouri / Andrea Rampa / Janthana Rodjakkhen / Davide Ronfetto

Exact Audio Copy V1.0 beta 3 from 29. August 2011

EAC extraction logfile from 2. August 2012, 22:08

The Mystic Technocracy Docker's Guild / Season 1: The Age Of Ignorance

Used drive : SlimtypeDVD A DS8A5SH Adapter: 0 ID: 1

Read mode : Secure
Utilize accurate stream : Yes
Defeat audio cache : Yes
Make use of C2 pointers : No

Read offset correction : 6
Overread into Lead-In and Lead-Out : No
Fill up missing offset samples with silence : Yes
Delete leading and trailing silent blocks : No
Null samples used in CRC calculations : Yes
Used interface : Native Win32 interface for Win NT & 2000

Used output format : User Defined Encoder
Selected bitrate : 320 kBit/s
Quality : High
Add ID3 tag : No
Command line compressor : C:\Program Files (x86)\Exact Audio Copy\Flac\flac.exe
Additional command line options : -V -8 -T "Date=%year%" -T "Genre=%genre%" %source%


TOC of the extracted CD

Track | Start | Length | Start sector | End sector
––––––––––––––––––––––––––––-
1 | 0:00.00 | 2:04.50 | 0 | 9349
2 | 2:04.50 | 6:43.38 | 9350 | 39612
3 | 8:48.13 | 8:14.02 | 39613 | 76664
4 | 17:02.15 | 4:43.26 | 76665 | 97915
5 | 21:45.41 | 2:48.29 | 97916 | 110544
6 | 24:33.70 | 6:17.14 | 110545 | 138833
7 | 30:51.09 | 6:08.72 | 138834 | 166505
8 | 37:00.06 | 4:54.29 | 166506 | 188584
9 | 41:54.35 | 7:12.50 | 188585 | 221034
10 | 49:07.10 | 7:01.32 | 221035 | 252641
11 | 56:08.42 | 2:06.30 | 252642 | 262121
12 | 58:14.72 | 4:53.45 | 262122 | 284141
13 | 63:08.42 | 4:04.33 | 284142 | 302474
14 | 67:13.00 | 5:11.08 | 302475 | 325807
15 | 72:24.08 | 7:00.39 | 325808 | 357346


Range status and errors

Selected range

Filename D:\My Music\The Mystic Technocracy Docker's Guild - 2012 Season 1-The Age Of Ignorance\The Mystic Technocracy Docker's Guild - Season 1- The Age Of Ignorance.wav

Peak level 99.9 %
Extraction speed 5.2 X
Range quality 100.0 %
Test CRC 0B3377A1
Copy CRC 0B3377A1
Copy OK

No errors occurred


AccurateRip summary

Track 1 not present in database
Track 2 not present in database
Track 3 not present in database
Track 4 not present in database
Track 5 not present in database
Track 6 not present in database
Track 7 not present in database
Track 8 not present in database
Track 9 not present in database
Track 10 not present in database
Track 11 not present in database
Track 12 not present in database
Track 13 not present in database
Track 14 not present in database
Track 15 not present in database

None of the tracks are present in the AccurateRip database

End of status report

==== Log checksum F5BC5487AF1368D57389995F444C08807A115E8577EE532E5DB72F0A36E09080 ====

[CUETools log; Date: 07.07.2016 21:20:12; Version: 2.1.5]
[CTDB TOCID: 2u3N25gKC4VpoCVJi1S2oY3iLFo-] found.
Track | CTDB Status
1 | (5/5) Accurately ripped
2 | (5/5) Accurately ripped
3 | (5/5) Accurately ripped
4 | (5/5) Accurately ripped
5 | (5/5) Accurately ripped
6 | (5/5) Accurately ripped
7 | (5/5) Accurately ripped
8 | (5/5) Accurately ripped
9 | (5/5) Accurately ripped
10 | (5/5) Accurately ripped
11 | (5/5) Accurately ripped
12 | (5/5) Accurately ripped
13 | (5/5) Accurately ripped
14 | (5/5) Accurately ripped
15 | (5/5) Accurately ripped
[AccurateRip ID: 002b3cb1-01ec5805-c8129c0f] found.
Track [ CRC | V2 ] Status
01 [c355958d|41828df0] (0+5/5) Accurately ripped
02 [06df9ed1|551967c4] (0+5/5) Accurately ripped
03 [80f2dcac|cf99811e] (0+5/5) Accurately ripped
04 [e551818e|e09bc89e] (0+5/5) Accurately ripped
05 [cd4e6beb|014ca565] (0+5/5) Accurately ripped
06 [0e3f7b63|ba0a164c] (0+5/5) Accurately ripped
07 [b0c88b25|9b1e68a6] (0+5/5) Accurately ripped
08 [3d294f1a|faaa39c0] (0+5/5) Accurately ripped
09 [230c52d2|1d9dfb36] (0+5/5) Accurately ripped
10 [d9cce8b7|4752ea06] (0+5/5) Accurately ripped
11 [1e11651a|05ca1e8b] (0+5/5) Accurately ripped
12 [ca82aa2c|b640759e] (0+5/5) Accurately ripped
13 [ac45d1c8|52de1df3] (0+5/5) Accurately ripped
14 [652a43a5|af680ef2] (0+5/5) Accurately ripped
15 [cefb2ec0|028cf76b] (0+5/5) Accurately ripped

Track Peak [ CRC32 ] [W/O NULL] [ LOG ]
– 99,9 [0B3377A1] [8E106CBD] CRC32
01 99,9 [C894B321] [5CD67C0A]
02 99,9 [A82AD818] [C0AE1C0D]
03 99,9 [F3F891B8] [8190624C]
04 99,9 [DCCFAF0B] [5E3CBCFB]
05 99,9 [CC8B6B1A] [3EFE2E70]
06 99,9 [BB84F6E2] [5F61741D]
07 99,9 [2B8E3D46] [AE53F467]
08 99,9 [C6F0078F] [8E7FE2C8]
09 99,9 [17ECA0E4] [7748AD02]
10 99,9 [AE2AAA99] [706501E4]
11 99,9 [AAA51A8A] [CEA80D9B]
12 99,9 [D9D7E52A] [6DE116FA]
13 99,9 [35C707C7] [3F56D679]
14 99,9 [70C35BCE] [46B9DEFE]
15 99,9 [24BBBB72] [1C45A8F7]

Docker's Guild - The Mystic Technocracy - Season 1: The Age Of Ignorance (2012)


All thanks go to kolushew

>>> My Blog <<<

DOWNLOAD: