Tags
Language
Tags

Don Ellis - Shock Treatment (1968) [Reissue 2001] (Re-up)

Posted By: gribovar
Don Ellis - Shock Treatment (1968) [Reissue 2001] (Re-up)

Don Ellis Orchestra - Shock Treatment (1968) [Reissue 2001]
EAC Rip | FLAC (tracks+.cue+log) - 396 MB | MP3 CBR 320 kbps (LAME 3.93) - 157 MB | Covers - 60 MB
Genre: Jazz, Big Band | RAR 3% Rec. | Label: Koch Jazz (KOC CD-8590)

Don Ellis was such a talented trumpeter, composer, and organizer that everything he recorded as a leader has at least some unusual moments worth exploring. His big bands were characterized by big brassy arrangements, odd meters that somehow always swung, lots of trumpet solos by Ellis, and an often visceral excitement. Although not equal to his best records such as Electric Bath, this late recording of Ellis' band is filled with all these traits, and thus exudes lots of excitement and electricity. At this stage in his career, the trumpeter seemed to be searching for a breakthrough, perhaps on a popular level. This manifests itself with occasional Age of Aquarius vocals and spacy harmonies that appeal to a broad audience. Even the more commercial tracks delight with unconventional characteristics, despite their somewhat compromising nature. There is plenty of the "old" Ellis in full view, however, as the band rocks with its well-known and only half in jest "Beat Me Daddy, Seven to the Bar." Ellis was an emotionally powerful and technically proficient player, something that is sometimes overlooked; his feature on "I Remember Clifford" is a minor tour de force. The trumpeter wrote regularly for his band, but also attracted some outstanding composers, such as Hank Levy and Howlett Smith. While the soloists (other than Ellis, of course) were not always of the caliber of some of the competition, they were at a somewhat disadvantage in that they had to learn to play in strange time signatures - not an easy task.
Tracklist:
01. A New Kind Of Country
02. Night City
03. Homecoming
04. Mercy Maybe Mercy
05. Zim
06. Opus 5
07. Star Children
08. Beat Me Daddy, Seven To The Bar
09. Milo's Theme
10. Seven Up
11. The Tihai
12. Zim (alt. take)
13. I Remember Clifford
14. Rasty

Total time: 01:06:43

Exact Audio Copy V0.99 prebeta 4 from 23. January 2008

EAC extraction logfile from 11. October 2009, 9:33

Don Ellis Orchestra / Shock Treatment

Used drive : HL-DT-STDVD-RAM GH22NP20 Adapter: 0 ID: 0

Read mode : Secure
Utilize accurate stream : Yes
Defeat audio cache : Yes
Make use of C2 pointers : No

Read offset correction : 102
Overread into Lead-In and Lead-Out : No
Fill up missing offset samples with silence : Yes
Delete leading and trailing silent blocks : No
Null samples used in CRC calculations : Yes
Used interface : Installed external ASPI interface
Gap handling : Appended to previous track

Used output format : User Defined Encoder
Selected bitrate : 320 kBit/s
Quality : High
Add ID3 tag : No
Command line compressor : C:\Program Files\Exact Audio Copy\Flac\flac.exe
Additional command line options : -V -8 -T "artist=%a" -T "title=%t" -T "album=%g" -T "date=%y" -T "tracknumber=%n" -T "genre=%m" %s


TOC of the extracted CD

Track | Start | Length | Start sector | End sector
––––––––––––––––––––––––––––-
1 | 0:00.00 | 4:15.06 | 0 | 19130
2 | 4:15.06 | 3:00.50 | 19131 | 32680
3 | 7:15.56 | 3:06.46 | 32681 | 46676
4 | 10:22.27 | 3:24.70 | 46677 | 62046
5 | 13:47.22 | 4:03.65 | 62047 | 80336
6 | 17:51.12 | 9:23.56 | 80337 | 122617
7 | 27:14.68 | 3:25.62 | 122618 | 138054
8 | 30:40.55 | 6:16.58 | 138055 | 166312
9 | 36:57.38 | 4:28.14 | 166313 | 186426
10 | 41:25.52 | 4:03.45 | 186427 | 204696
11 | 45:29.22 | 8:48.27 | 204697 | 244323
12 | 54:17.49 | 4:04.03 | 244324 | 262626
13 | 58:21.52 | 5:29.09 | 262627 | 287310
14 | 63:50.61 | 2:52.37 | 287311 | 300247


Track 1

Filename D:\music\Musicgate's rips\Don Ellis Orchestra - Shock Treatment (1968) {2001, Koch KOC CD -8590}\01 - A New Kind Of Country.wav

Pre-gap length 0:00:02.00

Peak level 73.1 %
Track quality 100.0 %
Test CRC 0EF61F22
Copy CRC 0EF61F22
Accurately ripped (confidence 1) [5D765099]
Copy OK

Track 2

Filename D:\music\Musicgate's rips\Don Ellis Orchestra - Shock Treatment (1968) {2001, Koch KOC CD -8590}\02 - Night City.wav

Pre-gap length 0:00:04.22

Peak level 66.8 %
Track quality 99.9 %
Test CRC C5749034
Copy CRC C5749034
Accurately ripped (confidence 1) [C8523252]
Copy OK

Track 3

Filename D:\music\Musicgate's rips\Don Ellis Orchestra - Shock Treatment (1968) {2001, Koch KOC CD -8590}\03 - Homecoming.wav

Pre-gap length 0:00:04.22

Peak level 63.2 %
Track quality 99.9 %
Test CRC C165448F
Copy CRC C165448F
Accurately ripped (confidence 1) [C7989997]
Copy OK

Track 4

Filename D:\music\Musicgate's rips\Don Ellis Orchestra - Shock Treatment (1968) {2001, Koch KOC CD -8590}\04 - Mercy Maybe Mercy.wav

Pre-gap length 0:00:04.25

Peak level 69.0 %
Track quality 100.0 %
Test CRC F5CCE4EB
Copy CRC F5CCE4EB
Accurately ripped (confidence 1) [B0745AFF]
Copy OK

Track 5

Filename D:\music\Musicgate's rips\Don Ellis Orchestra - Shock Treatment (1968) {2001, Koch KOC CD -8590}\05 - Zim.wav

Pre-gap length 0:00:04.26

Peak level 40.2 %
Track quality 100.0 %
Test CRC 238765A6
Copy CRC 238765A6
Accurately ripped (confidence 1) [6FBB866B]
Copy OK

Track 6

Filename D:\music\Musicgate's rips\Don Ellis Orchestra - Shock Treatment (1968) {2001, Koch KOC CD -8590}\06 - Opus 5.wav

Pre-gap length 0:00:03.97

Peak level 67.8 %
Track quality 100.0 %
Test CRC 09B19745
Copy CRC 09B19745
Accurately ripped (confidence 1) [4EAE25AF]
Copy OK

Track 7

Filename D:\music\Musicgate's rips\Don Ellis Orchestra - Shock Treatment (1968) {2001, Koch KOC CD -8590}\07 - Star Children.wav

Pre-gap length 0:00:04.20

Peak level 68.4 %
Track quality 100.0 %
Test CRC C274FE87
Copy CRC C274FE87
Accurately ripped (confidence 1) [BC534024]
Copy OK

Track 8

Filename D:\music\Musicgate's rips\Don Ellis Orchestra - Shock Treatment (1968) {2001, Koch KOC CD -8590}\08 - Beat Me Daddy, Seven To The Bar.wav

Pre-gap length 0:00:04.44

Peak level 78.3 %
Track quality 100.0 %
Test CRC 84CE9919
Copy CRC 84CE9919
Accurately ripped (confidence 1) [95AC4828]
Copy OK

Track 9

Filename D:\music\Musicgate's rips\Don Ellis Orchestra - Shock Treatment (1968) {2001, Koch KOC CD -8590}\09 - Milo's Theme.wav

Pre-gap length 0:00:04.34

Peak level 66.0 %
Track quality 100.0 %
Test CRC D33F0CA1
Copy CRC D33F0CA1
Accurately ripped (confidence 1) [4D63C552]
Copy OK

Track 10

Filename D:\music\Musicgate's rips\Don Ellis Orchestra - Shock Treatment (1968) {2001, Koch KOC CD -8590}\10 - Seven Up.wav

Pre-gap length 0:00:04.18

Peak level 67.0 %
Track quality 100.0 %
Test CRC 97BE6E26
Copy CRC 97BE6E26
Accurately ripped (confidence 1) [869DADB6]
Copy OK

Track 11

Filename D:\music\Musicgate's rips\Don Ellis Orchestra - Shock Treatment (1968) {2001, Koch KOC CD -8590}\11 - The Tihai.wav

Pre-gap length 0:00:04.14

Peak level 77.4 %
Track quality 100.0 %
Test CRC 12493DE5
Copy CRC 12493DE5
Accurately ripped (confidence 1) [81392BBB]
Copy OK

Track 12

Filename D:\music\Musicgate's rips\Don Ellis Orchestra - Shock Treatment (1968) {2001, Koch KOC CD -8590}\12 - Zim (alt.Take).wav

Pre-gap length 0:00:04.01

Peak level 35.8 %
Track quality 100.0 %
Test CRC 824506B6
Copy CRC 824506B6
Accurately ripped (confidence 1) [3AB73352]
Copy OK

Track 13

Filename D:\music\Musicgate's rips\Don Ellis Orchestra - Shock Treatment (1968) {2001, Koch KOC CD -8590}\13 - I Remember Clifford.wav

Pre-gap length 0:00:03.72

Peak level 88.6 %
Track quality 100.0 %
Test CRC 1C4A8228
Copy CRC 1C4A8228
Accurately ripped (confidence 1) [1F988D0E]
Copy OK

Track 14

Filename D:\music\Musicgate's rips\Don Ellis Orchestra - Shock Treatment (1968) {2001, Koch KOC CD -8590}\14 - Rasty.wav

Pre-gap length 0:00:03.48

Peak level 77.5 %
Track quality 100.0 %
Test CRC 84AA5DA9
Copy CRC 84AA5DA9
Accurately ripped (confidence 1) [124331E7]
Copy OK


All tracks accurately ripped

No errors occurred

End of status report

[CUETools log; Date: 29.09.2021 11:03:02; Version: 2.1.4]
[CTDB TOCID: UFYPmB6HDFBOTrW608NjSZrus9w-] found.
Track | CTDB Status
1 | (20/25) Accurately ripped
2 | (20/25) Accurately ripped
3 | (20/25) Accurately ripped
4 | (19/25) Accurately ripped
5 | (19/25) Accurately ripped
6 | (19/25) Accurately ripped
7 | (20/25) Accurately ripped
8 | (19/25) Accurately ripped
9 | (19/25) Accurately ripped
10 | (20/25) Accurately ripped
11 | (19/25) Accurately ripped
12 | (20/25) Accurately ripped
13 | (19/25) Accurately ripped
14 | (19/25) Accurately ripped
[AccurateRip ID: 0020dc15-01678a98-c50fa30e] found.
Track [ CRC | V2 ] Status
01 [5d765099|9c0389a5] (02+05/17) Accurately ripped
02 [c8523252|c0fb604a] (02+05/17) Accurately ripped
03 [c7989997|c8167c91] (02+05/17) Accurately ripped
04 [b0745aff|0714dcf8] (02+05/17) Accurately ripped
05 [6fbb866b|32dd1ee8] (02+05/17) Accurately ripped
06 [4eae25af|c4c12d95] (02+04/16) Accurately ripped
07 [bc534024|9d187dd4] (02+05/17) Accurately ripped
08 [95ac4828|4c795a16] (02+05/17) Accurately ripped
09 [4d63c552|c04bf0b0] (02+05/17) Accurately ripped
10 [869dadb6|c8102caf] (02+05/17) Accurately ripped
11 [81392bbb|67d87307] (02+05/17) Accurately ripped
12 [3ab73352|c1a2ed8a] (02+05/17) Accurately ripped
13 [1f988d0e|6d659dab] (02+05/17) Accurately ripped
14 [124331e7|aaefd734] (02+05/17) Accurately ripped
Offsetted by -3:
01 [b29ab850] (00/17) No match (V2 was not tested)
02 [002265ca] (00/17) No match (V2 was not tested)
03 [b5e15094] (00/17) No match (V2 was not tested)
04 [9e239bf6] (00/17) No match (V2 was not tested)
05 [253c823e] (00/17) No match (V2 was not tested)
06 [dc4046b0] (00/16) No match (V2 was not tested)
07 [438fb67d] (00/17) No match (V2 was not tested)
08 [f3f1447d] (00/17) No match (V2 was not tested)
09 [b08f56ba] (00/17) No match (V2 was not tested)
10 [4d4b0c31] (00/17) No match (V2 was not tested)
11 [08c2f2fb] (00/17) No match (V2 was not tested)
12 [c6031f0b] (00/17) No match (V2 was not tested)
13 [51dd754a] (00/17) No match (V2 was not tested)
14 [8400c69a] (00/17) No match (V2 was not tested)

Track Peak [ CRC32 ] [W/O NULL] [ LOG ]
– 88,6 [094ADA70] [95944B33]
01 73,1 [0EF61F22] [89E6E26F] CRC32
02 66,8 [C5749034] [1A27088A] CRC32
03 63,2 [C165448F] [4257D7A7] CRC32
04 69,0 [F5CCE4EB] [EB2C2E53] CRC32
05 40,2 [238765A6] [BCE5CDBE] CRC32
06 67,8 [09B19745] [FFFC1E80] CRC32
07 68,4 [C274FE87] [B5054E83] CRC32
08 78,3 [84CE9919] [C67CF4E3] CRC32
09 66,0 [D33F0CA1] [54B92259] CRC32
10 67,0 [97BE6E26] [506974EE] CRC32
11 77,4 [12493DE5] [B57306C3] CRC32
12 35,8 [824506B6] [5004221E] CRC32
13 88,6 [1C4A8228] [E6C88482] CRC32
14 77,5 [84AA5DA9] [BF7E6E91] CRC32

Thanks to Musicgate

See also:
The Don Ellis Orchestra - Electric Bath (1967) [Reissue 1994]
Don Ellis And His Orchestra - Autumn (1968) [Reissue 2007]