Tags
Language
Tags

Don Byas - Moon Nocturne (Quadromania) [Recorded 1945-1952] [4CD Box Set] (2005) (Repost)

Posted By: gribovar
Don Byas - Moon Nocturne (Quadromania) [Recorded 1945-1952] [4CD Box Set] (2005) (Repost)

Don Byas - Moon Nocturne (Quadromania) [Recorded 1945-1952] [4CD Box Set] (2005)
EAC Rip | FLAC (tracks+.cue+log) - 904 MB | MP3 CBR 320 kbps (LAME 3.93) - 522 MB | Covers - 4 MB
Genre: Jazz | RAR 3% Rec. | Label: Membran Music (222414-444)

One of the greatest of all tenor players, Don Byas' decision to move permanently to Europe in 1946 resulted in him being vastly underrated in jazz history books. His knowledge of chords rivalled Coleman Hawkins, and, due to their similarity in tones, Byas can be considered an extension of the elder tenor. He played with many top swing bands, including those of Lionel Hampton (1935), Buck Clayton (1936), Don Redman, Lucky Millinder, Andy Kirk (1939-1940), and most importantly Count Basie (1941-1943). An advanced swing stylist, Byas' playing looked toward bop. He jammed at Minton's Playhouse in the early '40s, appeared on 52nd Street with Dizzy Gillespie, and performed a pair of stunning duets with bassist Slam Stewart at a 1944 Town Hall concert. After recording extensively during 1945-1946 (often as a leader), Byas went to Europe with Don Redman's band, and (with the exception of a 1970 appearance at the Newport Jazz Festival) never came back to the U.S. He lived in France, the Netherlands, and Denmark; often appeared at festivals; and worked steadily. Whenever American players were touring, they would ask for Byas, who had opportunities to perform with Duke Ellington, Bud Powell, Kenny Clarke, Dizzy Gillespie, Jazz at the Philharmonic (including a recorded tenor battle with Hawkins and Stan Getz), Art Blakey, and (on a 1968 recording) Ben Webster. Byas also recorded often in the 1950s, but was largely forgotten in the U.S. by the time of his death.
CD 1 Tracklist:
01. Deep Purple
02. Them There Eyes
03. Out Of Nowhere
04. Three O'Clock In The Morning
05. One O' Clock Jump
06. Harvard Blues
07. Slam-in' Around
08. Laura
09. Stardust
10. Slam, Don't Shake Like That
11. Dark Eyes
12. Embraceable You
13. The Sheik Of Araby
14. Super Session
15. Melody In Swing
16. I Don't Know Why
17. London Donnie
18. Old Folks
19. Cherokee

Total time: 57:31

CD 2 Tracklist:
01. September In The Rain
02. Living My Life
03. To Each His Own
04. They Say It's Wonderful
05. Cynthia's In Love
06. September Song
07. St Louis Blues
08. I've Found A New Baby
09. Marie
10. Working Eyes
11. Gloria
12. The Mohawk Special
13. Yesterdays
14. Summertime
15. Talk Of The Town
16. Stardust
17. A Pretty Girl Is Like A Melody
18. Old Man River
19. Flamingo

Total time: 55:22

CD 3 Tracklist:
01. Just One Of Those Things
02. Mean To Me
03. Live And Love Tonite
04. I Know That You Know
05. Blue Lou
06. You're Lucky To Me
07. Night And Day
08. The Man I Love
09. Georgia On My Mind
10. East To Love
11. Over The Rainbow
12. Where Or When
13. Tenderly
14. C'est Vous Cherie
15. Trop Jeune
16. Vanity
17. Because of You
18. Chloe
19. And So To Sleep Again

Total time: 57:25

CD 4 Tracklist:
01. Infidelite (Cry)
02. Slow Coach
03. Un Amour Pleurait
04. This Is Always
05. This Is For Sale
06. En Ce Temps-La
07. La Bas
08. Cognac Blues
09. Cocktails For Two
10. Moon Nocturne
11. Sabla y Blu
12. Blue and Sentimental
13. Just One More Chance
14. Just Blues
15. Ain't Misbehavin'
16. You Can Depend On Me
17. That Old Feeling
18. Don't Blame Me

Total time: 52:02

Exact Audio Copy V1.0 beta 3 from 29. August 2011

EAC extraction logfile from 14. June 2013, 14:20

Don Byas / Moon Nocturne (CD1)

Used drive : Optiarc DVD RW AD-5200A Adapter: 0 ID: 0

Read mode : Secure
Utilize accurate stream : Yes
Defeat audio cache : Yes
Make use of C2 pointers : No

Read offset correction : 48
Overread into Lead-In and Lead-Out : No
Fill up missing offset samples with silence : Yes
Delete leading and trailing silent blocks : No
Null samples used in CRC calculations : Yes
Used interface : Native Win32 interface for Win NT & 2000
Gap handling : Appended to previous track

Used output format : User Defined Encoder
Selected bitrate : 128 kBit/s
Quality : High
Add ID3 tag : No
Command line compressor : C:\Program Files\Exact Audio Copy\Flac\flac.exe
Additional command line options : -V -8 -T "Genre=%genre%" -T "Artist=%artist%" -T "Title=%title%" -T "Album=%albumtitle%" -T "Date=%year%" -T "Tracknumber=%tracknr%" -T "Comment=%comment%" %source%


TOC of the extracted CD

Track | Start | Length | Start sector | End sector
––––––––––––––––––––––––––––-
1 | 0:00.00 | 3:04.42 | 0 | 13841
2 | 3:04.42 | 3:03.43 | 13842 | 27609
3 | 6:08.10 | 3:16.21 | 27610 | 42330
4 | 9:24.31 | 3:02.15 | 42331 | 55995
5 | 12:26.46 | 2:47.29 | 55996 | 68549
6 | 15:14.00 | 3:09.10 | 68550 | 82734
7 | 18:23.10 | 2:46.69 | 82735 | 95253
8 | 21:10.04 | 2:49.15 | 95254 | 107943
9 | 23:59.19 | 3:04.57 | 107944 | 121800
10 | 27:04.01 | 3:03.48 | 121801 | 135573
11 | 30:07.49 | 3:02.42 | 135574 | 149265
12 | 33:10.16 | 3:03.64 | 149266 | 163054
13 | 36:14.05 | 3:04.36 | 163055 | 176890
14 | 39:18.41 | 2:59.60 | 176891 | 190375
15 | 42:18.26 | 3:17.04 | 190376 | 205154
16 | 45:35.30 | 3:00.43 | 205155 | 218697
17 | 48:35.73 | 2:51.43 | 218698 | 231565
18 | 51:27.41 | 3:03.69 | 231566 | 245359
19 | 54:31.35 | 3:00.14 | 245360 | 258873


Track 1

Filename F:\2005.Don Byas - Moon Nocturne (Quadromania, 4CD)\CD1\01. Deep Purple.wav

Pre-gap length 0:00:02.00

Peak level 99.9 %
Extraction speed 1.8 X
Track quality 99.9 %
Test CRC BFEDEF6F
Copy CRC BFEDEF6F
Accurately ripped (confidence 1) [6A03EB5F] (AR v2)
Copy OK

Track 2

Filename F:\2005.Don Byas - Moon Nocturne (Quadromania, 4CD)\CD1\02. Them There Eyes.wav

Pre-gap length 0:00:02.00

Peak level 99.9 %
Extraction speed 2.0 X
Track quality 99.9 %
Test CRC D0AB0761
Copy CRC D0AB0761
Accurately ripped (confidence 1) [2F98D695] (AR v2)
Copy OK

Track 3

Filename F:\2005.Don Byas - Moon Nocturne (Quadromania, 4CD)\CD1\03. Out Of Nowhere.wav

Pre-gap length 0:00:02.00

Peak level 100.0 %
Extraction speed 2.5 X
Track quality 100.0 %
Test CRC 615B52E4
Copy CRC 615B52E4
Accurately ripped (confidence 1) [9C66D61B] (AR v2)
Copy OK

Track 4

Filename F:\2005.Don Byas - Moon Nocturne (Quadromania, 4CD)\CD1\04. Three O'Clock In The Morning.wav

Pre-gap length 0:00:02.00

Peak level 99.7 %
Extraction speed 2.6 X
Track quality 100.0 %
Test CRC EE6E47F8
Copy CRC EE6E47F8
Accurately ripped (confidence 1) [5068B371] (AR v2)
Copy OK

Track 5

Filename F:\2005.Don Byas - Moon Nocturne (Quadromania, 4CD)\CD1\05. One O' Clock Jump.wav

Pre-gap length 0:00:02.00

Peak level 100.0 %
Extraction speed 2.7 X
Track quality 100.0 %
Test CRC 5F380B97
Copy CRC 5F380B97
Accurately ripped (confidence 1) [5A8C8396] (AR v2)
Copy OK

Track 6

Filename F:\2005.Don Byas - Moon Nocturne (Quadromania, 4CD)\CD1\06. Harvard Blues.wav

Pre-gap length 0:00:02.00

Peak level 99.4 %
Extraction speed 2.9 X
Track quality 100.0 %
Test CRC A72B4ACF
Copy CRC A72B4ACF
Accurately ripped (confidence 1) [61D1A2D7] (AR v2)
Copy OK

Track 7

Filename F:\2005.Don Byas - Moon Nocturne (Quadromania, 4CD)\CD1\07. Slam-in' Around.wav

Pre-gap length 0:00:02.00

Peak level 99.9 %
Extraction speed 2.9 X
Track quality 100.0 %
Test CRC DDA042EF
Copy CRC DDA042EF
Accurately ripped (confidence 1) [D464743C] (AR v2)
Copy OK

Track 8

Filename F:\2005.Don Byas - Moon Nocturne (Quadromania, 4CD)\CD1\08. Laura.wav

Pre-gap length 0:00:02.00

Peak level 99.9 %
Extraction speed 3.1 X
Track quality 100.0 %
Test CRC C4E44938
Copy CRC C4E44938
Accurately ripped (confidence 1) [61752350] (AR v2)
Copy OK

Track 9

Filename F:\2005.Don Byas - Moon Nocturne (Quadromania, 4CD)\CD1\09. Stardust.wav

Pre-gap length 0:00:02.00

Peak level 100.0 %
Extraction speed 3.2 X
Track quality 100.0 %
Test CRC C4F583AD
Copy CRC C4F583AD
Accurately ripped (confidence 1) [2B903AA5] (AR v2)
Copy OK

Track 10

Filename F:\2005.Don Byas - Moon Nocturne (Quadromania, 4CD)\CD1\10. Slam, Don't Shake Like That.wav

Pre-gap length 0:00:02.00

Peak level 99.3 %
Extraction speed 3.3 X
Track quality 100.0 %
Test CRC 16516C4F
Copy CRC 16516C4F
Accurately ripped (confidence 1) [D6B38872] (AR v2)
Copy OK

Track 11

Filename F:\2005.Don Byas - Moon Nocturne (Quadromania, 4CD)\CD1\11. Dark Eyes.wav

Pre-gap length 0:00:02.00

Peak level 99.8 %
Extraction speed 2.9 X
Track quality 99.9 %
Test CRC D906AAB4
Copy CRC D906AAB4
Accurately ripped (confidence 1) [9F3DE214] (AR v2)
Copy OK

Track 12

Filename F:\2005.Don Byas - Moon Nocturne (Quadromania, 4CD)\CD1\12. Embraceable You.wav

Pre-gap length 0:00:02.00

Peak level 99.9 %
Extraction speed 3.4 X
Track quality 100.0 %
Test CRC C83E178B
Copy CRC C83E178B
Accurately ripped (confidence 1) [1D2A29D5] (AR v2)
Copy OK

Track 13

Filename F:\2005.Don Byas - Moon Nocturne (Quadromania, 4CD)\CD1\13. The Sheik Of Araby.wav

Pre-gap length 0:00:02.00

Peak level 100.0 %
Extraction speed 3.4 X
Track quality 100.0 %
Test CRC 93355032
Copy CRC 93355032
Accurately ripped (confidence 1) [074FA6C7] (AR v2)
Copy OK

Track 14

Filename F:\2005.Don Byas - Moon Nocturne (Quadromania, 4CD)\CD1\14. Super Session.wav

Pre-gap length 0:00:02.00

Peak level 99.8 %
Extraction speed 3.4 X
Track quality 100.0 %
Test CRC 1468FB28
Copy CRC 1468FB28
Accurately ripped (confidence 1) [4F92FF89] (AR v2)
Copy OK

Track 15

Filename F:\2005.Don Byas - Moon Nocturne (Quadromania, 4CD)\CD1\15. Melody In Swing.wav

Pre-gap length 0:00:02.00

Peak level 99.9 %
Extraction speed 3.5 X
Track quality 100.0 %
Test CRC 9F09B25C
Copy CRC 9F09B25C
Accurately ripped (confidence 1) [0251DB6E] (AR v2)
Copy OK

Track 16

Filename F:\2005.Don Byas - Moon Nocturne (Quadromania, 4CD)\CD1\16. I Don't Know Why.wav

Pre-gap length 0:00:02.00

Peak level 100.0 %
Extraction speed 2.9 X
Track quality 99.9 %
Test CRC 3FF79C36
Copy CRC 3FF79C36
Accurately ripped (confidence 1) [9E5E7C05] (AR v2)
Copy OK

Track 17

Filename F:\2005.Don Byas - Moon Nocturne (Quadromania, 4CD)\CD1\17. London Donnie.wav

Pre-gap length 0:00:02.00

Peak level 99.6 %
Extraction speed 3.4 X
Track quality 100.0 %
Test CRC B4BD158D
Copy CRC B4BD158D
Accurately ripped (confidence 1) [1A22500A] (AR v2)
Copy OK

Track 18

Filename F:\2005.Don Byas - Moon Nocturne (Quadromania, 4CD)\CD1\18. Old Folks.wav

Pre-gap length 0:00:02.00

Peak level 99.8 %
Extraction speed 3.0 X
Track quality 99.9 %
Test CRC 5A5E3BF3
Copy CRC 5A5E3BF3
Accurately ripped (confidence 1) [C13C3049] (AR v2)
Copy OK

Track 19

Filename F:\2005.Don Byas - Moon Nocturne (Quadromania, 4CD)\CD1\19. Cherokee.wav

Pre-gap length 0:00:02.00

Peak level 100.0 %
Extraction speed 3.4 X
Track quality 100.0 %
Test CRC DE5C03F4
Copy CRC DE5C03F4
Accurately ripped (confidence 1) [6C8E53F0] (AR v2)
Copy OK


All tracks accurately ripped

No errors occurred

End of status report

==== Log checksum 700E8CEC04018A5B0F7E20B89224ABCCB162C4976361BB4EE1AFB0F8DD3C6F94 ====

[CUETools log; Date: 10.06.2018 17:28:36; Version: 2.1.4]
[CTDB TOCID: pxx1fN_HZMOQeBP1ftolfnhiLBI-] found.
Track | CTDB Status
1 | (1/1) Accurately ripped
2 | (1/1) Accurately ripped
3 | (1/1) Accurately ripped
4 | (1/1) Accurately ripped
5 | (1/1) Accurately ripped
6 | (1/1) Accurately ripped
7 | (1/1) Accurately ripped
8 | (1/1) Accurately ripped
9 | (1/1) Accurately ripped
10 | (1/1) Accurately ripped
11 | (1/1) Accurately ripped
12 | (1/1) Accurately ripped
13 | (1/1) Accurately ripped
14 | (1/1) Accurately ripped
15 | (1/1) Accurately ripped
16 | (1/1) Accurately ripped
17 | (1/1) Accurately ripped
18 | (1/1) Accurately ripped
19 | (1/1) Accurately ripped
[AccurateRip ID: 0027889e-02290a17-120d7b13] found.
Track [ CRC | V2 ] Status
01 [00467075|6a03eb5f] (0+3/3) Accurately ripped
02 [f95e395b|2f98d695] (0+3/3) Accurately ripped
03 [534c01b0|9c66d61b] (0+3/3) Accurately ripped
04 [c5e653ef|5068b371] (0+3/3) Accurately ripped
05 [0268bdc7|5a8c8396] (0+3/3) Accurately ripped
06 [5a11add4|61d1a2d7] (0+3/3) Accurately ripped
07 [42bd267c|d464743c] (0+3/3) Accurately ripped
08 [5b09ca5a|61752350] (0+3/3) Accurately ripped
09 [f3f0b19c|2b903aa5] (0+3/3) Accurately ripped
10 [9e2bce00|d6b38872] (0+3/3) Accurately ripped
11 [dde00b96|9f3de214] (0+3/3) Accurately ripped
12 [5c43da3c|1d2a29d5] (0+3/3) Accurately ripped
13 [a1a566bd|074fa6c7] (0+3/3) Accurately ripped
14 [cd62f024|4f92ff89] (0+3/3) Accurately ripped
15 [3dbab251|0251db6e] (0+3/3) Accurately ripped
16 [86967dbb|9e5e7c05] (0+3/3) Accurately ripped
17 [d4f7cb81|1a22500a] (0+3/3) Accurately ripped
18 [b97f1daa|c13c3049] (0+3/3) Accurately ripped
19 [2ca55ce5|6c8e53f0] (0+3/3) Accurately ripped

Track Peak [ CRC32 ] [W/O NULL] [ LOG ]
– 100,0 [220C9D74] [02B9265C]
01 99,9 [BFEDEF6F] [FC1D6905] CRC32
02 99,9 [D0AB0761] [5C842A4A] CRC32
03 100,0 [615B52E4] [709EEAC9] CRC32
04 99,7 [EE6E47F8] [268AE44F] CRC32
05 100,0 [5F380B97] [8428D427] CRC32
06 99,4 [A72B4ACF] [A7F8055E] CRC32
07 99,9 [DDA042EF] [558FDF50] CRC32
08 99,9 [C4E44938] [157F28A8] CRC32
09 100,0 [C4F583AD] [83079418] CRC32
10 99,3 [16516C4F] [3BB7A2E0] CRC32
11 99,8 [D906AAB4] [6891EB7D] CRC32
12 99,9 [C83E178B] [F101DB62] CRC32
13 99,9 [93355032] [D0A8AB52] CRC32
14 99,8 [1468FB28] [F072EF78] CRC32
15 99,9 [9F09B25C] [2481F46C] CRC32
16 100,0 [3FF79C36] [660A5B79] CRC32
17 99,6 [B4BD158D] [F2DE7C40] CRC32
18 99,8 [5A5E3BF3] [9DE520EF] CRC32
19 100,0 [DE5C03F4] [724246F5] CRC32

Exact Audio Copy V1.0 beta 3 from 29. August 2011

EAC extraction logfile from 14. June 2013, 15:07

Don Byas / Moon Nocturne (CD2)

Used drive : Optiarc DVD RW AD-5200A Adapter: 0 ID: 0

Read mode : Secure
Utilize accurate stream : Yes
Defeat audio cache : Yes
Make use of C2 pointers : No

Read offset correction : 48
Overread into Lead-In and Lead-Out : No
Fill up missing offset samples with silence : Yes
Delete leading and trailing silent blocks : No
Null samples used in CRC calculations : Yes
Used interface : Native Win32 interface for Win NT & 2000
Gap handling : Appended to previous track

Used output format : User Defined Encoder
Selected bitrate : 128 kBit/s
Quality : High
Add ID3 tag : No
Command line compressor : C:\Program Files\Exact Audio Copy\Flac\flac.exe
Additional command line options : -V -8 -T "Genre=%genre%" -T "Artist=%artist%" -T "Title=%title%" -T "Album=%albumtitle%" -T "Date=%year%" -T "Tracknumber=%tracknr%" -T "Comment=%comment%" %source%


TOC of the extracted CD

Track | Start | Length | Start sector | End sector
––––––––––––––––––––––––––––-
1 | 0:00.00 | 2:59.48 | 0 | 13472
2 | 2:59.48 | 2:44.46 | 13473 | 25818
3 | 5:44.19 | 2:57.38 | 25819 | 39131
4 | 8:41.57 | 2:24.00 | 39132 | 49931
5 | 11:05.57 | 2:46.74 | 49932 | 62455
6 | 13:52.56 | 2:54.27 | 62456 | 75532
7 | 16:47.08 | 2:59.70 | 75533 | 89027
8 | 19:47.03 | 2:39.58 | 89028 | 101010
9 | 22:26.61 | 2:56.71 | 101011 | 114281
10 | 25:23.57 | 2:58.57 | 114282 | 127688
11 | 28:22.39 | 3:06.70 | 127689 | 141708
12 | 31:29.34 | 3:19.70 | 141709 | 156703
13 | 34:49.29 | 2:31.60 | 156704 | 168088
14 | 37:21.14 | 2:47.13 | 168089 | 180626
15 | 40:08.27 | 3:25.18 | 180627 | 196019
16 | 43:33.45 | 3:15.23 | 196020 | 210667
17 | 46:48.68 | 2:56.30 | 210668 | 223897
18 | 49:45.23 | 2:45.59 | 223898 | 236331
19 | 52:31.07 | 2:50.73 | 236332 | 249154


Track 1

Filename F:\2005.Don Byas - Moon Nocturne (Quadromania, 4CD)\CD2\01. September In The Rain.wav

Pre-gap length 0:00:02.00

Peak level 100.0 %
Extraction speed 1.8 X
Track quality 99.9 %
Test CRC 621DE73D
Copy CRC 621DE73D
Accurately ripped (confidence 1) [2A4F3151] (AR v2)
Copy OK

Track 2

Filename F:\2005.Don Byas - Moon Nocturne (Quadromania, 4CD)\CD2\02. Living My Life.wav

Pre-gap length 0:00:02.00

Peak level 100.0 %
Extraction speed 2.2 X
Track quality 100.0 %
Test CRC 830C7674
Copy CRC 830C7674
Accurately ripped (confidence 1) [2F642DB9] (AR v2)
Copy OK

Track 3

Filename F:\2005.Don Byas - Moon Nocturne (Quadromania, 4CD)\CD2\03. To Each His Own.wav

Pre-gap length 0:00:02.00

Peak level 100.0 %
Extraction speed 2.4 X
Track quality 100.0 %
Test CRC 6BA6B84E
Copy CRC 6BA6B84E
Accurately ripped (confidence 1) [95A0DA32] (AR v2)
Copy OK

Track 4

Filename F:\2005.Don Byas - Moon Nocturne (Quadromania, 4CD)\CD2\04. They Say It's Wonderful.wav

Pre-gap length 0:00:02.00

Peak level 100.0 %
Extraction speed 2.4 X
Track quality 100.0 %
Test CRC 96120711
Copy CRC 96120711
Accurately ripped (confidence 1) [4BE7BBB9] (AR v2)
Copy OK

Track 5

Filename F:\2005.Don Byas - Moon Nocturne (Quadromania, 4CD)\CD2\05. Cynthia's In Love.wav

Pre-gap length 0:00:02.00

Peak level 99.9 %
Extraction speed 2.3 X
Track quality 99.9 %
Test CRC D1BA9B31
Copy CRC D1BA9B31
Accurately ripped (confidence 1) [3393B6B2] (AR v2)
Copy OK

Track 6

Filename F:\2005.Don Byas - Moon Nocturne (Quadromania, 4CD)\CD2\06. September Song.wav

Pre-gap length 0:00:02.00

Peak level 99.6 %
Extraction speed 2.8 X
Track quality 100.0 %
Test CRC FDAE1D2A
Copy CRC FDAE1D2A
Accurately ripped (confidence 1) [2E1A4655] (AR v2)
Copy OK

Track 7

Filename F:\2005.Don Byas - Moon Nocturne (Quadromania, 4CD)\CD2\07. St Louis Blues.wav

Pre-gap length 0:00:02.00

Peak level 100.0 %
Extraction speed 2.5 X
Track quality 99.9 %
Test CRC A298B053
Copy CRC A298B053
Accurately ripped (confidence 1) [F37A31B7] (AR v2)
Copy OK

Track 8

Filename F:\2005.Don Byas - Moon Nocturne (Quadromania, 4CD)\CD2\08. I've Found A New Baby.wav

Pre-gap length 0:00:02.00

Peak level 100.0 %
Extraction speed 3.0 X
Track quality 100.0 %
Test CRC 941B251B
Copy CRC 941B251B
Accurately ripped (confidence 1) [CCA3237A] (AR v2)
Copy OK

Track 9

Filename F:\2005.Don Byas - Moon Nocturne (Quadromania, 4CD)\CD2\09. Marie.wav

Pre-gap length 0:00:02.00

Peak level 99.9 %
Extraction speed 2.7 X
Track quality 99.9 %
Test CRC D94A2BF4
Copy CRC D94A2BF4
Accurately ripped (confidence 1) [8ED5D60E] (AR v2)
Copy OK

Track 10

Filename F:\2005.Don Byas - Moon Nocturne (Quadromania, 4CD)\CD2\10. Working Eyes.wav

Pre-gap length 0:00:02.00

Peak level 99.6 %
Extraction speed 3.2 X
Track quality 100.0 %
Test CRC 490341E6
Copy CRC 490341E6
Accurately ripped (confidence 1) [5CEDF0AB] (AR v2)
Copy OK

Track 11

Filename F:\2005.Don Byas - Moon Nocturne (Quadromania, 4CD)\CD2\11. Gloria.wav

Pre-gap length 0:00:02.00

Peak level 100.0 %
Extraction speed 3.3 X
Track quality 100.0 %
Test CRC D6BB3CC6
Copy CRC D6BB3CC6
Accurately ripped (confidence 1) [B3137EE1] (AR v2)
Copy OK

Track 12

Filename F:\2005.Don Byas - Moon Nocturne (Quadromania, 4CD)\CD2\12. The Mohawk Special.wav

Pre-gap length 0:00:02.00

Peak level 99.3 %
Extraction speed 3.4 X
Track quality 100.0 %
Test CRC 3E85AA15
Copy CRC 3E85AA15
Accurately ripped (confidence 1) [49892873] (AR v2)
Copy OK

Track 13

Filename F:\2005.Don Byas - Moon Nocturne (Quadromania, 4CD)\CD2\13. Yesterdays.wav

Pre-gap length 0:00:02.00

Peak level 99.7 %
Extraction speed 3.3 X
Track quality 100.0 %
Test CRC 3AFDA658
Copy CRC 3AFDA658
Accurately ripped (confidence 1) [8A637A15] (AR v2)
Copy OK

Track 14

Filename F:\2005.Don Byas - Moon Nocturne (Quadromania, 4CD)\CD2\14. Summertime.wav

Pre-gap length 0:00:02.00

Peak level 99.9 %
Extraction speed 3.3 X
Track quality 100.0 %
Test CRC 09D472F9
Copy CRC 09D472F9
Accurately ripped (confidence 1) [886FFA2D] (AR v2)
Copy OK

Track 15

Filename F:\2005.Don Byas - Moon Nocturne (Quadromania, 4CD)\CD2\15. Talk Of The Town.wav

Pre-gap length 0:00:02.00

Peak level 99.2 %
Extraction speed 3.5 X
Track quality 100.0 %
Test CRC A824F8CE
Copy CRC A824F8CE
Accurately ripped (confidence 1) [3B34ABB1] (AR v2)
Copy OK

Track 16

Filename F:\2005.Don Byas - Moon Nocturne (Quadromania, 4CD)\CD2\16. Stardust.wav

Pre-gap length 0:00:02.00

Peak level 99.7 %
Extraction speed 3.4 X
Track quality 100.0 %
Test CRC 6E2AABE7
Copy CRC 6E2AABE7
Accurately ripped (confidence 1) [F71E6F1D] (AR v2)
Copy OK

Track 17

Filename F:\2005.Don Byas - Moon Nocturne (Quadromania, 4CD)\CD2\17. A Pretty Girl Is Like A Melody.wav

Pre-gap length 0:00:02.00

Peak level 100.0 %
Extraction speed 3.4 X
Track quality 100.0 %
Test CRC B9723DA6
Copy CRC B9723DA6
Accurately ripped (confidence 1) [7C161FF3] (AR v2)
Copy OK

Track 18

Filename F:\2005.Don Byas - Moon Nocturne (Quadromania, 4CD)\CD2\18. Old Man River.wav

Pre-gap length 0:00:02.00

Peak level 100.0 %
Extraction speed 3.4 X
Track quality 100.0 %
Test CRC 9E367A5E
Copy CRC 9E367A5E
Accurately ripped (confidence 1) [34D67CE7] (AR v2)
Copy OK

Track 19

Filename F:\2005.Don Byas - Moon Nocturne (Quadromania, 4CD)\CD2\19. Flamingo.wav

Pre-gap length 0:00:02.00

Peak level 99.7 %
Extraction speed 2.9 X
Track quality 99.9 %
Test CRC 57ED6962
Copy CRC 57ED6962
Accurately ripped (confidence 1) [B897C99E] (AR v2)
Copy OK


All tracks accurately ripped

No errors occurred

End of status report

==== Log checksum B52A119C6615A6C4C498BC8FDB9D059D6B115AAA0D1633228B0E5D4D1E7537F0 ====

[CUETools log; Date: 10.06.2018 17:28:59; Version: 2.1.4]
[CTDB TOCID: WAGTCndMdUlxkQaq7JcdwK9XDHA-] found.
Track | CTDB Status
1 | (1/1) Accurately ripped
2 | (1/1) Accurately ripped
3 | (1/1) Accurately ripped
4 | (1/1) Accurately ripped
5 | (1/1) Accurately ripped
6 | (1/1) Accurately ripped
7 | (1/1) Accurately ripped
8 | (1/1) Accurately ripped
9 | (1/1) Accurately ripped
10 | (1/1) Accurately ripped
11 | (1/1) Accurately ripped
12 | (1/1) Accurately ripped
13 | (1/1) Accurately ripped
14 | (1/1) Accurately ripped
15 | (1/1) Accurately ripped
16 | (1/1) Accurately ripped
17 | (1/1) Accurately ripped
18 | (1/1) Accurately ripped
19 | (1/1) Accurately ripped
[AccurateRip ID: 00258f75-02100534-fb0cfa13] found.
Track [ CRC | V2 ] Status
01 [68022bea|2a4f3151] (0+4/4) Accurately ripped
02 [5c5a0b06|2f642db9] (0+4/4) Accurately ripped
03 [dfb6fea5|95a0da32] (0+4/4) Accurately ripped
04 [c825c354|4be7bbb9] (0+4/4) Accurately ripped
05 [8921b971|3393b6b2] (0+4/4) Accurately ripped
06 [990738fc|2e1a4655] (0+4/4) Accurately ripped
07 [687b2d32|f37a31b7] (0+4/4) Accurately ripped
08 [ef85d680|cca3237a] (0+4/4) Accurately ripped
09 [aa8dd2b4|8ed5d60e] (0+4/4) Accurately ripped
10 [0c010056|5cedf0ab] (0+4/4) Accurately ripped
11 [1bcccc87|b3137ee1] (0+4/4) Accurately ripped
12 [0ae9a872|49892873] (0+4/4) Accurately ripped
13 [9e6a8564|8a637a15] (0+4/4) Accurately ripped
14 [962cc7bf|886ffa2d] (0+4/4) Accurately ripped
15 [845a2c94|3b34abb1] (0+4/4) Accurately ripped
16 [16651098|f71e6f1d] (0+4/4) Accurately ripped
17 [1e1ae7d2|7c161ff3] (0+4/4) Accurately ripped
18 [f4431b24|34d67ce7] (0+4/4) Accurately ripped
19 [ad03bb7e|b897c99e] (0+4/4) Accurately ripped

Track Peak [ CRC32 ] [W/O NULL] [ LOG ]
– 100,0 [93FE5E34] [CF11297C]
01 99,9 [621DE73D] [8FC4007D] CRC32
02 99,9 [830C7674] [20638AAA] CRC32
03 100,0 [6BA6B84E] [EA3AF2D0] CRC32
04 100,0 [96120711] [15B5E775] CRC32
05 99,9 [D1BA9B31] [F325E347] CRC32
06 99,6 [FDAE1D2A] [9A7C341D] CRC32
07 100,0 [A298B053] [70055EBF] CRC32
08 100,0 [941B251B] [18A6C5D5] CRC32
09 99,9 [D94A2BF4] [30043A3F] CRC32
10 99,6 [490341E6] [AC085B39] CRC32
11 100,0 [D6BB3CC6] [4375CDE0] CRC32
12 99,3 [3E85AA15] [5B6C2C3E] CRC32
13 99,7 [3AFDA658] [DA6034DB] CRC32
14 99,9 [09D472F9] [7DCB535B] CRC32
15 99,2 [A824F8CE] [CB35B231] CRC32
16 99,7 [6E2AABE7] [3810B658] CRC32
17 100,0 [B9723DA6] [2E6F2DC9] CRC32
18 99,9 [9E367A5E] [059A7B8B] CRC32
19 99,7 [57ED6962] [DE2DF92B] CRC32

Exact Audio Copy V1.0 beta 3 from 29. August 2011

EAC extraction logfile from 14. June 2013, 20:15

Don Byas / Moon Nocturne (CD3)

Used drive : Optiarc DVD RW AD-5200A Adapter: 0 ID: 0

Read mode : Secure
Utilize accurate stream : Yes
Defeat audio cache : Yes
Make use of C2 pointers : No

Read offset correction : 48
Overread into Lead-In and Lead-Out : No
Fill up missing offset samples with silence : Yes
Delete leading and trailing silent blocks : No
Null samples used in CRC calculations : Yes
Used interface : Native Win32 interface for Win NT & 2000
Gap handling : Appended to previous track

Used output format : User Defined Encoder
Selected bitrate : 128 kBit/s
Quality : High
Add ID3 tag : No
Command line compressor : C:\Program Files\Exact Audio Copy\Flac\flac.exe
Additional command line options : -V -8 -T "Genre=%genre%" -T "Artist=%artist%" -T "Title=%title%" -T "Album=%albumtitle%" -T "Date=%year%" -T "Tracknumber=%tracknr%" -T "Comment=%comment%" %source%


TOC of the extracted CD

Track | Start | Length | Start sector | End sector
––––––––––––––––––––––––––––-
1 | 0:00.00 | 2:58.48 | 0 | 13397
2 | 2:58.48 | 3:12.61 | 13398 | 27858
3 | 6:11.34 | 3:27.01 | 27859 | 43384
4 | 9:38.35 | 3:08.09 | 43385 | 57493
5 | 12:46.44 | 2:54.29 | 57494 | 70572
6 | 15:40.73 | 2:35.48 | 70573 | 82245
7 | 18:16.46 | 2:36.69 | 82246 | 94014
8 | 20:53.40 | 2:42.08 | 94015 | 106172
9 | 23:35.48 | 2:50.40 | 106173 | 118962
10 | 26:26.13 | 2:56.45 | 118963 | 132207
11 | 29:22.58 | 2:48.13 | 132208 | 144820
12 | 32:10.71 | 2:39.17 | 144821 | 156762
13 | 34:50.13 | 3:26.73 | 156763 | 172285
14 | 38:17.11 | 2:55.51 | 172286 | 185461
15 | 41:12.62 | 3:29.20 | 185462 | 201156
16 | 44:42.07 | 2:51.55 | 201157 | 214036
17 | 47:33.62 | 3:31.36 | 214037 | 229897
18 | 51:05.23 | 2:55.43 | 229898 | 243065
19 | 54:00.66 | 3:24.16 | 243066 | 258381


Track 1

Filename F:\2005.Don Byas - Moon Nocturne (Quadromania, 4CD)\CD3\01. Just One Of Those Things.wav

Pre-gap length 0:00:02.00

Peak level 100.0 %
Extraction speed 1.8 X
Track quality 99.9 %
Test CRC 68AB5F49
Copy CRC 68AB5F49
Accurately ripped (confidence 1) [61FC10C6] (AR v2)
Copy OK

Track 2

Filename F:\2005.Don Byas - Moon Nocturne (Quadromania, 4CD)\CD3\02. Mean To Me.wav

Pre-gap length 0:00:02.00

Peak level 99.3 %
Extraction speed 2.3 X
Track quality 100.0 %
Test CRC 34D2954F
Copy CRC 34D2954F
Accurately ripped (confidence 1) [CFC6900F] (AR v2)
Copy OK

Track 3

Filename F:\2005.Don Byas - Moon Nocturne (Quadromania, 4CD)\CD3\03. Live And Love Tonite.wav

Pre-gap length 0:00:02.00

Peak level 99.9 %
Extraction speed 2.5 X
Track quality 100.0 %
Test CRC 45FB0D3D
Copy CRC 45FB0D3D
Accurately ripped (confidence 1) [33622704] (AR v2)
Copy OK

Track 4

Filename F:\2005.Don Byas - Moon Nocturne (Quadromania, 4CD)\CD3\04. I Know That You Know.wav

Pre-gap length 0:00:02.00

Peak level 99.8 %
Extraction speed 2.6 X
Track quality 100.0 %
Test CRC AC82FF3F
Copy CRC AC82FF3F
Accurately ripped (confidence 1) [C1719B0B] (AR v2)
Copy OK

Track 5

Filename F:\2005.Don Byas - Moon Nocturne (Quadromania, 4CD)\CD3\05. Blue Lou.wav

Pre-gap length 0:00:02.00

Peak level 98.5 %
Extraction speed 2.8 X
Track quality 100.0 %
Test CRC ED304878
Copy CRC ED304878
Accurately ripped (confidence 1) [FC2AEB84] (AR v2)
Copy OK

Track 6

Filename F:\2005.Don Byas - Moon Nocturne (Quadromania, 4CD)\CD3\06. You're Lucky To Me.wav

Pre-gap length 0:00:02.00

Peak level 100.0 %
Extraction speed 2.8 X
Track quality 100.0 %
Test CRC 272AA90B
Copy CRC 272AA90B
Accurately ripped (confidence 1) [61CB0978] (AR v2)
Copy OK

Track 7

Filename F:\2005.Don Byas - Moon Nocturne (Quadromania, 4CD)\CD3\07. Night And Day.wav

Pre-gap length 0:00:02.00

Peak level 99.8 %
Extraction speed 2.9 X
Track quality 100.0 %
Test CRC 2FBE4897
Copy CRC 2FBE4897
Accurately ripped (confidence 1) [610C1547] (AR v2)
Copy OK

Track 8

Filename F:\2005.Don Byas - Moon Nocturne (Quadromania, 4CD)\CD3\08. The Man I Love.wav

Pre-gap length 0:00:02.00

Peak level 99.9 %
Extraction speed 3.1 X
Track quality 100.0 %
Test CRC 0600C9CE
Copy CRC 0600C9CE
Accurately ripped (confidence 1) [77C70154] (AR v2)
Copy OK

Track 9

Filename F:\2005.Don Byas - Moon Nocturne (Quadromania, 4CD)\CD3\09. Georgia On My Mind.wav

Pre-gap length 0:00:02.00

Peak level 99.5 %
Extraction speed 3.1 X
Track quality 100.0 %
Test CRC 07FB94A9
Copy CRC 07FB94A9
Accurately ripped (confidence 1) [0D2869BF] (AR v2)
Copy OK

Track 10

Filename F:\2005.Don Byas - Moon Nocturne (Quadromania, 4CD)\CD3\10. East To Love.wav

Pre-gap length 0:00:02.00

Peak level 99.8 %
Extraction speed 2.8 X
Track quality 99.9 %
Test CRC BD52F064
Copy CRC BD52F064
Accurately ripped (confidence 1) [A6F8CEED] (AR v2)
Copy OK

Track 11

Filename F:\2005.Don Byas - Moon Nocturne (Quadromania, 4CD)\CD3\11. Over The Rainbow.wav

Pre-gap length 0:00:02.00

Peak level 99.9 %
Extraction speed 3.2 X
Track quality 100.0 %
Test CRC 72577155
Copy CRC 72577155
Accurately ripped (confidence 1) [4E2F7596] (AR v2)
Copy OK

Track 12

Filename F:\2005.Don Byas - Moon Nocturne (Quadromania, 4CD)\CD3\12. Where Or When.wav

Pre-gap length 0:00:02.00

Peak level 99.6 %
Extraction speed 3.3 X
Track quality 100.0 %
Test CRC A89AE5C3
Copy CRC A89AE5C3
Accurately ripped (confidence 1) [B483EC00] (AR v2)
Copy OK

Track 13

Filename F:\2005.Don Byas - Moon Nocturne (Quadromania, 4CD)\CD3\13. Tenderly.wav

Pre-gap length 0:00:02.00

Peak level 99.7 %
Extraction speed 3.5 X
Track quality 100.0 %
Test CRC E97F3FC7
Copy CRC E97F3FC7
Accurately ripped (confidence 1) [0F9664C4] (AR v2)
Copy OK

Track 14

Filename F:\2005.Don Byas - Moon Nocturne (Quadromania, 4CD)\CD3\14. C'est Vous Cherie.wav

Pre-gap length 0:00:02.00

Peak level 99.3 %
Extraction speed 3.4 X
Track quality 100.0 %
Test CRC F3D1E55D
Copy CRC F3D1E55D
Accurately ripped (confidence 1) [01719888] (AR v2)
Copy OK

Track 15

Filename F:\2005.Don Byas - Moon Nocturne (Quadromania, 4CD)\CD3\15. Trop Jeune.wav

Pre-gap length 0:00:02.00

Peak level 99.5 %
Extraction speed 3.5 X
Track quality 100.0 %
Test CRC C27EDC4B
Copy CRC C27EDC4B
Accurately ripped (confidence 1) [96D3AFEA] (AR v2)
Copy OK

Track 16

Filename F:\2005.Don Byas - Moon Nocturne (Quadromania, 4CD)\CD3\16. Vanity.wav

Pre-gap length 0:00:02.00

Peak level 100.0 %
Extraction speed 3.4 X
Track quality 100.0 %
Test CRC 6AECEBC6
Copy CRC 6AECEBC6
Accurately ripped (confidence 1) [8766FDC7] (AR v2)
Copy OK

Track 17

Filename F:\2005.Don Byas - Moon Nocturne (Quadromania, 4CD)\CD3\17. Because of You.wav

Pre-gap length 0:00:02.00

Peak level 100.0 %
Extraction speed 3.1 X
Track quality 99.9 %
Test CRC 3F4DBDB1
Copy CRC 3F4DBDB1
Accurately ripped (confidence 1) [199D0B52] (AR v2)
Copy OK

Track 18

Filename F:\2005.Don Byas - Moon Nocturne (Quadromania, 4CD)\CD3\18. Chloe.wav

Pre-gap length 0:00:02.00

Peak level 98.0 %
Extraction speed 3.3 X
Track quality 100.0 %
Test CRC 12D60E99
Copy CRC 12D60E99
Accurately ripped (confidence 1) [EF317641] (AR v2)
Copy OK

Track 19

Filename F:\2005.Don Byas - Moon Nocturne (Quadromania, 4CD)\CD3\19. And So To Sleep Again.wav

Pre-gap length 0:00:02.00

Peak level 99.5 %
Extraction speed 3.1 X
Track quality 99.9 %
Test CRC 01777A68
Copy CRC 01777A68
Accurately ripped (confidence 1) [FB40F0B2] (AR v2)
Copy OK


All tracks accurately ripped

No errors occurred

End of status report

==== Log checksum 1BA8BB331B72C488EC853BDB07FD06169ECDE78C5443246C91AF6CF81D841D74 ====

[CUETools log; Date: 10.06.2018 17:30:44; Version: 2.1.4]
[CTDB TOCID: y.uZI5OCiTj3xY_Na8EAq_MhzcY-] found.
Track | CTDB Status
1 | (1/1) Accurately ripped
2 | (1/1) Accurately ripped
3 | (1/1) Accurately ripped
4 | (1/1) Accurately ripped
5 | (1/1) Accurately ripped
6 | (1/1) Accurately ripped
7 | (1/1) Accurately ripped
8 | (1/1) Accurately ripped
9 | (1/1) Accurately ripped
10 | (1/1) Accurately ripped
11 | (1/1) Accurately ripped
12 | (1/1) Accurately ripped
13 | (1/1) Accurately ripped
14 | (1/1) Accurately ripped
15 | (1/1) Accurately ripped
16 | (1/1) Accurately ripped
17 | (1/1) Accurately ripped
18 | (1/1) Accurately ripped
19 | (1/1) Accurately ripped
[AccurateRip ID: 0026f17a-022053d3-240d7513] found.
Track [ CRC | V2 ] Status
01 [c629210f|61fc10c6] (0+4/4) Accurately ripped
02 [31b83998|cfc6900f] (0+4/4) Accurately ripped
03 [460560b2|33622704] (0+4/4) Accurately ripped
04 [63730c88|c1719b0b] (0+4/4) Accurately ripped
05 [2e4a1e8b|fc2aeb84] (0+4/4) Accurately ripped
06 [f0da658c|61cb0978] (0+4/4) Accurately ripped
07 [b2cb8de0|610c1547] (0+4/4) Accurately ripped
08 [a671bdd6|77c70154] (0+4/4) Accurately ripped
09 [b1756787|0d2869bf] (0+4/4) Accurately ripped
10 [ce8ac544|a6f8ceed] (0+4/4) Accurately ripped
11 [e9ae63ef|4e2f7596] (0+4/4) Accurately ripped
12 [74443e4f|b483ec00] (0+4/4) Accurately ripped
13 [9209bbaf|0f9664c4] (0+4/4) Accurately ripped
14 [b72709ef|01719888] (0+4/4) Accurately ripped
15 [543d0f1f|96d3afea] (0+4/4) Accurately ripped
16 [f4a67cb7|8766fdc7] (0+4/4) Accurately ripped
17 [b543655f|199d0b52] (0+4/4) Accurately ripped
18 [8f2813be|ef317641] (0+4/4) Accurately ripped
19 [1bb1612c|fb40f0b2] (0+4/4) Accurately ripped

Track Peak [ CRC32 ] [W/O NULL] [ LOG ]
– 100,0 [B43E9A14] [EEC381FC]
01 100,0 [68AB5F49] [058ABCE4] CRC32
02 99,3 [34D2954F] [0B85F22F] CRC32
03 99,9 [45FB0D3D] [F928F150] CRC32
04 99,8 [AC82FF3F] [72ED7748] CRC32
05 98,5 [ED304878] [4417DAAD] CRC32
06 100,0 [272AA90B] [54028C9C] CRC32
07 99,8 [2FBE4897] [86FDA9AF] CRC32
08 99,9 [0600C9CE] [79A51E06] CRC32
09 99,5 [07FB94A9] [CA457C71] CRC32
10 99,8 [BD52F064] [A240CFC1] CRC32
11 99,9 [72577155] [63A13272] CRC32
12 99,6 [A89AE5C3] [1846BEEF] CRC32
13 99,7 [E97F3FC7] [299501B7] CRC32
14 99,3 [F3D1E55D] [4D86ED5F] CRC32
15 99,5 [C27EDC4B] [EFA8512F] CRC32
16 100,0 [6AECEBC6] [047895C3] CRC32
17 100,0 [3F4DBDB1] [47F2C171] CRC32
18 98,0 [12D60E99] [A2F80EB8] CRC32
19 99,5 [01777A68] [69FE5694] CRC32

Exact Audio Copy V1.0 beta 3 from 29. August 2011

EAC extraction logfile from 14. June 2013, 21:10

Don Byas / Moon Nocturne (CD4)

Used drive : Optiarc DVD RW AD-5200A Adapter: 0 ID: 0

Read mode : Secure
Utilize accurate stream : Yes
Defeat audio cache : Yes
Make use of C2 pointers : No

Read offset correction : 48
Overread into Lead-In and Lead-Out : No
Fill up missing offset samples with silence : Yes
Delete leading and trailing silent blocks : No
Null samples used in CRC calculations : Yes
Used interface : Native Win32 interface for Win NT & 2000
Gap handling : Appended to previous track

Used output format : User Defined Encoder
Selected bitrate : 128 kBit/s
Quality : High
Add ID3 tag : No
Command line compressor : C:\Program Files\Exact Audio Copy\Flac\flac.exe
Additional command line options : -V -8 -T "Genre=%genre%" -T "Artist=%artist%" -T "Title=%title%" -T "Album=%albumtitle%" -T "Date=%year%" -T "Tracknumber=%tracknr%" -T "Comment=%comment%" %source%


TOC of the extracted CD

Track | Start | Length | Start sector | End sector
––––––––––––––––––––––––––––-
1 | 0:00.00 | 3:26.09 | 0 | 15458
2 | 3:26.09 | 2:40.65 | 15459 | 27523
3 | 6:06.74 | 3:01.36 | 27524 | 41134
4 | 9:08.35 | 2:48.45 | 41135 | 53779
5 | 11:57.05 | 2:49.01 | 53780 | 66455
6 | 14:46.06 | 2:31.54 | 66456 | 77834
7 | 17:17.60 | 2:42.51 | 77835 | 90035
8 | 20:00.36 | 2:41.15 | 90036 | 102125
9 | 22:41.51 | 2:42.20 | 102126 | 114295
10 | 25:23.71 | 3:03.19 | 114296 | 128039
11 | 28:27.15 | 3:05.42 | 128040 | 141956
12 | 31:32.57 | 2:43.37 | 141957 | 154218
13 | 34:16.19 | 3:11.46 | 154219 | 168589
14 | 37:27.65 | 2:59.48 | 168590 | 182062
15 | 40:27.38 | 2:57.72 | 182063 | 195409
16 | 43:25.35 | 2:29.01 | 195410 | 206585
17 | 45:54.36 | 2:28.31 | 206586 | 217716
18 | 48:22.67 | 3:39.74 | 217717 | 234215


Track 1

Filename F:\2005.Don Byas - Moon Nocturne (Quadromania, 4CD)\CD4\01. Infidelite (Cry).wav

Pre-gap length 0:00:02.00

Peak level 99.9 %
Extraction speed 2.3 X
Track quality 100.0 %
Test CRC 23ECBEAB
Copy CRC 23ECBEAB
Accurately ripped (confidence 1) [714955F5] (AR v2)
Copy OK

Track 2

Filename F:\2005.Don Byas - Moon Nocturne (Quadromania, 4CD)\CD4\02. Slow Coach.wav

Pre-gap length 0:00:02.00

Peak level 99.8 %
Extraction speed 2.3 X
Track quality 100.0 %
Test CRC 7CED67B2
Copy CRC 7CED67B2
Accurately ripped (confidence 1) [C240BE6F] (AR v2)
Copy OK

Track 3

Filename F:\2005.Don Byas - Moon Nocturne (Quadromania, 4CD)\CD4\03. Un Amour Pleurait.wav

Pre-gap length 0:00:02.00

Peak level 99.9 %
Extraction speed 2.5 X
Track quality 100.0 %
Test CRC 939A6CD0
Copy CRC 939A6CD0
Accurately ripped (confidence 1) [33BCA8BE] (AR v2)
Copy OK

Track 4

Filename F:\2005.Don Byas - Moon Nocturne (Quadromania, 4CD)\CD4\04. This Is Always.wav

Pre-gap length 0:00:02.00

Peak level 100.0 %
Extraction speed 2.6 X
Track quality 100.0 %
Test CRC BCC752A4
Copy CRC BCC752A4
Accurately ripped (confidence 1) [441931A4] (AR v2)
Copy OK

Track 5

Filename F:\2005.Don Byas - Moon Nocturne (Quadromania, 4CD)\CD4\05. This Is For Sale.wav

Pre-gap length 0:00:02.00

Peak level 100.0 %
Extraction speed 2.8 X
Track quality 100.0 %
Test CRC 5D299C5B
Copy CRC 5D299C5B
Accurately ripped (confidence 1) [A3EC6776] (AR v2)
Copy OK

Track 6

Filename F:\2005.Don Byas - Moon Nocturne (Quadromania, 4CD)\CD4\06. En Ce Temps-La.wav

Pre-gap length 0:00:02.00

Peak level 100.0 %
Extraction speed 2.4 X
Track quality 99.9 %
Test CRC 4AD80740
Copy CRC 4AD80740
Accurately ripped (confidence 1) [27E55214] (AR v2)
Copy OK

Track 7

Filename F:\2005.Don Byas - Moon Nocturne (Quadromania, 4CD)\CD4\07. La Bas.wav

Pre-gap length 0:00:02.00

Peak level 100.0 %
Extraction speed 2.5 X
Track quality 99.9 %
Test CRC 36F9B3B4
Copy CRC 36F9B3B4
Accurately ripped (confidence 1) [555D2866] (AR v2)
Copy OK

Track 8

Filename F:\2005.Don Byas - Moon Nocturne (Quadromania, 4CD)\CD4\08. Cognac Blues.wav

Pre-gap length 0:00:02.00

Peak level 100.0 %
Extraction speed 3.1 X
Track quality 100.0 %
Test CRC EA9536F5
Copy CRC EA9536F5
Accurately ripped (confidence 1) [F9C4E6DF] (AR v2)
Copy OK

Track 9

Filename F:\2005.Don Byas - Moon Nocturne (Quadromania, 4CD)\CD4\09. Cocktails For Two.wav

Pre-gap length 0:00:02.00

Peak level 100.0 %
Extraction speed 3.1 X
Track quality 100.0 %
Test CRC BC336B8B
Copy CRC BC336B8B
Accurately ripped (confidence 1) [CB65FAA6] (AR v2)
Copy OK

Track 10

Filename F:\2005.Don Byas - Moon Nocturne (Quadromania, 4CD)\CD4\10. Moon Nocturne.wav

Pre-gap length 0:00:02.00

Peak level 98.7 %
Extraction speed 2.8 X
Track quality 99.9 %
Test CRC 6D88F18C
Copy CRC 6D88F18C
Accurately ripped (confidence 1) [5E22A481] (AR v2)
Copy OK

Track 11

Filename F:\2005.Don Byas - Moon Nocturne (Quadromania, 4CD)\CD4\11. Sabla y Blu.wav

Pre-gap length 0:00:02.00

Peak level 100.0 %
Extraction speed 2.9 X
Track quality 99.9 %
Test CRC 4DB14AE2
Copy CRC 4DB14AE2
Accurately ripped (confidence 1) [66CDB79F] (AR v2)
Copy OK

Track 12

Filename F:\2005.Don Byas - Moon Nocturne (Quadromania, 4CD)\CD4\12. Blue and Sentimental.wav

Pre-gap length 0:00:02.00

Peak level 99.9 %
Extraction speed 3.3 X
Track quality 100.0 %
Test CRC A20411F5
Copy CRC A20411F5
Accurately ripped (confidence 1) [2304FD8B] (AR v2)
Copy OK

Track 13

Filename F:\2005.Don Byas - Moon Nocturne (Quadromania, 4CD)\CD4\13. Just One More Chance.wav

Pre-gap length 0:00:02.00

Peak level 99.9 %
Extraction speed 3.4 X
Track quality 100.0 %
Test CRC 451096E5
Copy CRC 451096E5
Accurately ripped (confidence 1) [D65CEF05] (AR v2)
Copy OK

Track 14

Filename F:\2005.Don Byas - Moon Nocturne (Quadromania, 4CD)\CD4\14. Just Blues.wav

Pre-gap length 0:00:02.00

Peak level 99.7 %
Extraction speed 2.9 X
Track quality 99.9 %
Test CRC C61B7A82
Copy CRC C61B7A82
Accurately ripped (confidence 1) [D0BB553F] (AR v2)
Copy OK

Track 15

Filename F:\2005.Don Byas - Moon Nocturne (Quadromania, 4CD)\CD4\15. Ain't Misbehavin'.wav

Pre-gap length 0:00:02.00

Peak level 100.0 %
Extraction speed 2.9 X
Track quality 99.9 %
Test CRC 9E3B4BC3
Copy CRC 9E3B4BC3
Accurately ripped (confidence 1) [0B78FBFB] (AR v2)
Copy OK

Track 16

Filename F:\2005.Don Byas - Moon Nocturne (Quadromania, 4CD)\CD4\16. You Can Depend On Me.wav

Pre-gap length 0:00:02.00

Peak level 99.4 %
Extraction speed 3.3 X
Track quality 100.0 %
Test CRC 88A533AE
Copy CRC 88A533AE
Accurately ripped (confidence 1) [BC6459F9] (AR v2)
Copy OK

Track 17

Filename F:\2005.Don Byas - Moon Nocturne (Quadromania, 4CD)\CD4\17. That Old Feeling.wav

Pre-gap length 0:00:02.00

Peak level 99.1 %
Extraction speed 2.7 X
Track quality 99.9 %
Test CRC C55882DE
Copy CRC C55882DE
Accurately ripped (confidence 1) [285BA09B] (AR v2)
Copy OK

Track 18

Filename F:\2005.Don Byas - Moon Nocturne (Quadromania, 4CD)\CD4\18. Don't Blame Me.wav

Pre-gap length 0:00:02.00

Peak level 100.0 %
Extraction speed 3.4 X
Track quality 100.0 %
Test CRC 7C0AF0F0
Copy CRC 7C0AF0F0
Accurately ripped (confidence 1) [32AC1BDD] (AR v2)
Copy OK


All tracks accurately ripped

No errors occurred

End of status report

==== Log checksum 9EC2C02657C73995E5ED185DC1D256E86FA968B7E12DB5735DF615DF3411AC60 ====

[CUETools log; Date: 10.06.2018 17:31:09; Version: 2.1.4]
[CTDB TOCID: dtFi8CO00aiNgxcfMMlOrWgvMK4-] found.
Track | CTDB Status
1 | (2/2) Accurately ripped
2 | (2/2) Accurately ripped
3 | (2/2) Accurately ripped
4 | (2/2) Accurately ripped
5 | (2/2) Accurately ripped
6 | (2/2) Accurately ripped
7 | (2/2) Accurately ripped
8 | (2/2) Accurately ripped
9 | (2/2) Accurately ripped
10 | (2/2) Accurately ripped
11 | (2/2) Accurately ripped
12 | (2/2) Accurately ripped
13 | (2/2) Accurately ripped
14 | (2/2) Accurately ripped
15 | (2/2) Accurately ripped
16 | (2/2) Accurately ripped
17 | (2/2) Accurately ripped
18 | (2/2) Accurately ripped
[AccurateRip ID: 0021d5e5-01c1f512-070c3212] found.
Track [ CRC | V2 ] Status
01 [507100de|714955f5] (0+4/4) Accurately ripped
02 [eea2d10a|c240be6f] (0+4/4) Accurately ripped
03 [465b7569|33bca8be] (0+4/4) Accurately ripped
04 [b10f55bf|441931a4] (0+4/4) Accurately ripped
05 [f4ac3c48|a3ec6776] (0+4/4) Accurately ripped
06 [e2958d5d|27e55214] (0+4/4) Accurately ripped
07 [da8cf4f4|555d2866] (0+4/4) Accurately ripped
08 [e67fef16|f9c4e6df] (0+4/4) Accurately ripped
09 [d3698b2f|cb65faa6] (0+4/4) Accurately ripped
10 [cbcadf97|5e22a481] (0+4/4) Accurately ripped
11 [3716129f|66cdb79f] (0+4/4) Accurately ripped
12 [72eedf7c|2304fd8b] (0+4/4) Accurately ripped
13 [ce47a5fb|d65cef05] (0+4/4) Accurately ripped
14 [70da5f74|d0bb553f] (0+4/4) Accurately ripped
15 [cf0040a6|0b78fbfb] (0+4/4) Accurately ripped
16 [fbb855d7|bc6459f9] (0+4/4) Accurately ripped
17 [a8e6cc1b|285ba09b] (0+4/4) Accurately ripped
18 [e4f9544d|32ac1bdd] (0+4/4) Accurately ripped

Track Peak [ CRC32 ] [W/O NULL] [ LOG ]
– 100,0 [6E244066] [D31A08C5]
01 99,9 [23ECBEAB] [CACFED74] CRC32
02 99,8 [7CED67B2] [935766E2] CRC32
03 99,9 [939A6CD0] [13E533CC] CRC32
04 100,0 [BCC752A4] [D9E31DAA] CRC32
05 100,0 [5D299C5B] [7F4F4696] CRC32
06 100,0 [4AD80740] [FFBE4D46] CRC32
07 100,0 [36F9B3B4] [6A540606] CRC32
08 100,0 [EA9536F5] [285B5B5D] CRC32
09 100,0 [BC336B8B] [04384ED6] CRC32
10 98,7 [6D88F18C] [E4C96E4C] CRC32
11 100,0 [4DB14AE2] [1F11FEDC] CRC32
12 99,9 [A20411F5] [681928E2] CRC32
13 99,9 [451096E5] [A6AF7816] CRC32
14 99,7 [C61B7A82] [1243A7DC] CRC32
15 100,0 [9E3B4BC3] [38D73795] CRC32
16 99,4 [88A533AE] [E26F0A84] CRC32
17 99,1 [C55882DE] [E1229535] CRC32
18 100,0 [7C0AF0F0] [E0A8060A] CRC32

Thanks to ssagwebster

See also: