Subcategories

Dong-Suk Kang - Sibelius: Violin Concerto (1990)

Posted By: tirexiss
Dong-Suk Kang - Sibelius: Violin Concerto (1990)

Dong-Suk Kang - Sibelius: Violin Concerto (1990)
EAC | FLAC (image+.cue, log) | Covers Included | 57:53 | 248 MB
Genre: Classical | Label: Naxos | Catalog: 8550329

The Sibelius violin concerto is a wonderful piece. And because great violin concertos don't grow on trees the work has been recorded by all of the top violinists. Dong-Suk Kang may not be as famous as Joshua Bell, but he handles this work with great skill. Scandanavian music broods a little and Kang has just the right hint of melancholgy. His technique to my ears is excellent and Naxos engineers have created a clean sound. The Slovakian orchestra holds its end up nicely.

The bonus are four shorter works for violin and orchestra by Scandanavian contemporaries of Sibelius. Most recordings of the Sibelius are paired with another war horse which is fine unless, like me, you find you don't need 12 copies of the Beethoven. Anway, the works on this disc are all splendid in the same brooding way that the Sibelius is and almost certainly will be unfamiliar. I strongly recommend this CD.

Dong-Suk Kang - Sibelius: Violin Concerto (1990)

Track List:

01. Sibelius - Violinkonzert d-moll op. 47, 1. Allegro moderato [0:15:56.10]
02. Sibelius - Violinkonzert d-moll op. 47, 2. Adagio di molto [0:07:53.73]
03. Sibelius - Violinkonzert d-moll op. 47, 3. Allegro ma non tanto [0:07:32.72]
04. Svendsen - Romanze op. 26 [0:07:09.03]
05. Halvorsen - Danses Norvégiennes [0:02:24.70]
06. Halvorsen - Danses Norvégiennes [0:02:18.72]
07. Sinding - Légende [0:07:39.05]
08. Halvorsen - Air Norvégien op. 7 [0:07:33.25]

Performers:
Dong-Suk Kang - violin
Czechoslovak Radio Symphony Orchestra (Bratislava)
Adrian Leaper - conductor

Exact Audio Copy V1.0 beta 3 from 29. August 2011

EAC extraction logfile from 14. July 2013, 18:05

Dong-Suk Kang / Sibelius - Violin Concerto; Svendsen, Halvorsen, Sinding - Dong-Suk Kang

Used drive : TSSTcorpCDDVDW SH-222BB Adapter: 2 ID: 1

Read mode : Secure
Utilize accurate stream : Yes
Defeat audio cache : Yes
Make use of C2 pointers : No

Read offset correction : 6
Overread into Lead-In and Lead-Out : No
Fill up missing offset samples with silence : Yes
Delete leading and trailing silent blocks : No
Null samples used in CRC calculations : Yes
Used interface : Native Win32 interface for Win NT & 2000

Used output format : User Defined Encoder
Selected bitrate : 1024 kBit/s
Quality : High
Add ID3 tag : No
Command line compressor : C:\Program Files\Exact Audio Copy\Flac\flac.exe
Additional command line options : -8 -V -T "TITLE=%title%" -T "ARTIST=%artist%" -T "ALBUMARTIST=%albumartist%" -T "ALBUM=%albumtitle%" -T "DATE=%year%" -T "TRACKNUMBER=%tracknr%" -T "TRACKTOTAL=%numtracks%" -T "GENRE=%genre%" -T "COMMENT=%comment%" -T "PERFORMER=%albuminterpret%" -T "COMPOSER=%composer%" %source% -o %dest%


TOC of the extracted CD

Track | Start | Length | Start sector | End sector
––––––––––––––––––––––––––––-
1 | 0:00.27 | 15:56.10 | 27 | 71736
2 | 15:56.37 | 7:53.73 | 71737 | 107284
3 | 23:50.35 | 7:32.72 | 107285 | 141256
4 | 31:23.32 | 7:09.03 | 141257 | 173434
5 | 38:32.35 | 2:24.70 | 173435 | 184304
6 | 40:57.30 | 2:18.72 | 184305 | 194726
7 | 43:16.27 | 7:39.05 | 194727 | 229156
8 | 50:55.32 | 7:33.25 | 229157 | 263156


Range status and errors

Selected range

Filename G:\Ripped general\[2297] Sibelius – Violin Concerto; Svendsen, Halvorsen, Sinding – Dong-Suk Kang\Sibelius - Violin Concerto; Svendsen, Halvorsen, Sinding - Dong-Suk Kang.wav

Peak level 82.4 %
Extraction speed 2.3 X
Range quality 100.0 %
Test CRC 9D1DCF03
Copy CRC 9D1DCF03
Copy OK

No errors occurred


AccurateRip summary

Track 1 accurately ripped (confidence 4) [6605CE7F] (AR v1)
Track 2 accurately ripped (confidence 4) [ABF3970D] (AR v1)
Track 3 accurately ripped (confidence 4) [A0FD937E] (AR v1)
Track 4 accurately ripped (confidence 3) [2E8BF959] (AR v1)
Track 5 accurately ripped (confidence 3) [0BC9EB22] (AR v1)
Track 6 accurately ripped (confidence 3) [BE86D457] (AR v1)
Track 7 accurately ripped (confidence 3) [3FBF6575] (AR v1)
Track 8 accurately ripped (confidence 3) [1935FB8B] (AR v1)

All tracks accurately ripped

End of status report

Thanks to the Original ripper (unknown)!

Welcome to my blog!

Download: