Subcategories

Evelino Pido, Orchester der Wiener Staatsoper, Anna Netrebko, Elina Garanca - Donizetti: Anna Bolena (2011) [Blu-Ray]

Posted By: Vilboa
Evelino Pido, Orchester der Wiener Staatsoper, Anna Netrebko, Elina Garanca - Donizetti: Anna Bolena (2011) [Blu-Ray]

Evelino Pido, Orchester der Wiener Staatsoper, Anna Netrebko, Elina Garanca - Donizetti: Anna Bolena (2011) [Blu-Ray]
BluRay | BDMV | MPEG-4 AVC Video / 1080i / 29,970 fps | 193 min | 41.6 Gb
Audio1: Italiano / LPCM 2.0 / 24-bit | Audio2: DTS-HD MA / 5.0 / 48 kHz / 16-bit
––––––
BluRay-rip | AVC | MKV 1920x1080 / 6215 kbps / 29,97 fps | 193 min | 13,6 Gb
Audio: Italiano / PCM / 2ch / 48.0 KHz / 24 bits | DTS / 5ch / 48.0 KHz / 16 bits
Classical | Deutsche Grammophon | Sub: Italian, English, German, French, Spanish

With her sensational role debut at the Vienna State Opera, superstar diva Anna Netrebko displays a performance of rare vocal and dramatic power. The Russian soprano sings the role of the unjustly accused second wife of British King Henry VIII, ‘veering between indignant fury and tender righteousness’ and demonstrating a new level of confidence in her technique with excellent ‘passagework, particularly in trills, and seamless runs even to the lowest notes’ (Opera News).
The performance also stars DG mezzo-soprano Elīna Garanča, in ‘a fantastic display of bel canto’ (Opera News) as Anna's rival Giovanna Seymour. Ildebrando D’Arcangelo brings his beautifully dark tone to the role of Enrico and young Italian tenor Francesco Meli sings the demanding role of Lord Percy with a ‘youthful virility’ (Agence France Press), promising great things for the future. On the podium Evelino Pidò 'drew playing of unusual precision and refinement…making every note matter' (Financial Times)

Cast:
Enrico VIII - Ildebrando D'Arcangelo
Anna Bolena - Anna Netrebko
Giovanna Seymour - Elīna Garanča
Lord Rochefort - Dan Paul Dumitrescu
Lord Riccardo Percy - Francesco Meli
Smeton - Elisabeth Kulman
Sir Hervey - Peter Jelosits
Chor und Orchester der Wiener Staatsoper
Conductor - Evelino Pidò


General
ID : 0 (0x0)
Complete name : D:\ANNA BOLENA\BDMV\STREAM\00001.m2ts
Format : BDAV
Format/Info : Blu-ray Video
File size : 19.8 GiB
Duration : 1h 33mn
Overall bit rate mode : Variable
Overall bit rate : 30.2 Mbps
Maximum Overall bit rate : 48.0 Mbps

Video
ID : 4113 (0x1011)
Menu ID : 1 (0x1)
Format : AVC
Format/Info : Advanced Video Codec
Format profile : High@L4.1
Format settings, CABAC : Yes
Format settings, ReFrames : 4 frames
Codec ID : 27
Duration : 1h 33mn
Bit rate mode : Variable
Maximum bit rate : 31.0 Mbps
Width : 1 920 pixels
Height : 1 080 pixels
Display aspect ratio : 16:9
Frame rate : 29.970 fps
Color space : YUV
Chroma subsampling : 4:2:0
Bit depth : 8 bits
Scan type : MBAFF

Audio #1
ID : 4352 (0x1100)
Menu ID : 1 (0x1)
Format : DTS
Format/Info : Digital Theater Systems
Format profile : MA / Core
Mode : 16
Format settings, Endianness : Big
Muxing mode : Stream extension
Codec ID : 134
Duration : 1h 33mn
Bit rate mode : Variable
Bit rate : Unknown / 1 509 Kbps
Channel(s) : 5 channels
Channel positions : Front: L C R, Side: L R
Sampling rate : 48.0 KHz
Bit depth : 16 bits
Compression mode : Lossless / Lossy

Audio #2
ID : 4353 (0x1101)
Menu ID : 1 (0x1)
Format : PCM
Format settings, Endianness : Big
Format settings, Sign : Signed
Muxing mode : Blu-ray
Codec ID : 128
Duration : 1h 33mn
Bit rate mode : Constant
Bit rate : 2 304 Kbps
Channel(s) : 2 channels
Channel positions : Front: L R
Sampling rate : 48.0 KHz
Bit depth : 24 bits
Stream size : 1.51 GiB (8%)

Text #1
ID : 4608 (0x1200)
Menu ID : 1 (0x1)
Format : PGS
Codec ID : 144

Text #2
ID : 4609 (0x1201)
Menu ID : 1 (0x1)
Format : PGS
Codec ID : 144

Text #3
ID : 4610 (0x1202)
Menu ID : 1 (0x1)
Format : PGS
Codec ID : 144

Text #4
ID : 4611 (0x1203)
Menu ID : 1 (0x1)
Format : PGS
Codec ID : 144

Text #5
ID : 4612 (0x1204)
Menu ID : 1 (0x1)
Format : PGS
Codec ID : 144


General
Unique ID : 183689357277930185861063123702585514987 (0x8A31488A96763E4EAAC90C1354785BEB)
Complete name : C:\Anna Bolena.mkv
Format : Matroska
Format version : Version 2
File size : 13.6 GiB
Duration : 3h 13mn
Overall bit rate : 10.1 Mbps
Movie name : Anna Bolena
Encoded date : UTC 2020-03-22 12:02:51
Writing application : DVDFab 9.1.6.8
Writing library : libebml v0.7.8 + libmatroska v0.8.1

Video
ID : 1
Format : AVC
Format/Info : Advanced Video Codec
Format profile : High@L4.1
Format settings, CABAC : Yes
Format settings, ReFrames : 2 frames
Codec ID : V_MPEG4/ISO/AVC
Duration : 3h 13mn
Nominal bit rate : 6 215 Kbps
Width : 1 920 pixels
Height : 1 080 pixels
Display aspect ratio : 16:9
Frame rate mode : Constant
Frame rate : 29.970 fps
Color space : YUV
Chroma subsampling : 4:2:0
Bit depth : 8 bits
Scan type : Progressive
Bits/(Pixel*Frame) : 0.100
Writing library : x264 core 142
Encoding settings : cabac=1 / ref=1 / deblock=1:-1:-1 / analyse=0x3:0 / me=hex / subme=5 / psy=0 / mixed_ref=0 / me_range=16 / chroma_me=1 / trellis=0 / 8x8dct=1 / cqm=0 / deadzone=21,11 / fast_pskip=1 / chroma_qp_offset=0 / threads=8 / lookahead_threads=2 / sliced_threads=0 / nr=0 / decimate=1 / interlaced=0 / bluray_compat=0 / constrained_intra=0 / bframes=2 / b_pyramid=0 / b_adapt=1 / b_bias=0 / direct=1 / weightb=1 / open_gop=0 / weightp=0 / keyint=24 / keyint_min=13 / scenecut=40 / intra_refresh=0 / rc=abr / mbtree=0 / bitrate=6215 / ratetol=1.0 / qcomp=0.60 / qpmin=0 / qpmax=69 / qpstep=4 / ip_ratio=1.40 / pb_ratio=1.30 / aq=1:1.00
Default : Yes
Forced : No
Color primaries : BT.709
Transfer characteristics : BT.709
Matrix coefficients : BT.709
Color range : Limited

Audio #1
ID : 2
Format : DTS
Format/Info : Digital Theater Systems
Mode : 16
Format settings, Endianness : Big
Codec ID : A_DTS
Duration : 3h 13mn
Bit rate mode : Constant
Bit rate : 1 509 Kbps
Channel(s) : 5 channels
Channel positions : Front: L C R, Side: L R
Sampling rate : 48.0 KHz
Bit depth : 16 bits
Compression mode : Lossy
Stream size : 2.04 GiB (15%)
Language : Italian
Default : Yes
Forced : No

Audio #2
ID : 3
Format : PCM
Codec ID : A_PCM/INT/LIT
Duration : 3h 13mn
Bit rate mode : Constant
Channel(s) : 2 channels
Sampling rate : 48.0 KHz
Bit depth : 24 bits
Language : Italian
Default : No
Forced : No

Text #1
ID : 4
Format : VobSub
Codec ID : S_VOBSUB
Codec ID/Info : The same subtitle format used on DVDs
Language : Italian
Default : Yes
Forced : No

Text #2
ID : 5
Format : VobSub
Codec ID : S_VOBSUB
Codec ID/Info : The same subtitle format used on DVDs
Language : English
Default : No
Forced : No

Text #3
ID : 6
Format : VobSub
Codec ID : S_VOBSUB
Codec ID/Info : The same subtitle format used on DVDs
Language : German
Default : No
Forced : No

Text #4
ID : 7
Format : VobSub
Codec ID : S_VOBSUB
Codec ID/Info : The same subtitle format used on DVDs
Language : French
Default : No
Forced : No

Text #5
ID : 8
Format : VobSub
Codec ID : S_VOBSUB
Codec ID/Info : The same subtitle format used on DVDs
Language : Spanish
Default : No
Forced : No

Menu
00:00:00.000 : en:Chapter 01
00:01:29.989 : en:Chapter 02
00:08:30.977 : en:Chapter 03
00:11:21.180 : en:Chapter 04
00:13:37.183 : en:Chapter 05
00:16:06.966 : en:Chapter 06
00:19:03.041 : en:Chapter 07
00:21:45.570 : en:Chapter 08
00:24:44.983 : en:Chapter 09
00:29:52.590 : en:Chapter 10
00:34:11.582 : en:Chapter 11
00:36:59.984 : en:Chapter 12
00:40:45.976 : en:Chapter 13
00:44:07.177 : en:Chapter 14
00:46:55.979 : en:Chapter 15
00:49:08.979 : en:Chapter 16
00:53:12.989 : en:Chapter 17
00:56:44.968 : en:Chapter 18
00:58:15.492 : en:Chapter 19
01:00:46.275 : en:Chapter 20
01:04:38.975 : en:Chapter 21
01:07:23.973 : en:Chapter 22
01:09:59.828 : en:Chapter 23
01:13:15.090 : en:Chapter 24
01:17:11.627 : en:Chapter 25
01:21:34.422 : en:Chapter 26
01:23:56.965 : en:Chapter 27
01:28:06.581 : en:Chapter 28
01:33:39.480 : en:Chapter 29
01:38:46.787 : en:Chapter 30
01:41:07.461 : en:Chapter 31
01:48:00.273 : en:Chapter 32
01:51:07.127 : en:Chapter 33
01:53:49.789 : en:Chapter 34
01:57:56.936 : en:Chapter 35
02:02:20.566 : en:Chapter 36
02:07:37.249 : en:Chapter 37
02:13:36.241 : en:Chapter 38
02:15:36.661 : en:Chapter 39
02:19:54.452 : en:Chapter 40
02:23:01.472 : en:Chapter 41
02:25:20.445 : en:Chapter 42
02:28:18.689 : en:Chapter 43
02:30:26.450 : en:Chapter 44
02:34:29.860 : en:Chapter 45
02:36:48.465 : en:Chapter 46
02:43:11.448 : en:Chapter 47
02:48:20.457 : en:Chapter 48
02:53:53.055 : en:Chapter 49
02:58:25.661 : en:Chapter 50
03:02:27.670 : en:Chapter 51
03:10:28.650 : en:Chapter 52

All screenshots taken from BDRip

Evelino Pido, Orchester der Wiener Staatsoper, Anna Netrebko, Elina Garanca - Donizetti: Anna Bolena (2011) [Blu-Ray]