Subcategories

Dorothee Mields, Michi Gaigg, L'Orfeo Barockorchester - Hoffnung des Wiedersehens: Telemann Arias (2012)

Posted By: ArlegZ
Dorothee Mields, Michi Gaigg, L'Orfeo Barockorchester - Hoffnung des Wiedersehens: Telemann Arias (2012)

Dorothee Mields, Michi Gaigg, L'Orfeo Barockorchester - Hoffnung des Wiedersehens: Telemann Arias (2012)
EAC | FLAC | Image (Cue & Log) ~ 342 Mb | Total time: 68:52 | Scans included
Classical | Label: Deutsche Harmonia Mundi | # 88697901822 | Recorded: 2011

The crystal clear quality of Dorothee Mields’s singing has already graced many albums of German mid- to late-Baroque music. Her vocal quality, secure intonation and tasteful use of ornamentation characterise performances that are further enhanced by her sensibility to music and text alike.
This attractive disc is no mere litany of arias extracted from larger works, but a thoughtfully constructed programme in which two instrumental concertos and a secular cantata are interspersed with shorter vocal items. The concertos are for violin and oboe d’amore respectively, and appeal for their rhythmic vitality and idiomatic writing. Telemann was a competent performer on both instruments and he knew very well how to draw on their strengths. Soloists Martin Jopp (violin) and Carin van Heerden (oboe d’amore) are fluent advocates for infrequently encountered pieces and they are given lively support by L’Orfeo Barockorchester under Michi Gaigg’s direction.
The recital, though, is really Mields’s show, its high point perhaps being the cantata Die Hoffnung des Wiedersehens that lends the disc its title. Three colourfully contrasted arias, one of them accompanied by two bassoons, provide an idyllic picture of yearning love, for which Telemann had a hand in writing the text. A delight from start to finish.
–Nicholas Anderson

Performer:
Dorothee Mields, soprano
Martin Jopp, violin
Carin Heerden, oboe d'amore
L'Orfeo Barockorchester
Michi Gaigg, conductor

Track List:
Concerto in D Major for Violin, Strings and Continuo from Nebucadnezar, TVWV 22:6
01. I. Allegro
02. II. Andante
03. III. Tempo de Menuet
04. Vernunft, Geduldt und Zeit (from Nebucadnezar TVWV 22:6)
05. Nebucadnezar, TVWV 22:6: Stirbt mein Geist durch dein Verlangen
06. Mein Vergnügen wird sich fügen, TVWV 20:18
Die Hoffnung des Wiedersehens - Cantata, TWV 20:70
07. I. Süße Hoffnung, wenn ich frage
08. II. Mein Herz verging in tausend Sorgen (Rec.)
09. III. Kehre wieder, mein Vergnügen
10. IV. Ja, ja! Ich sehe schon die Sonne meiner Lust (Rec.)
11. V. Bald, bald hoff' ich zu sehen
Concerto in E minor for Oboe d'amore, Strings and B.c., TWV 51:e2
12. I. Allegro
13. II. Andante
14. III. Allegro
15. Fließen nichts als bitt're Tränen (from Janus, TVWV 22:7)
16. Quillt, ihr überhäuften Zähren (from Almira, TVWV 22:13)
17. Weine nur, gkränkte Seele (from Richardus I., TVWV 22:8)
18. Genug, genug geklaget (from Richardus I., TVWV 22:8)
19. Kannst du wohl was an mir finden (from Omphale, TVWV 21:14)
20. Ein tröstendes Hoffen auf freudige Stunden (from Omphale, TVWV 21:14)
21. Omphale, TVWV 21:14: Die Liebe sieget alle Zeit
22. Violin Concerto, TWV 51:D10: II. Allegro


Exact Audio Copy V1.3 from 2. September 2016

EAC extraction logfile from 11. February 2020, 9:27

Dorothee Mields / Hoffnung des Wiedersehens

Used drive : hp DVD-RAM GH82N Adapter: 1 ID: 0

Read mode : Secure
Utilize accurate stream : Yes
Defeat audio cache : Yes
Make use of C2 pointers : No

Read offset correction : 667
Overread into Lead-In and Lead-Out : No
Fill up missing offset samples with silence : Yes
Delete leading and trailing silent blocks : No
Null samples used in CRC calculations : Yes
Used interface : Native Win32 interface for Win NT & 2000

Used output format : User Defined Encoder
Selected bitrate : 1024 kBit/s
Quality : High
Add ID3 tag : No
Command line compressor : C:\Program Files (x86)\Exact Audio Copy\FLAC\FLAC.EXE
Additional command line options : -6 -V -T "ARTIST=%artist%" -T "TITLE=%title%" -T "ALBUM=%albumtitle%" -T "DATE=%year%" -T "TRACKNUMBER=%tracknr%" -T "GENRE=%genre%" -T "COMMENT=%comment%" -T "BAND=%albuminterpret%" -T "ALBUMARTIST=%albuminterpret%" -T "COMPOSER=%composer%" %haslyrics%–tag-from-file=LYRICS="%lyricsfile%"%haslyrics% -T "DISCNUMBER=%cdnumber%" -T "TOTALDISCS=%totalcds%" -T "TOTALTRACKS=%numtracks%" %hascover%–picture="%coverfile%"%hascover% %source% -o %dest%


TOC of the extracted CD

Track | Start | Length | Start sector | End sector
––––––––––––––––––––––––––––-
1 | 0:00.02 | 4:16.72 | 2 | 19273
2 | 4:16.74 | 2:34.14 | 19274 | 30837
3 | 6:51.13 | 1:18.05 | 30838 | 36692
4 | 8:09.18 | 5:15.25 | 36693 | 60342
5 | 13:24.43 | 6:11.55 | 60343 | 88222
6 | 19:36.23 | 3:35.74 | 88223 | 104421
7 | 23:12.22 | 3:22.70 | 104422 | 119641
8 | 26:35.17 | 0:34.46 | 119642 | 122237
9 | 27:09.63 | 1:44.71 | 122238 | 130108
10 | 28:54.59 | 0:39.59 | 130109 | 133092
11 | 29:34.43 | 2:02.31 | 133093 | 142273
12 | 31:36.74 | 2:50.06 | 142274 | 155029
13 | 34:27.05 | 1:28.46 | 155030 | 161675
14 | 35:55.51 | 2:16.12 | 161676 | 171887
15 | 38:11.63 | 3:52.57 | 171888 | 189344
16 | 42:04.45 | 5:41.15 | 189345 | 214934
17 | 47:45.60 | 3:11.40 | 214935 | 229299
18 | 50:57.25 | 3:37.48 | 229300 | 245622
19 | 54:34.73 | 3:48.72 | 245623 | 262794
20 | 58:23.70 | 3:20.74 | 262795 | 277868
21 | 61:44.69 | 2:50.01 | 277869 | 290619
22 | 64:34.70 | 4:17.39 | 290620 | 309933


Range status and errors

Selected range

Filename C:\rips\Dorothee Mields - Hoffnung des Wiedersehens.wav

Peak level 95.4 %
Extraction speed 3.2 X
Range quality 100.0 %
Test CRC 8629D8AC
Copy CRC 8629D8AC
Copy OK

No errors occurred


AccurateRip summary

Track 1 accurately ripped (confidence 13) [E842F462] (AR v2)
Track 2 accurately ripped (confidence 13) [3396E72A] (AR v2)
Track 3 accurately ripped (confidence 13) [2A1F43D6] (AR v2)
Track 4 accurately ripped (confidence 13) [D37E4C82] (AR v2)
Track 5 accurately ripped (confidence 13) [8655B376] (AR v2)
Track 6 accurately ripped (confidence 13) [356CB6AB] (AR v2)
Track 7 accurately ripped (confidence 13) [038F8CC9] (AR v2)
Track 8 accurately ripped (confidence 13) [3AD75D97] (AR v2)
Track 9 accurately ripped (confidence 13) [E3179C48] (AR v2)
Track 10 accurately ripped (confidence 13) [05484D4D] (AR v2)
Track 11 accurately ripped (confidence 13) [CF49D101] (AR v2)
Track 12 accurately ripped (confidence 13) [37688691] (AR v2)
Track 13 accurately ripped (confidence 13) [8AE249D4] (AR v2)
Track 14 accurately ripped (confidence 13) [A7C169A4] (AR v2)
Track 15 accurately ripped (confidence 13) [CD577A7A] (AR v2)
Track 16 accurately ripped (confidence 13) [54FE88DF] (AR v2)
Track 17 accurately ripped (confidence 13) [F3ABC161] (AR v2)
Track 18 accurately ripped (confidence 13) [99C5D1CB] (AR v2)
Track 19 accurately ripped (confidence 13) [07092A56] (AR v2)
Track 20 accurately ripped (confidence 13) [3F38CD0D] (AR v2)
Track 21 accurately ripped (confidence 13) [AE3B4316] (AR v2)
Track 22 accurately ripped (confidence 13) [BAD09C39] (AR v2)

All tracks accurately ripped

End of status report

–– CUETools DB Plugin V2.1.6

[CTDB TOCID: ODz3GuMgmlmZTyPgg3tgJNdFHDk-] found
Submit result: ODz3GuMgmlmZTyPgg3tgJNdFHDk- has been confirmed
Track | CTDB Status
1 | (14/14) Accurately ripped
2 | (14/14) Accurately ripped
3 | (14/14) Accurately ripped
4 | (14/14) Accurately ripped
5 | (14/14) Accurately ripped
6 | (14/14) Accurately ripped
7 | (14/14) Accurately ripped
8 | (14/14) Accurately ripped
9 | (14/14) Accurately ripped
10 | (14/14) Accurately ripped
11 | (14/14) Accurately ripped
12 | (14/14) Accurately ripped
13 | (14/14) Accurately ripped
14 | (14/14) Accurately ripped
15 | (14/14) Accurately ripped
16 | (14/14) Accurately ripped
17 | (14/14) Accurately ripped
18 | (14/14) Accurately ripped
19 | (14/14) Accurately ripped
20 | (14/14) Accurately ripped
21 | (14/14) Accurately ripped
22 | (14/14) Accurately ripped


==== Log checksum FF9970599FCA298A185608B041F7AD27EC39B1239F712A06EC6F4EC8C95FFAC0 ====

Dorothee Mields, Michi Gaigg, L'Orfeo Barockorchester - Hoffnung des Wiedersehens: Telemann Arias (2012)

Thanks to the original releaser