Tags
Language
Tags

Dorothee Mields, Simone Eckert, Hamburger Ratsmusik - Johann Philipp Krieger: Musicalischer Seelen-Frieden (2013)

Posted By: ArlegZ
Dorothee Mields, Simone Eckert, Hamburger Ratsmusik - Johann Philipp Krieger: Musicalischer Seelen-Frieden (2013)

Dorothee Mields, Simone Eckert, Hamburger Ratsmusik - Johann Philipp Krieger: Musicalischer Seelen-Frieden (2013)
EAC | FLAC | Image (Cue & Log) ~ 322 Mb | Total time: 58:54 | Scans included
Classical | Label: Carus | # 83.372 | Recorded: 2012

On the CD Musicalischer Seelen-Frieden Dorothee Mields and the ensemble Hamburger Ratsmusik present several of the most beautiful solo cantatas of the baroque composer Johann Philipp Krieger. Krieger understood how to unite French and Italian elements of style in his music and thus as a composer he was an important role model for the generation in which Bach and Telemann were active. His altogether twenty sacred concertos from the collection "Musikalischer Seelen-Friede", the only edition of Krieger’s sacred music, which was printed in 1990 and 1996, are among the most important contributions to this important genre in his time. Four of these concertos are recorded here for the first time. Some of his most important trios sonatas for violin, viola and basso continuo round out the CD.

Performer:
Dorothee Mields, soprano
Hamburger Ratsmusik
Simone Eckert, conductor

Track List:
01. Herr Auf Dich Trau Ich, Für Sopran, 2 Violinen Und Basso Continuo (Psalm 31)
Sonata Sesta à Doi A-Moll, Op. 2, Für Violine, Viola Da Gamba Und Basso Continuo
02. Largo - Adagio
03. Vivace - Adagio - Presto - Adagio
04. Giaccona - Allegro
05. Es Stehe Gott Auf, Für Sopran, 2 Violinen Und Basso Continuo (Psalm 68)
Sonata Quarta à Doi F-Dur, Op. 2, Für Violine, Viola Da Gamba Und Basso Continuo
06. Arioso
07. Largo
08. Presto
09. Adagio
10. Allegro
11. Gott, Man Lobet Dich In Der Stille, Für Sopran, 2 Violinen Und Basso Continuo (Psalm 65)
Sonata Quinta à Doi G-Dur, Op. 2, Für Violine, Viola Da Gamba Und Basso Continuo
12. Allegro - Adagio
13. Allegro - Adagio
14. Allegro - Presto
15. Courante
16. Ecce Nunc Benedicite Domino, Für Sopran, 2 Violinen Und Basso Continuo (Psalm 134)


Exact Audio Copy V1.0 beta 3 from 29. August 2011

EAC extraction logfile from 21. November 2013, 21:56

Dorothee Mields, Hamburger Ratsmusik, Simone Eckert / Krieger - Musicalischer Seelen-Frieden

Used drive : SlimtypeDVD A DS8A4SH Adapter: 0 ID: 0

Read mode : Secure
Utilize accurate stream : Yes
Defeat audio cache : Yes
Make use of C2 pointers : No

Read offset correction : 6
Overread into Lead-In and Lead-Out : No
Fill up missing offset samples with silence : Yes
Delete leading and trailing silent blocks : No
Null samples used in CRC calculations : Yes
Used interface : Native Win32 interface for Win NT & 2000

Used output format : User Defined Encoder
Selected bitrate : 768 kBit/s
Quality : High
Add ID3 tag : No
Command line compressor : C:\Program Files (x86)\Exact Audio Copy\FLAC\FLAC.EXE
Additional command line options : -6 -V -T "ARTIST=%artist%" -T "TITLE=%title%" -T "ALBUM=%albumtitle%" -T "DATE=%year%" -T "TRACKNUMBER=%tracknr%" -T "GENRE=%genre%" -T "COMMENT=%comment%" -T "BAND=%albuminterpret%" -T "ALBUMARTIST=%albuminterpret%" -T "COMPOSER=%composer%" %haslyrics%–tag-from-file=LYRICS="%lyricsfile%"%haslyrics% -T "DISCNUMBER=%cdnumber%" -T "TOTALDISCS=%totalcds%" -T "TOTALTRACKS=%numtracks%" %hascover%–picture="%coverfile%"%hascover% %source% -o %dest%


TOC of the extracted CD

Track | Start | Length | Start sector | End sector
––––––––––––––––––––––––––––-
1 | 0:00.00 | 12:33.73 | 0 | 56547
2 | 12:33.73 | 2:52.45 | 56548 | 69492
3 | 15:26.43 | 2:49.32 | 69493 | 82199
4 | 18:16.00 | 2:12.17 | 82200 | 92116
5 | 20:28.17 | 6:56.01 | 92117 | 123317
6 | 27:24.18 | 2:31.32 | 123318 | 134674
7 | 29:55.50 | 2:57.13 | 134675 | 147962
8 | 32:52.63 | 1:18.24 | 147963 | 153836
9 | 34:11.12 | 0:28.41 | 153837 | 155977
10 | 34:39.53 | 1:24.33 | 155978 | 162310
11 | 36:04.11 | 10:25.30 | 162311 | 209215
12 | 46:29.41 | 1:35.74 | 209216 | 216414
13 | 48:05.40 | 1:41.06 | 216415 | 223995
14 | 49:46.46 | 1:35.70 | 223996 | 231190
15 | 51:22.41 | 1:04.35 | 231191 | 236025
16 | 52:27.01 | 6:25.13 | 236026 | 264913


Range status and errors

Selected range

Filename M:\music\Carus83.372\Krieger.wav

Peak level 97.3 %
Extraction speed 4.4 X
Range quality 99.9 %
Test CRC B0F5219B
Copy CRC B0F5219B
Copy OK

No errors occurred


AccurateRip summary

Track 1 accurately ripped (confidence 1) [1241FD77] (AR v2)
Track 2 accurately ripped (confidence 1) [2552BB44] (AR v2)
Track 3 accurately ripped (confidence 1) [140419A8] (AR v2)
Track 4 accurately ripped (confidence 1) [E3801FBA] (AR v2)
Track 5 accurately ripped (confidence 1) [5C7DCDE8] (AR v2)
Track 6 accurately ripped (confidence 1) [528156FB] (AR v2)
Track 7 accurately ripped (confidence 1) [E6A08765] (AR v2)
Track 8 accurately ripped (confidence 1) [3630EBC3] (AR v2)
Track 9 accurately ripped (confidence 1) [F69A00CB] (AR v2)
Track 10 accurately ripped (confidence 1) [0B08A553] (AR v2)
Track 11 accurately ripped (confidence 1) [A2A5A133] (AR v2)
Track 12 accurately ripped (confidence 1) [6A0B80B2] (AR v2)
Track 13 accurately ripped (confidence 1) [2A1F0E22] (AR v2)
Track 14 accurately ripped (confidence 1) [A07E62B7] (AR v2)
Track 15 accurately ripped (confidence 1) [7C92FF84] (AR v2)
Track 16 accurately ripped (confidence 1) [D1D00360] (AR v2)

All tracks accurately ripped

End of status report

–– CUETools DB Plugin V2.1.3

[CTDB TOCID: .MhI6lqNJ_WyjAb6ghUUbQE3sec-] disk not present in database, Submit result: .MhI6lqNJ_WyjAb6ghUUbQE3sec- has been uploaded


==== Log checksum 6ACCCB41619D393D83BCDC1565479C9D26717C8A986BCC6A684A9CE0CB962D79 ====

Dorothee Mields, Simone Eckert, Hamburger Ratsmusik - Johann Philipp Krieger: Musicalischer Seelen-Frieden (2013)

Thanks to the original releaser