Dream Theater - Metropolis Part 1... Live (2016)

Posted By: v3122
Dream Theater - Metropolis Part 1... Live (2016)

Dream Theater - Metropolis Part 1… Live (2016)
EAC | Flac(Image) + Cue + Log & MP3 CBR 320Kbps
2CD | Klondike, KL2CD5051 | ~ 756 or 246 Mb | Scans(jpg) -> 101 Mb
Progressive Metal

~ Dream Theater, live from the Lazer 103 rock stage at Summerfest, Milwaukee on 29th June 1993 ~

Dream Theater - Metropolis Part 1... Live (2016)


Dream Theater - Metropolis Part 1… Live (2016):

Dream Theater - Metropolis Part 1... Live (2016)

Tracklist CD1:

01. DJ Intro (00:25)
02. Metropolis Part 1 (10:04)
03. Under A Glass Moon (07:53)
04. A Fortune In Lies (05:33)
05. Wait For Sleep - Surrounded (09:07)
06. Puppies On Acid - Take The Time (12:57)

Exact Audio Copy V1.1 from 23. June 2015

EAC extraction logfile from 2. August 2017, 15:45

Dream Theater / Metropolis Part 1… Live (Summerfest Milwaukee June '93) CD 1

Used drive : HL-DT-STBD-RE WH16NS40 Adapter: 6 ID: 0

Read mode : Secure
Utilize accurate stream : Yes
Defeat audio cache : Yes
Make use of C2 pointers : No

Read offset correction : 6
Overread into Lead-In and Lead-Out : No
Fill up missing offset samples with silence : Yes
Delete leading and trailing silent blocks : No
Null samples used in CRC calculations : Yes
Used interface : Installed external ASPI interface

Used output format : Internal WAV Routines
Sample format : 44.100 Hz; 16 Bit; Stereo


TOC of the extracted CD

Track | Start | Length | Start sector | End sector
––––––––––––––––––––––––––––-
1 | 0:00.00 | 0:25.23 | 0 | 1897
2 | 0:25.23 | 10:04.30 | 1898 | 47227
3 | 10:29.53 | 7:52.38 | 47228 | 82665
4 | 18:22.16 | 5:32.64 | 82666 | 107629
5 | 23:55.05 | 9:06.43 | 107630 | 148622
6 | 33:01.48 | 12:56.73 | 148623 | 206895


Range status and errors

Selected range

Filename Z:\data\hexonut\Seeding\Dream Theater\Bootlegs\2016-Metropolis Part 1… Live (Summerfest Milwaukee June '93)\Metropolis Part 1… Live (Summerfest Milwaukee June '93) CD 1.wav

Peak level 91.7 %
Extraction speed 6.9 X
Range quality 99.9 %
Test CRC 4CA50E1C
Copy CRC 4CA50E1C
Copy OK

No errors occurred


AccurateRip summary

Track 1 accurately ripped (confidence 1) [EEB58E70] (AR v2)
Track 2 accurately ripped (confidence 1) [02F88499] (AR v2)
Track 3 accurately ripped (confidence 1) [664466A7] (AR v2)
Track 4 accurately ripped (confidence 1) [B2562A85] (AR v2)
Track 5 accurately ripped (confidence 1) [DB98189F] (AR v2)
Track 6 accurately ripped (confidence 1) [7B84C53F] (AR v2)

All tracks accurately ripped

End of status report

==== Log checksum DE0B61C4EB6340CF427EEBEA8552BE6C01915DC76E65AF8DF91F352DC71C3950 ====


[CUETools log; Date: 17.08.2017 22:01:42; Version: 2.1.4]
[CTDB TOCID: dMuf.piDtQKOHVSXw52O1a6yr8Y-] found.
Track | CTDB Status
1 | (1/1) Accurately ripped
2 | (1/1) Accurately ripped
3 | (1/1) Accurately ripped
4 | (1/1) Accurately ripped
5 | (1/1) Accurately ripped
6 | (1/1) Accurately ripped
[AccurateRip ID: 000913fd-00332ec1-3f0ac606] found.
Track [ CRC | V2 ] Status
01 [491cde06|eeb58e70] (0+1/1) Accurately ripped
02 [7da5c391|02f88499] (0+1/1) Accurately ripped
03 [0ab09c6a|664466a7] (0+1/1) Accurately ripped
04 [4455a434|b2562a85] (0+1/1) Accurately ripped
05 [1680db78|db98189f] (0+1/1) Accurately ripped
06 [32158ceb|7b84c53f] (0+1/1) Accurately ripped

Track Peak [ CRC32 ] [W/O NULL] [ LOG ]
– 91,7 [4CA50E1C] [036F8F2F] CRC32
01 91,7 [B60026D7] [758B85F8]
02 91,7 [D59A3F19] [27854899]
03 91,7 [88C1C288] [AC20A925]
04 91,7 [F6D8ACA6] [62FA8C18]
05 91,7 [B6CFB5DF] [BB096A8F]
06 91,7 [76AB7C00] [C43B18BF]


Dream Theater - Metropolis Part 1... Live (2016)

Tracklist CD2:

01. To Live Forever / Drum Solo (18:36)
02. Status Seeker (04:52)
03. Another Day (05:09)
04. Pull Me Under (10:10)
05. Jam (04:49)
06. Learning To Live (13:57)
07. DJ Outro (00:19)

Exact Audio Copy V1.1 from 23. June 2015

EAC extraction logfile from 2. August 2017, 16:13

Dream Theater / Metropolis Part 1… Live (Summerfest Milwaukee June '93) CD 2

Used drive : HL-DT-STBD-RE WH16NS40 Adapter: 6 ID: 0

Read mode : Secure
Utilize accurate stream : Yes
Defeat audio cache : Yes
Make use of C2 pointers : No

Read offset correction : 6
Overread into Lead-In and Lead-Out : No
Fill up missing offset samples with silence : Yes
Delete leading and trailing silent blocks : No
Null samples used in CRC calculations : Yes
Used interface : Installed external ASPI interface

Used output format : Internal WAV Routines
Sample format : 44.100 Hz; 16 Bit; Stereo


TOC of the extracted CD

Track | Start | Length | Start sector | End sector
––––––––––––––––––––––––––––-
1 | 0:00.00 | 18:36.29 | 0 | 83728
2 | 18:36.29 | 4:52.21 | 83729 | 105649
3 | 23:28.50 | 5:09.10 | 105650 | 128834
4 | 28:37.60 | 10:10.22 | 128835 | 174606
5 | 38:48.07 | 4:48.40 | 174607 | 196246
6 | 43:36.47 | 13:57.13 | 196247 | 259034
7 | 57:33.60 | 0:19.01 | 259035 | 260460


Range status and errors

Selected range

Filename Z:\data\hexonut\Seeding\Dream Theater\Bootlegs\2016-Metropolis Part 1… Live (Summerfest Milwaukee June '93)\Metropolis Part 1… Live (Summerfest Milwaukee June '93) CD 2.wav

Peak level 91.7 %
Extraction speed 7.3 X
Range quality 100.0 %
Test CRC AA650DA7
Copy CRC AA650DA7
Copy OK

No errors occurred


AccurateRip summary

Track 1 accurately ripped (confidence 1) [C316EFA5] (AR v2)
Track 2 accurately ripped (confidence 1) [F7BCAC16] (AR v2)
Track 3 accurately ripped (confidence 1) [F4AB55DB] (AR v2)
Track 4 accurately ripped (confidence 1) [D033487C] (AR v2)
Track 5 accurately ripped (confidence 1) [2B50DABA] (AR v2)
Track 6 accurately ripped (confidence 1) [3A1150C2] (AR v2)
Track 7 accurately ripped (confidence 1) [D46CD3D1] (AR v2)

All tracks accurately ripped

End of status report

==== Log checksum 5111882FB8413B3EC3E0716363F161FB66F919F0BAE8BA3BDF4017C83E6D5075 ====


[CUETools log; Date: 17.08.2017 22:02:15; Version: 2.1.4]
[CTDB TOCID: lkMgIFS3fcsdZcFbCn16sqAP2pA-] found.
Track | CTDB Status
1 | (1/1) Accurately ripped
2 | (1/1) Accurately ripped
3 | (1/1) Accurately ripped
4 | (1/1) Accurately ripped
5 | (1/1) Accurately ripped
6 | (1/1) Accurately ripped
7 | (1/1) Accurately ripped
[AccurateRip ID: 001270f4-006a017f-4f0d9007] found.
Track [ CRC | V2 ] Status
01 [d7b0203a|c316efa5] (0+1/1) Accurately ripped
02 [cd450a15|f7bcac16] (0+1/1) Accurately ripped
03 [c996cfb9|f4ab55db] (0+1/1) Accurately ripped
04 [8e5230e4|d033487c] (0+1/1) Accurately ripped
05 [4a1c4270|2b50daba] (0+1/1) Accurately ripped
06 [2e18ece3|3a1150c2] (0+1/1) Accurately ripped
07 [c28f6274|d46cd3d1] (0+1/1) Accurately ripped

Track Peak [ CRC32 ] [W/O NULL] [ LOG ]
– 91,7 [AA650DA7] [9FC08AED] CRC32
01 91,7 [8FB7948D] [C9F9F08E]
02 91,7 [F87FBAF0] [7B6941AE]
03 91,7 [497F99C3] [AAD3B9AD]
04 91,7 [2C4D2E11] [0736BF4E]
05 91,7 [256917C0] [231765DB]
06 91,7 [C6882F30] [2D24AFE8]
07 91,7 [92832588] [DC0E87A7]


Dream Theater - Metropolis Part 1... Live (2016)

All thanks go to hexonut

Dream Theater in my Blog

Download Dream Theater - Metropolis Part 1… Live (2016):