Tags
Language
Tags

Duke Ellington - Unknown Session (1979)

Posted By: Designol
Duke Ellington - Unknown Session (1979)

Duke Ellington - Unknown Session (1979) Recorded in 1960
EAC | FLAC | Tracks (Cue&Log) ~ 204 Mb | Scans included | Time: 00:39:06
Genre: Jazz | Label: Columbia | # COL 472084 2

Discovered in Columbia's vaults 19 years after it was performed, this recording features a septet from Duke Ellington's orchestra keeping busy in the studios mostly playing standards and blues. With altoist Johnny Hodges, baritonist Harry Carney, trombonist Lawrence Brown and cornetist Ray Nance all having ample solo space, these renditions are quite enjoyable, swing hard and sound fresh. Ellington fans should pick this one up.

Review by Scott Yanow, Allmusic.com

Duke Ellington - Unknown Session (1979)



Duke Ellington - piano
Ray Nance - cornet
Lawrence Brown - trombone
Johnny Hodges - alto sax
Harry Carney - baritone sax
Aaron Bell - bass
Sam Woodyard - drums

Recorded: Hollywood, CA, July 14, 1960.

Tracklist:

01. Everything But You (3:32)
02. Black Beauty (3:16)
03. All Too Soon (3:13)
04. Something To Live For (2:45)
05. Mood Indigo (3:48)
06. Creole Blues (2:30)
07. Don't You Know I Care (2:57)
08. A Flower Is A Lovesome Thing (3:12)
09. Mighty Like The Blues (3:19)
10. Tonight I Shall Sleep (2:43)
11. Dual Highway (2:53)
12. Blues (4:57)


Exact Audio Copy V1.1 from 23. June 2015

EAC extraction logfile from 11. October 2016, 21:41

Duke Ellington / Unknown Session

Used drive : PBDS CD-ROM DH-48N1S Adapter: 1 ID: 0

Read mode : Secure
Utilize accurate stream : Yes
Defeat audio cache : Yes
Make use of C2 pointers : No

Read offset correction : 6
Overread into Lead-In and Lead-Out : No
Fill up missing offset samples with silence : Yes
Delete leading and trailing silent blocks : No
Null samples used in CRC calculations : Yes
Used interface : Native Win32 interface for Win NT & 2000
Gap handling : Appended to previous track

Used output format : User Defined Encoder
Selected bitrate : 768 kBit/s
Quality : High
Add ID3 tag : No
Command line compressor : C:\Program Files (x86)\Exact Audio Copy\FLAC\FLAC.EXE
Additional command line options : -8 -V -T "ARTIST=%artist%" -T "TITLE=%title%" -T "ALBUM=%albumtitle%" -T "DATE=%year%" -T "TRACKNUMBER=%tracknr%" -T "GENRE=%genre%" -T "PERFORMER=%albuminterpret%" -T "COMPOSER=%composer%" %haslyrics%–tag-from-file=LYRICS="%lyricsfile%"%haslyrics% -T "ALBUMARTIST=%albumartist%" -T "DISCNUMBER=%cdnumber%" -T "TOTALDISCS=%totalcds%" -T "TOTALTRACKS=%numtracks%" -T "COMMENT=%comment%" %source% -o %dest%


TOC of the extracted CD

Track | Start | Length | Start sector | End sector
––––––––––––––––––––––––––––-
1 | 0:00.00 | 3:32.37 | 0 | 15936
2 | 3:32.37 | 3:16.15 | 15937 | 30651
3 | 6:48.52 | 3:12.50 | 30652 | 45101
4 | 10:01.27 | 2:45.33 | 45102 | 57509
5 | 12:46.60 | 3:48.27 | 57510 | 74636
6 | 16:35.12 | 2:30.20 | 74637 | 85906
7 | 19:05.32 | 2:57.05 | 85907 | 99186
8 | 22:02.37 | 3:12.25 | 99187 | 113611
9 | 25:14.62 | 3:19.25 | 113612 | 128561
10 | 28:34.12 | 2:42.63 | 128562 | 140774
11 | 31:17.00 | 2:52.62 | 140775 | 153736
12 | 34:09.62 | 4:57.03 | 153737 | 176014


Track 1

Filename C:\EACRips\01 - Everything But You.wav

Pre-gap length 0:00:02.00

Peak level 94.3 %
Extraction speed 3.3 X
Track quality 99.9 %
Test CRC C5528564
Copy CRC C5528564
Accurately ripped (confidence 2) [D8301984] (AR v2)
Copy OK

Track 2

Filename C:\EACRips\02 - Black Beauty.wav

Pre-gap length 0:00:03.69

Peak level 75.3 %
Extraction speed 3.5 X
Track quality 99.9 %
Test CRC 1E333864
Copy CRC 1E333864
Accurately ripped (confidence 2) [41191F87] (AR v2)
Copy OK

Track 3

Filename C:\EACRips\03 - All Too Soon.wav

Pre-gap length 0:00:03.60

Peak level 98.6 %
Extraction speed 4.5 X
Track quality 100.0 %
Test CRC 27E50853
Copy CRC 27E50853
Accurately ripped (confidence 2) [936C4EFC] (AR v2)
Copy OK

Track 4

Filename C:\EACRips\04 - Something To Live For.wav

Pre-gap length 0:00:03.82

Peak level 96.8 %
Extraction speed 4.8 X
Track quality 100.0 %
Test CRC 56FD5642
Copy CRC 56FD5642
Accurately ripped (confidence 2) [E0B0A206] (AR v2)
Copy OK

Track 5

Filename C:\EACRips\05 - Mood Indigo.wav

Pre-gap length 0:00:03.53

Peak level 86.9 %
Extraction speed 5.0 X
Track quality 100.0 %
Test CRC F6AACCCB
Copy CRC F6AACCCB
Accurately ripped (confidence 2) [C1E23661] (AR v2)
Copy OK

Track 6

Filename C:\EACRips\06 - Creole Blues.wav

Pre-gap length 0:00:03.53

Peak level 74.3 %
Extraction speed 4.8 X
Track quality 100.0 %
Test CRC 8C35F516
Copy CRC 8C35F516
Accurately ripped (confidence 2) [11343C81] (AR v2)
Copy OK

Track 7

Filename C:\EACRips\07 - Don't You Know I Care.wav

Pre-gap length 0:00:03.00

Peak level 88.7 %
Extraction speed 5.5 X
Track quality 100.0 %
Test CRC D535057E
Copy CRC D535057E
Accurately ripped (confidence 2) [6958E9A0] (AR v2)
Copy OK

Track 8

Filename C:\EACRips\08 - A Flower Is A Lovesome Thing.wav

Pre-gap length 0:00:03.53

Peak level 96.7 %
Extraction speed 5.8 X
Track quality 100.0 %
Test CRC 83F7BEE4
Copy CRC 83F7BEE4
Accurately ripped (confidence 2) [C2A3AAD7] (AR v2)
Copy OK

Track 9

Filename C:\EACRips\09 - Mighty Like The Blues.wav

Pre-gap length 0:00:04.66

Peak level 91.8 %
Extraction speed 6.1 X
Track quality 100.0 %
Test CRC F6CF093D
Copy CRC F6CF093D
Accurately ripped (confidence 2) [D8C8FCCE] (AR v2)
Copy OK

Track 10

Filename C:\EACRips\10 - Tonight I Shall Sleep.wav

Pre-gap length 0:00:03.46

Peak level 51.9 %
Extraction speed 6.1 X
Track quality 100.0 %
Test CRC 74F88504
Copy CRC 74F88504
Accurately ripped (confidence 2) [4F2AAD22] (AR v2)
Copy OK

Track 11

Filename C:\EACRips\11 - Dual Highway.wav

Pre-gap length 0:00:03.44

Peak level 91.2 %
Extraction speed 6.4 X
Track quality 100.0 %
Test CRC D32AE5B9
Copy CRC D32AE5B9
Accurately ripped (confidence 2) [2EE58622] (AR v2)
Copy OK

Track 12

Filename C:\EACRips\12 - Blues.wav

Pre-gap length 0:00:02.76

Peak level 90.3 %
Extraction speed 7.0 X
Track quality 100.0 %
Test CRC AC968C87
Copy CRC AC968C87
Accurately ripped (confidence 2) [BA1C88B3] (AR v2)
Copy OK


All tracks accurately ripped

No errors occurred

End of status report

–– CUETools DB Plugin V2.1.6

[CTDB TOCID: VQwtpTdKP2recMvfDAhdRk4omjc-] found
Submit result: VQwtpTdKP2recMvfDAhdRk4omjc- has been confirmed
Track | CTDB Status
1 | (9/9) Accurately ripped
2 | (9/9) Accurately ripped
3 | (9/9) Accurately ripped
4 | (9/9) Accurately ripped
5 | (9/9) Accurately ripped
6 | (9/9) Accurately ripped
7 | (9/9) Accurately ripped
8 | (9/9) Accurately ripped
9 | (9/9) Accurately ripped
10 | (9/9) Accurately ripped
11 | (9/9) Accurately ripped
12 | (9/9) Accurately ripped


==== Log checksum 08448D15D28E6F6F5D95C0009B1F76673B68C9B7A899A55008C7C46A86A2DF5D ====

foobar2000 1.2 / Dynamic Range Meter 1.1.1
log date: 2016-10-14 14:13:30

––––––––––––––––––––––––––––––––––––––––
Analyzed: Duke Ellington / Unknown Session
––––––––––––––––––––––––––––––––––––––––

DR Peak RMS Duration Track
––––––––––––––––––––––––––––––––––––––––
DR14 -0.51 dB -18.57 dB 3:32 01-Everything But You
DR12 -2.46 dB -19.11 dB 3:16 02-Black Beauty
DR13 -0.12 dB -16.06 dB 3:13 03-All Too Soon
DR13 -0.28 dB -16.90 dB 2:45 04-Something To Live For
DR14 -1.21 dB -19.10 dB 3:48 05-Mood Indigo
DR13 -2.58 dB -20.91 dB 2:30 06-Creole Blues
DR14 -1.04 dB -19.96 dB 2:57 07-Don't You Know I Care
DR15 -0.29 dB -19.09 dB 3:12 08-A Flower Is A Lovesome Thing
DR15 -0.73 dB -18.78 dB 3:19 09-Mighty Like The Blues
DR11 -5.68 dB -20.47 dB 2:43 10-Tonight I Shall Sleep
DR15 -0.80 dB -19.06 dB 2:53 11-Dual Highway
DR15 -0.88 dB -18.54 dB 4:57 12-Blues
––––––––––––––––––––––––––––––––––––––––

Number of tracks: 12
Official DR value: DR14

Samplerate: 44100 Hz
Channels: 2
Bits per sample: 16
Bitrate: 841 kbps
Codec: FLAC
================================================================================

Duke Ellington - Unknown Session (1979)

Duke Ellington - Unknown Session (1979)

All thanks to original releaser - robman62

More interesting music in My Blog